<?xml version="1.0" standalone="no"?>
<!DOCTYPE svg PUBLIC "-//W3C//DTD SVG 1.1//EN" "http://www.w3.org/Graphics/SVG/1.1/DTD/svg11.dtd" >
<svg xmlns="http://www.w3.org/2000/svg">
<metadata></metadata>
<defs>
<font id="devroyeregular" horiz-adv-x="620" >
<font-face units-per-em="1000" ascent="800" descent="-200" />
<missing-glyph horiz-adv-x="292" />
<glyph horiz-adv-x="1000" />
<glyph horiz-adv-x="1000" />
<glyph horiz-adv-x="333" />
<glyph horiz-adv-x="388" d="M368 852q-2 -17 -7 -37.5t-14 -38.5t-24 -30t-36 -12q-23 0 -37 12.5t-21.5 31.5t-9.5 41t-1 42q-20 -4 -31.5 -8.5t-16.5 -8.5t-6.5 -8t-1.5 -8q-3 -26 1.5 -49.5t16.5 -41.5t32 -28.5t49 -10.5q34 0 60.5 14.5t46.5 37.5t33 52t19 59z" />
<glyph horiz-adv-x="295" d="M279 854q1 11 0.5 26t-4 28t-12 22t-23.5 9q-16 0 -27 -9.5t-18 -23t-11 -29.5t-5 -28t-0.5 -26.5t4.5 -27t13 -21t25 -8.5q15 0 25.5 9.5t17.5 23t10.5 28.5t4.5 27z" />
<glyph horiz-adv-x="388" d="M395 846q4 39 -12.5 68.5t-59.5 29.5q-27 0 -48.5 -13.5t-36.5 -34.5t-24 -46t-12 -48q-4 -39 13 -67.5t60 -28.5q28 0 49 13t36 33.5t23.5 45t11.5 48.5zM353 819q-1 -12 -4.5 -27t-10.5 -28.5t-17.5 -22.5t-26.5 -9q-18 0 -28.5 10.5t-15.5 25.5t-6 32.5t0 31.5 q1 13 5 28t11.5 27.5t18.5 21t28 8.5t27 -10.5t14.5 -25.5t5 -32t-0.5 -30z" />
<glyph unicode="&#xa;" horiz-adv-x="577" d="M385 885q1 11 0 23.5t-5.5 22.5t-13 16.5t-22.5 6.5q-26 0 -37.5 -19t-13.5 -41q-3 -25 -2 -49.5t-1 -49.5q-4 -32 -13 -54t-36 -43h-1q-9 -5 -10 -14q-1 -6 2.5 -13t10.5 -7q2 0 5.5 2.5t5.5 3.5h1q22 17 44 42.5t40 55t30.5 60t15.5 57.5zM537 883q1 11 0 23.5 t-5.5 22.5t-13 16.5t-22.5 6.5q-26 0 -37.5 -19t-13.5 -41q-3 -25 -2 -49.5t-2 -49.5q-3 -32 -12 -54t-36 -43h-1q-4 -2 -7 -5.5t-3 -8.5q-1 -6 2.5 -13t10.5 -7q2 0 5.5 2.5t4.5 3.5h1q22 17 44 42.5t40.5 55t31 60t15.5 57.5z" />
<glyph horiz-adv-x="486" d="M248 -364q20 30 29 58t13 62q3 30 -2.5 54t-13 45.5t-13.5 40.5t-4 38q0 2 -0.5 5t0.5 5q1 13 6.5 22.5t12.5 18t14 16.5t11 18l-49 1q-6 -14 -17 -37t-23 -50t-22.5 -56t-16.5 -56q-3 -22 2.5 -34.5t15 -19t20.5 -9.5t21 -7.5t15.5 -12.5t4.5 -24q-2 -19 -9.5 -37.5 t-15.5 -35.5z" />
<glyph horiz-adv-x="704" d="M596 1058q-1 -5 -12.5 -20.5t-26 -34t-28 -35t-18.5 -23.5q-3 -3 -16 -20t-28.5 -36.5t-29 -35t-16.5 -15.5h-13t-13 1q-3 5 -10.5 23t-16.5 42t-19 51t-18 50.5t-13 40.5t-4 20q1 6 9 6h6q16 0 19 -3t9 -18l56 -140l11 6l95 130q11 15 16.5 20.5t22.5 5.5h8q10 0 21 -2 t9 -11v-2z" />
<glyph unicode="&#xd;" horiz-adv-x="292" />
<glyph horiz-adv-x="899" d="M1000 1006l-49 32l-914 -1259l49 -32z" />
<glyph horiz-adv-x="607" d="M586 10l-2 35q-22 -5 -43 -5q-19 0 -27.5 25t-11 61.5t0 79t6.5 78.5q3 26 5.5 45t3.5 27q6 58 8.5 115.5t1.5 115.5h-281q3 26 7.5 59t12.5 67.5t21 67t32.5 58.5t47 41.5t64.5 15.5q31 0 43.5 -15.5t18 -34.5t10 -34.5t20.5 -15.5h9q13 0 18.5 3t7.5 20q2 18 4 34t4 29 q2 19 0.5 33t-10.5 23t-27.5 13.5t-50.5 4.5q-59 0 -105 -24t-81 -62.5t-60 -87.5t-41 -100q-2 -7 -5.5 -18t-7 -22.5t-8 -21.5t-8.5 -15q-11 -14 -24 -16t-28 -2l-6 -56h49q-6 -30 -10 -60l-8 -60l-26 -251q-2 -19 -4.5 -39.5t-4.5 -40.5q-2 -16 -3 -31t0 -29 q0 -12 1.5 -16t15.5 -4h14q15 0 30 3.5t23 17.5q4 9 9 32.5t8.5 50.5t6.5 52.5t5 37.5q8 78 13 155.5t13 155.5l4 31h230q-9 -34 -15 -68t-13 -69q-14 -73 -25.5 -146t-19.5 -147q-2 -20 -2.5 -40.5t5 -37.5t19 -27.5t39.5 -10.5q32 0 63.5 7.5t63.5 12.5z" />
<glyph horiz-adv-x="629" d="M607 10l-2 35q-10 -2 -20.5 -3.5t-20.5 -1.5q-21 0 -29.5 25t-10.5 59t0.5 67t4.5 50v4q1 15 5 51.5t9 87t10.5 109.5t10.5 119.5t9.5 117t6.5 101t2 72.5q0 29 -4 33q-6 6 -18.5 10t-27 6.5t-28.5 3.5t-23 1q-60 0 -106.5 -23.5t-81.5 -62.5t-60 -88.5t-41 -100.5 q-2 -7 -5.5 -18t-7 -22.5t-8 -21.5t-8.5 -15q-11 -14 -24 -16t-28 -2l-6 -56h49q-12 -63 -18 -126l-24 -231q-2 -21 -5 -43.5t-6 -45.5q-2 -17 -3 -33t0 -32q0 -11 2 -15.5t15 -4.5h14q15 0 30 3.5t23 17.5q4 9 9 32.5t8.5 51t6.5 52.5t5 37q8 78 13 155.5t13 155.5l3 26 h137q14 0 17.5 5.5t5.5 19.5l3 31h-156q3 27 8 61t13 68t21.5 66.5t33.5 58t48 40.5t66 15q31 0 47 -10t22.5 -27t6 -39.5t-3.5 -47.5q-5 -42 -11.5 -82t-13.5 -81q-19 -118 -33.5 -234t-27.5 -234l-2 -20q-2 -21 -2.5 -44t4.5 -42t18.5 -31.5t39.5 -12.5q32 0 63 7t63 12z " />
<glyph horiz-adv-x="546" d="M379 467l-35 46l-71 -59q5 66 10 131t10 131h97l5 40h-231l-5 -40h67q-18 -86 -32 -171t-26 -172l-125 -94l35 -47l81 60l-4 -41q-6 -53 -9 -105.5t-5 -105.5h-52l-4 -40h410q8 0 9.5 7t2.5 12q10 37 21 74.5t15 75.5q1 7 0.5 10t-8.5 3q-26 0 -38.5 -9.5t-19.5 -24.5 t-12.5 -31.5t-16.5 -31.5t-32 -24.5t-59 -9.5q-15 0 -28 -0.5t-25 -0.5q-16 0 -28.5 2t-20.5 9.5t-11 21t-1 36.5q7 64 12.5 128t11.5 129z" />
<glyph horiz-adv-x="306" d="M321 550l-35 46l-49 -38q9 97 17.5 192t10.5 191h-140l-4 -36h89q-15 -74 -25 -147t-22 -147q-5 -32 -9.5 -62.5t-9.5 -62.5l-101 -78l35 -47l55 42q-9 -65 -16.5 -129.5t-14.5 -129.5l-3 -24q-2 -21 -2.5 -43.5t4.5 -41t18.5 -31t39.5 -12.5q32 0 63.5 8t63.5 13l-1 35 l-22 -4t-22 -2q-17 0 -25.5 10t-11.5 24t-2 30.5t2 28.5q6 87 12 172t14 172z" />
<glyph horiz-adv-x="587" d="M571 170q1 8 -5 10t-14 2h-13q-20 0 -30.5 -9.5t-17.5 -23.5t-13.5 -30.5t-18.5 -30.5t-32.5 -23.5t-54.5 -9.5q-49 0 -97 1t-99 6q56 83 114.5 163.5t112.5 164.5q33 51 64.5 102t63.5 102q19 31 36.5 62.5t39.5 61.5l8 12l8 12l-21 22q-11 -5 -22.5 -8t-22.5 -3 q-93 0 -184 3.5t-184 3.5q-24 0 -31 -8.5t-9 -31.5q-2 -17 -4.5 -34.5t-4.5 -34.5q-2 -14 -2.5 -27.5t1.5 -26.5q0 -7 4 -7q32 0 44.5 8t16.5 20.5t5.5 28.5t13.5 32q5 7 21 11t35 6t36 2.5t25 0.5q43 0 85.5 -1.5t85.5 -1.5l12 4q-15 -19 -43.5 -54.5t-64.5 -81.5 t-76.5 -99.5t-81 -108t-77.5 -107t-66 -97t-47 -78t-20 -49.5q-2 -17 8.5 -21t24.5 -4q92 0 182.5 -0.5t182.5 -0.5h17q17 0 35.5 4t25.5 22q4 10 12 30.5t15.5 43t13.5 42.5t7 29zM584 1032q-1 -5 -12.5 -20.5t-26 -34t-27.5 -35t-18 -23.5q-3 -3 -16 -20t-29 -36.5 t-29.5 -35t-16.5 -15.5h-13t-13 1q-3 5 -10 23t-16.5 42t-19.5 51t-18 50.5t-13 40.5t-4 20q2 6 9 6h6q16 0 19.5 -3t9.5 -18l55 -140l12 6l94 130q11 15 16.5 20.5t22.5 5.5h8q10 0 21 -2t10 -11z" />
<glyph horiz-adv-x="419" d="M399 125q-12 -28 -25 -41t-45 -13q-46 0 -90 9.5t-90 9.5q25 41 49 82t47 83q35 67 68 134t76 130h1q18 12 36.5 28t20.5 39q1 7 -2 15.5t-11 8.5q-15 -8 -25.5 -14t-21 -11t-22.5 -7.5t-30 -2.5t-35.5 4t-35 9.5t-35 9.5t-35.5 4q-41 0 -55.5 -16t-18.5 -54l-7 -70h29 q-2 10 1 28q2 16 7 30.5t16 14.5q10 0 17.5 -9t16 -20t20 -20t31.5 -9q14 0 28 5t30 5q-13 -20 -25.5 -41t-24.5 -42q-44 -81 -87 -161.5t-86 -162.5q-23 -5 -39.5 -18t-18.5 -37q-1 -10 1.5 -22t15.5 -12q9 0 16 5t14.5 11.5t16.5 11.5t21 5q22 0 46.5 -11.5t50 -25.5 t51.5 -25.5t52 -11.5t44.5 19t31 45.5t21 55t14.5 47.5zM477 860q-1 -5 -12.5 -20.5t-26 -34t-27.5 -35t-18 -23.5q-3 -3 -16 -20t-29 -36.5t-29.5 -35t-16.5 -15.5h-13t-12 1q-3 5 -10.5 23t-17 42t-19.5 51t-18 50.5t-13 40.5t-4 20q2 6 9 6h6q16 0 19.5 -3t9.5 -18 l55 -140l12 6l94 130q11 15 16.5 20.5t22.5 5.5h8q10 0 21 -2t10 -11zM398 126h-1v-1zM399 125v1h-1z" />
<glyph unicode=" "  horiz-adv-x="292" />
<glyph unicode="&#x09;" horiz-adv-x="292" />
<glyph unicode="&#xa0;" horiz-adv-x="292" />
<glyph unicode="!" horiz-adv-x="230" d="M236 729l1 15q1 13 3 32.5t2 38.5t-3 33.5t-10 17.5q-8 5 -16 5.5t-18 0.5q-21 0 -33.5 -10t-20 -25t-11 -33t-4.5 -33q-14 -140 -17.5 -277.5t-10.5 -276.5q0 -8 -0.5 -18t1.5 -19t7 -15t16 -6q13 0 17.5 8t8.5 19q9 30 14 61.5t10 62.5q17 105 35 209.5t29 209.5z M152 4q1 11 1 26t-3.5 28.5t-11.5 22.5t-23 9q-16 0 -27 -9.5t-18 -23t-10.5 -29.5t-4.5 -28q-2 -12 -1.5 -26.5t4.5 -27.5t12.5 -21.5t24.5 -8.5q15 0 25.5 9.5t17 23t10 29t4.5 26.5z" />
<glyph unicode="&#x22;" horiz-adv-x="412" d="M258 881q1 12 0 25.5t-5.5 24t-13.5 17.5t-24 7t-26 -7t-18.5 -17.5t-11.5 -23.5t-5 -25q-3 -23 -1 -45.5t0 -45.5q-4 -35 -23 -72t-48 -60v-1q0 -1 -1 0q-10 -7 -10 -16q-1 -5 1.5 -11.5t7.5 -6.5q6 0 14 4.5t13 8.5q28 19 54 47.5t46 61t33.5 67.5t17.5 68zM472 881 q1 12 0 25t-5.5 24t-13.5 18t-24 7q-14 0 -25 -7t-18.5 -17.5t-12 -23.5t-5.5 -25q-3 -23 -1 -46t0 -46q-3 -32 -16 -57.5t-27.5 -44.5t-26 -30t-11.5 -13q-1 -5 0 -13t8 -8q6 0 13.5 5t12.5 8q28 19 54 47.5t46.5 61t34 67.5t17.5 68z" />
<glyph unicode="#" horiz-adv-x="431" d="M356 663q-13 0 -16 -0.5t-4 -0.5h-4h-16h-70l18 79q2 14 -8 19t-21 5q-10 0 -18 -3.5t-10 -8.5l-20 -91q-27 0 -38.5 0.5t-15.5 0.5h-5h-5q-6 0 -9 -5t-5 -19q-2 -19 0 -25t8 -6q4 0 3 0t2 0.5t14 0.5h39l-25 -121q-26 0 -36.5 0.5t-13.5 0.5h-3h-5q-6 0 -9 -5t-5 -19 q-2 -19 0 -25t8 -6h2h2q3 0 14.5 0.5t33.5 0.5l-22 -99q-2 -14 7.5 -19t20.5 -5q10 0 18.5 3.5t9.5 8.5l25 112h110l-22 -100q-2 -14 7.5 -19t20.5 -5q10 0 18.5 3.5t9.5 8.5l25 111q26 0 36 -0.5t13 -1t2.5 -1t4.5 -0.5q14 0 19 8t7 22q2 18 -2.5 23t-18.5 5h-49l25 119 q33 0 40 -0.5t7 -1.5v-1h3q14 0 19 8t7 22q2 18 -2.5 23t-18.5 5h-43l18 77q2 14 -8 19t-21 5q-10 0 -18 -3.5t-10 -8.5zM319 489q-13 0 -15 -0.5l-2 -0.5h-3h-14h-76l25 122h110z" />
<glyph unicode="$" horiz-adv-x="547" d="M512 211q4 44 -7 76.5t-33.5 58t-53.5 45.5t-65 38l27 256q30 -3 45.5 -13t23 -23.5t9.5 -28.5t4 -27.5t7 -20.5t19 -8h15q8 0 11.5 3.5t5.5 17.5l8 80q1 13 1.5 22t-2.5 15t-9.5 10t-19.5 9q-27 10 -55.5 12.5t-57.5 2.5l10 93h-39l-10 -98h-4q-39 -6 -72 -23t-58 -43 t-40.5 -59.5t-19.5 -71.5q-4 -41 7 -72t33 -55.5t51 -44t61 -36.5l-30 -285q-48 0 -71 12.5t-32.5 31.5t-9 41t0.5 41t-5.5 31.5t-25.5 12.5h-10q-8 0 -15.5 -1.5t-8.5 -9.5l-14 -136q-2 -14 0.5 -21t15.5 -17q36 -25 80.5 -30t89.5 -5l-10 -87h39l11 96q41 6 76.5 24.5 t62 46.5t43 63.5t21.5 76.5zM428 169q-4 -38 -24.5 -71t-59.5 -47q-3 -1 -13 -3.5t-18 -2.5l28 263q17 -12 34 -26t29.5 -31.5t19.5 -37.5t4 -44zM316 449q-20 12 -36 24t-27 27t-16 33t-3 41q2 18 10.5 37.5t22.5 35t32.5 25.5t41.5 10z" />
<glyph unicode="%" horiz-adv-x="807" d="M808 775q0 6 -4 8t-9 2q-12 0 -36 -17.5t-59 -39t-81.5 -39t-103.5 -17.5q-30 0 -59.5 6.5t-55.5 21.5q-11 39 -39.5 62t-70.5 23q-39 0 -71.5 -19t-56.5 -48.5t-38.5 -65.5t-18.5 -71q-3 -30 1.5 -57.5t18 -47.5t36.5 -32t56 -12q38 0 70 16.5t56 43.5t39 61t19 69 q1 8 2 15t6 15q25 -5 47 -10t48 -5q23 0 46.5 3t46.5 10l8 2t11.5 3.5t19 7t30.5 12.5q-69 -79 -140 -162t-140 -168.5t-135 -172t-125 -172.5h75q63 95 127 188t134 183q69 88 141.5 170.5t144.5 167.5q9 5 19 12t18.5 15.5t15 18t7.5 20.5zM782 190q3 31 -2 57.5t-19 46 t-37 30.5t-56 11q-41 0 -74.5 -18.5t-58 -48.5t-39 -67t-18.5 -74q-7 -63 21.5 -102t94.5 -39q41 0 74 18t57 47t38.5 65.5t18.5 73.5zM712 147q-2 -18 -7.5 -39.5t-16 -40t-26.5 -30.5t-39 -12q-27 0 -42.5 15t-23.5 37.5t-9.5 48t0.5 46.5q2 20 8 42t16.5 40t27.5 30 t42 12q26 0 41 -15.5t22.5 -38.5t8 -49t-1.5 -46zM339 604q-2 -20 -8 -42.5t-16.5 -41.5t-27.5 -32t-42 -13q-26 0 -41 13.5t-22.5 33.5t-9 44t0.5 44t7.5 43.5t16.5 44t28 34.5t43 14q19 0 37 -10q0 -22 7 -33.5t25 -22.5q3 -19 3.5 -37.5t-1.5 -38.5z" />
<glyph unicode="&#x26;" horiz-adv-x="1152" d="M1282 534q5 38 -16.5 62t-59.5 24q-11 0 -23 -3.5t-22.5 -10.5t-17.5 -16.5t-8 -22.5q-2 -14 10.5 -23t27 -18.5t26.5 -22t10 -31.5q-2 -18 -15.5 -30t-31.5 -19t-37 -9.5t-33 -2.5q-28 0 -54 6.5t-50 17.5t-47 24t-46 27q-43 27 -90 51t-102 24q-29 0 -61.5 -10.5 t-61 -30t-48.5 -46t-23 -58.5q-4 -36 19.5 -54t56.5 -18q16 0 34 7.5t20 27.5q1 15 -7 25t-17.5 18.5t-18 18t-6.5 24.5q2 20 18 30.5t34 10.5q31 0 59 -15.5t48.5 -40t31.5 -55t8 -60.5q-7 -62 -41.5 -115t-84.5 -92t-110.5 -61t-119.5 -22q-46 0 -86.5 15t-72 42.5 t-51 65.5t-23.5 83h3q47 18 95.5 48t88.5 69.5t67 87t33 99.5q5 50 -16.5 82.5t-74.5 32.5q-44 0 -82.5 -18.5t-71 -49.5t-59.5 -71.5t-46.5 -83.5t-31.5 -86t-16 -79q-8 -74 10 -129t57 -92.5t96.5 -56t127.5 -18.5q102 0 194.5 38.5t170.5 111.5q19 18 37 39t32.5 44 t24.5 48t13 51q2 14 1 26.5t1 24.5q31 -19 67.5 -27t74.5 -8q42 0 90 13t90 38.5t71.5 63t34.5 85.5zM402 516q-5 -48 -27.5 -86t-60.5 -71q-9 -8 -21.5 -17.5t-27 -18.5t-28.5 -15t-25 -6q-8 0 -11.5 5.5t-4.5 13t-0.5 15.5t0.5 13q2 18 7.5 45t14 56.5t21 58.5t29 52.5 t37 38t44.5 14.5q19 0 30.5 -9.5t17 -24t6.5 -32t-1 -32.5z" />
<glyph unicode="'" horiz-adv-x="257" d="M288 881q1 12 0 25.5t-5.5 24t-13.5 17.5t-24 7t-26 -7t-18.5 -17.5t-12 -23.5t-5.5 -25q-3 -23 -0.5 -45.5t0.5 -45.5q-4 -35 -23 -72t-48 -60v-1q0 -1 -1 0q-10 -7 -10 -16q-1 -5 1.5 -11.5t7.5 -6.5q7 0 14.5 4.5t12.5 8.5q28 20 54 48t46 60.5t33.5 67.5t17.5 68z " />
<glyph unicode="(" horiz-adv-x="446" d="M415 -355q-84 45 -135 112.5t-76.5 148.5t-30 172t5.5 184q9 90 32 188.5t66 189t109 164.5t162 116l-8 33q-101 -40 -179.5 -112.5t-135.5 -163t-91 -192.5t-44 -201q-11 -106 -1 -207.5t45.5 -190t99.5 -160t161 -117.5z" />
<glyph unicode=")" horiz-adv-x="450" d="M418 287q10 100 -2 200.5t-49.5 189.5t-100.5 160.5t-154 115.5l-15 -33q57 -27 97.5 -69.5t68 -94.5t42.5 -112t21.5 -123t5 -126.5t-7.5 -122.5q-10 -94 -33 -186.5t-66 -175t-108.5 -151t-160.5 -114.5l14 -36q106 46 185 117.5t134 161t86.5 191.5t42.5 208z" />
<glyph unicode="*" horiz-adv-x="402" d="M442 650q1 11 -3 18t-11.5 11.5t-16 7t-16.5 4.5q-5 1 -20 5t-31.5 8.5t-30 7.5t-15.5 3l2 5h1q6 0 27 6t45 13.5t44.5 15.5t26.5 11h1q6 4 8.5 10t3.5 13q1 8 -4 15t-14 7q-7 0 -25 -9t-38.5 -21t-38.5 -24t-26 -17h-1l-3 -3h-7l-5 4h-2q5 7 18.5 27.5t27.5 43t25.5 42 t11.5 26.5q2 8 -2 17t-13 9q-12 0 -20.5 -13.5t-15 -31t-11 -35t-7.5 -25.5l-18 -51h-16q-2 10 -4.5 35.5t-7 52.5t-12 47.5t-19.5 20.5q-11 0 -14.5 -8.5t-4.5 -16.5q-1 -11 5.5 -29.5t15.5 -39t19 -39t15 -28.5l-4 -5h-6q-9 4 -26.5 16t-36.5 24t-36 21.5t-24 9.5 q-11 0 -17 -8.5t-7 -17.5q-2 -16 9 -22.5t23 -10.5q6 -2 22.5 -6t35 -9t34 -8.5t20.5 -3.5h1v-5l-17.5 -5t-39.5 -11.5t-42 -12t-24 -6.5q-13 -4 -23.5 -9.5t-12.5 -21.5q-1 -9 4 -18t15 -9q6 0 25 10t40.5 23t40.5 26t26 18h8l5 -5h1q-7 -12 -20.5 -31t-26.5 -39.5 t-23.5 -39t-11.5 -30.5q-1 -7 1 -16t11 -9t15.5 5.5t11.5 13.5t8 17t5 16q7 26 16 52l18 52h15q1 -9 4 -34.5t8 -52.5t12.5 -48t18.5 -21q10 0 15 9t6 17q1 7 -6 26.5t-16.5 41t-19.5 41t-14 27.5l4 4h6q4 -2 7.5 -5t8.5 -5h1q6 -5 21 -15t31.5 -20t32 -18t22.5 -8 q8 0 14 6.5t7 14.5z" />
<glyph unicode="+" horiz-adv-x="685" d="M661 254l8 78h-254l27 253h-74l-27 -253h-257l-8 -78h257l-27 -255h74l27 255h254z" />
<glyph unicode="," horiz-adv-x="240" d="M174 84q1 12 0.5 24.5t-5 23t-13.5 17.5t-24 7t-26 -6.5t-18.5 -17t-12 -23.5t-5.5 -25q-2 -23 0 -46t0 -46q-5 -42 -26 -74.5t-49 -64.5l-7 -9q0 -4 2 -11.5t7 -7.5q4 0 12 5t13 8q28 19 54.5 47.5t47 61.5t34 68.5t16.5 68.5z" />
<glyph unicode="-" horiz-adv-x="449" d="M389 271l7 68h-282l-7 -68h282z" />
<glyph unicode="." horiz-adv-x="192" d="M150 74q1 11 0.5 26t-4 28t-12 22t-23.5 9q-16 0 -27 -9.5t-18 -23t-10.5 -29.5t-4.5 -28q-2 -12 -1.5 -26.5t4.5 -27t13 -21t25 -8.5q15 0 25.5 9.5t17.5 23t10.5 28.5t4.5 27z" />
<glyph unicode="/" horiz-adv-x="696" d="M847 1006l-49 32l-913 -1259l49 -32z" />
<glyph unicode="0" horiz-adv-x="675" d="M649 417q6 57 -1 119.5t-31.5 114.5t-69 86t-113.5 34q-51 0 -94 -21t-79 -55.5t-64 -79.5t-48.5 -93t-33 -96.5t-16.5 -89.5q-6 -61 0 -124t31 -114.5t71 -84t118 -32.5q52 0 95.5 20.5t78.5 55t62 79.5t46.5 93.5t31.5 97t16 90.5zM542 355q-3 -26 -8.5 -59.5 t-15.5 -68.5t-25 -69.5t-35.5 -61.5t-48 -43.5t-62.5 -16.5q-38 0 -64 19.5t-42.5 51t-25.5 71t-12.5 80t-2.5 78.5t4 66q2 26 8 59t16 67.5t24.5 68t35.5 59.5t48 42t62 16q38 0 64 -19t43 -49.5t26 -69t12.5 -78.5t2.5 -77.5t-4 -65.5z" />
<glyph unicode="1" horiz-adv-x="434" d="M369 0l4 40h-84q5 49 11 98.5t11 100.5q14 127 24 254t18 249q1 6 0.5 10t-8.5 4h-43q-57 -50 -115 -97t-120 -89h1l19 -45q45 33 89 68t98 69q-16 -95 -35 -188.5t-29 -189.5q-6 -61 -10.5 -122t-8.5 -122h-80l-4 -40h262z" />
<glyph unicode="2" horiz-adv-x="595" d="M561 589q5 46 -8.5 80.5t-40.5 57t-64.5 33.5t-79.5 11q-15 0 -40.5 -2.5t-52.5 -7.5t-51.5 -12t-36.5 -15q-9 -6 -10.5 -12t-3.5 -16l-6 -58t-5 -58v-8t2 -13t8 -12t18 -5q16 0 23.5 13t13 32t11.5 41.5t19.5 41.5t37 32t64.5 13q27 0 45.5 -9.5t29.5 -25.5t14.5 -37.5 t0.5 -46.5q-5 -43 -22.5 -80t-43 -70.5t-56.5 -64t-61 -59.5q-34 -33 -66 -65t-59.5 -66.5t-51 -72.5t-41.5 -83l15 -45h403q8 0 10 7t3 12q11 36 21.5 74.5t14.5 75.5q1 7 0.5 10t-8.5 3q-21 0 -32 -4.5t-17 -13.5t-10.5 -21.5t-12.5 -28.5q-10 -21 -19.5 -33.5t-21 -18.5 t-26.5 -7.5t-37 -2.5q-26 -1 -52.5 -1.5t-52.5 -0.5q-22 0 -43 0.5t-43 1.5q4 20 8.5 36t11 31t15.5 29.5t22 31.5q26 34 62 65t75 61t77.5 60.5t70 64.5t53 73t26.5 85z" />
<glyph unicode="3" horiz-adv-x="612" d="M542 222q4 36 -2.5 68t-23 57.5t-43.5 43.5t-64 25l1 10h3q60 21 98 64.5t45 106.5q5 46 -7.5 79.5t-38 55t-62 32t-78.5 10.5q-15 0 -37 -2t-45 -6.5t-44 -11t-34 -15.5q-9 -6 -11.5 -12.5t-3.5 -16.5q-6 -55 -9 -86t-3.5 -46t0.5 -18t4 -3h10q13 0 24.5 2.5t19.5 16.5 q14 22 17.5 48.5t10.5 48.5t26 37t64 15q29 0 47.5 -11.5t28.5 -30.5t13 -43t0 -49q-6 -53 -26.5 -84.5t-52 -47.5t-71 -20.5t-83.5 -4.5q-6 0 -9.5 -10.5t-5.5 -22.5q-1 -9 -0.5 -17t2.5 -10q16 0 31.5 1t31.5 1q87 0 129.5 -43t33.5 -131q-4 -33 -15 -62.5t-29.5 -52 t-46 -35.5t-63.5 -13q-37 0 -56.5 12t-28 29.5t-10 38.5t-3.5 40t-7.5 32.5t-21.5 15.5q-10 2 -17 2q-6 0 -10 -2t-5 -10l-15 -147q-2 -11 -0.5 -16t9.5 -12q11 -9 30.5 -15.5t42 -10t44.5 -5t37 -1.5q51 0 99 16t86 46t63 73t31 97z" />
<glyph unicode="4" horiz-adv-x="596" d="M571 248q-26 -4 -52.5 -6.5t-55.5 -2.5q14 125 25.5 248.5t18.5 248.5q1 5 1 12q0 8 -8 8h-42q-11 -13 -35.5 -41t-56.5 -65.5t-69.5 -82t-74.5 -89.5t-72 -88t-62 -78.5t-43.5 -59.5t-17.5 -32q0 -2 2 -8.5t4.5 -13.5t5 -13t3.5 -9h311l-3 -26q-2 -17 -4 -40.5t-3.5 -45 t-2.5 -37t1 -18.5q5 -8 13.5 -9.5t18.5 -1.5h12q17 0 30 4.5t20 27.5q5 18 8.5 37.5t5.5 39.5q3 36 6 69q20 0 38.5 -0.5t38.5 -0.5q22 0 28.5 14t8.5 31q1 7 1 14t1 14zM424 626q-23 -98 -35.5 -195t-27.5 -195q-20 0 -52 -1t-67 -1q-24 0 -46.5 0.5t-40 2t-28 4t-10.5 5.5 q1 4 5 9.5t6 8.5q53 81 108 153t118 147q14 16 27 31.5t26 31.5q5 0 8.5 -0.5t8.5 -0.5z" />
<glyph unicode="5" horiz-adv-x="602" d="M548 279q6 57 -9 101t-46 74t-76 45t-100 15q-25 0 -51 -3t-51 -3l18 178q18 -10 31.5 -17t26.5 -11t26 -5.5t30 -1.5h13q48 0 103 4t97 24q2 2 4.5 12t4.5 20q2 14 -3 14q-51 0 -101 4.5t-99 16.5q-24 6 -49 14.5t-51 8.5q-22 0 -44 -12t-33 -32l-28 -267l27 -19 q15 4 29.5 6.5t29.5 2.5q115 0 161 -55t34 -167q-4 -35 -16.5 -69t-33.5 -60t-51.5 -42t-69.5 -16q-36 0 -54.5 11.5t-27 29.5t-10.5 39t-3.5 39.5t-7 32t-21.5 15.5q-10 2 -17 2q-6 0 -10 -2t-5 -10l-15 -147q-2 -11 -0.5 -16.5t9.5 -11.5q10 -8 27 -14t36 -9.5t38 -5.5 t32 -2q59 0 112 23.5t94 63.5t67.5 92.5t32.5 109.5z" />
<glyph unicode="6" horiz-adv-x="699" d="M644 296q6 51 -5.5 95.5t-38 77t-67.5 51.5t-93 19q-49 0 -92 -16.5t-94 -48.5q16 48 42 91.5t61.5 77t80 53.5t97.5 20q26 0 56.5 -6t47.5 -13q5 14 9 27t6 27q1 10 -5.5 15t-15.5 7.5t-19 3t-16 0.5q-63 0 -121.5 -20t-110 -55t-95 -82t-76.5 -101.5t-54 -113.5 t-27 -118q-6 -57 5 -111.5t39 -97t73 -68t108 -25.5q62 0 115 27t93.5 71t65.5 99.5t31 113.5zM541 235q-4 -35 -15.5 -71t-32.5 -65t-51.5 -48t-71.5 -19q-45 0 -75.5 24t-48.5 60.5t-24.5 79.5t-2.5 81q4 34 16.5 71t34.5 67.5t53 50.5t71 20q46 0 76.5 -25t47.5 -62.5 t22 -81.5t1 -82z" />
<glyph unicode="7" horiz-adv-x="514" d="M606 756q1 10 -5 18.5t-17 8.5q-8 0 -18.5 -10t-22 -23t-22 -26t-18.5 -19h-1q-9 -3 -18 -3q-8 0 -19.5 3t-23.5 7.5t-23 8.5t-18 7q-20 7 -43 16t-47.5 16t-48.5 12t-46 5q-33 0 -52 -10.5t-23 -47.5l-15 -140h40q1 6 1 15q0 10 2 21q2 22 9 42t24 20q10 0 25 -9 t34.5 -19.5t42 -19.5t48.5 -9q10 0 22.5 2.5t24.5 5t22.5 5t16.5 2.5l7 -8q-61 -69 -110 -134t-85.5 -133t-60 -143.5t-32.5 -165.5q-2 -13 -3 -25.5t-1 -25.5h103q1 16 2 31t3 32q10 90 32 182.5t63 173.5q12 24 34 59t47.5 71t51 67.5t45.5 48.5q9 7 21 18t23 23.5t19 25 t10 24.5z" />
<glyph unicode="8" horiz-adv-x="645" d="M581 201q4 37 -4.5 70t-26 60.5t-44 49.5t-58.5 38l3 7q25 15 47.5 33.5t40.5 40.5t30 47.5t15 54.5q4 40 -9 71t-38 52.5t-59 32.5t-71 11q-42 0 -81 -15t-70.5 -41.5t-52 -63t-24.5 -79.5q-3 -32 2.5 -58.5t18.5 -49.5t31.5 -42.5t41.5 -37.5l-1 -7q-33 -15 -63 -34 t-53 -43.5t-37.5 -55t-18.5 -68.5q-5 -47 11.5 -83t46.5 -60t70 -36.5t82 -12.5q47 0 93 15.5t84 44t63.5 69t30.5 90.5zM486 162q-3 -32 -18 -57t-37.5 -42.5t-50.5 -27t-58 -9.5q-34 0 -61.5 12t-46 33t-27 50t-4.5 63q3 32 14 56.5t28.5 44t41 35t51.5 30.5 q27 -15 58 -33t56.5 -40.5t41.5 -50.5t12 -64zM516 591q-5 -48 -37.5 -84.5t-78.5 -57.5q-21 12 -47 28.5t-48 37.5t-36 46t-11 55q3 25 15.5 46t32 35t42.5 22t47 8q29 0 52.5 -10.5t40 -28.5t24 -43t4.5 -54z" />
<glyph unicode="9" horiz-adv-x="679" d="M114 62l-2 -16l-2 -16q-2 -12 -1.5 -21t4.5 -10q45 -13 96 -13q95 0 171 35.5t131.5 95.5t89 139.5t42.5 168.5q6 58 -3 119.5t-36 112t-72.5 83t-112.5 32.5q-58 0 -107.5 -27t-87.5 -70t-61.5 -96.5t-29.5 -106.5q-5 -49 4.5 -94t33.5 -80t62.5 -56t91.5 -21 q50 0 87.5 17.5t76.5 50.5l25 28q-8 -55 -29.5 -105t-55 -88.5t-80.5 -61t-106 -22.5q-33 0 -66.5 4t-62.5 18zM540 479q-4 -33 -14.5 -68.5t-29.5 -64.5t-47.5 -48t-68.5 -19q-45 0 -73.5 25.5t-43.5 64t-18.5 82.5t0.5 80q3 33 14 68.5t30.5 65t49 48t69.5 18.5 q43 0 70.5 -26.5t42.5 -65t18.5 -82.5t0.5 -78z" />
<glyph unicode=":" horiz-adv-x="172" d="M188 519q1 11 1 25q0 15 -3 28.5t-11 22.5t-23 9q-17 0 -28 -9.5t-18 -23t-11 -29t-5 -27.5t-1 -27t4 -27.5t12.5 -21.5t24.5 -9q15 0 25.5 9.5t17.5 23.5t10.5 29.5t4.5 26.5zM141 75q1 11 1 25q0 15 -3.5 28t-11 22t-22.5 9q-17 0 -28 -9.5t-18 -23t-10.5 -29 t-4.5 -27.5q-2 -12 -1.5 -26.5t4.5 -27.5t12.5 -21.5t24.5 -8.5t26.5 9.5t17 23.5t9.5 29t4 27z" />
<glyph unicode=";" horiz-adv-x="186" d="M157 84q1 12 0.5 25t-5.5 23.5t-14 17t-24 6.5t-26 -6.5t-18.5 -17t-12 -23.5t-5.5 -25q-2 -23 0.5 -46t0.5 -46q-5 -43 -26.5 -75t-49.5 -64l-7 -9q0 -4 1.5 -11.5t6.5 -7.5q6 0 14.5 5.5t13.5 9.5q27 19 53 47.5t46.5 61.5t34.5 68t17 67zM194 519q1 11 1 25 q0 15 -3 28.5t-11 22.5t-23 9q-17 0 -28 -9.5t-18 -23t-11 -29t-5 -27.5t-1 -27t3.5 -27.5t12 -21.5t24.5 -9q15 0 26 9.5t18 23.5t10.5 29t4.5 27z" />
<glyph unicode="&#x3c;" horiz-adv-x="546" d="M575 535l-41 66l-500 -297q-3 -2 -4 -5.5t-1 -6.5q0 -8 2 -11l440 -294l52 65l-356 240z" />
<glyph unicode="=" horiz-adv-x="751" d="M701 112l9 80h-629l-9 -80h629zM731 395l8 79h-629l-8 -79h629z" />
<glyph unicode="&#x3e;" horiz-adv-x="546" d="M577 292v6q0 4 -3 6l-438 297l-55 -66l358 -243l-406 -240l38 -65l502 294q4 6 4 11z" />
<glyph unicode="?" horiz-adv-x="477" d="M502 711q4 40 -8.5 71t-36.5 51t-57.5 30.5t-70.5 10.5q-41 0 -84 -12t-79 -36t-61 -59.5t-30 -81.5q-2 -14 -0.5 -28.5t7 -26t16 -19t27.5 -7.5q8 0 18 2t19.5 6.5t16.5 11.5t8 17t-3.5 18.5t-10 17.5t-9.5 20.5t-2 26.5q2 22 13 39.5t27 30.5t36 20t41 7q33 0 56 -12 t37 -33t19 -48t2 -57q-4 -41 -21.5 -80t-41.5 -77.5t-51 -75t-50.5 -72.5t-40.5 -70.5t-20 -68.5q-3 -29 12 -50t46 -21q28 0 39.5 17.5t14.5 41.5q5 29 8.5 58t7.5 58q5 35 21 67t37.5 62t46 59t45.5 59.5t36.5 63t19.5 69.5zM254 4q1 11 1 25q0 15 -3.5 28.5t-11.5 23 t-23 9.5q-16 0 -27 -9.5t-18 -23t-10.5 -29.5t-4.5 -28q-2 -12 -2 -26q0 -15 4 -28t12.5 -21.5t24.5 -8.5q15 0 25.5 9.5t17.5 23t10.5 28.5t4.5 27z" />
<glyph unicode="@" horiz-adv-x="1029" d="M943 66q-42 -48 -90.5 -87.5t-104 -68t-117.5 -44t-131 -15.5q-87 0 -163.5 28t-131 83t-82.5 135t-17 185l2 16q7 53 32 110t65 111t93 102t116 84t135 57t148 21h8q104 -2 170 -34t102 -79.5t47 -102.5t6 -103l-1 -7q-8 -59 -31.5 -122.5t-67.5 -116.5t-111 -88 t-161 -35q-29 0 -38 15t-7 42q5 38 26 95q-19 -34 -45 -63t-55.5 -50t-60.5 -33t-61 -12q-27 0 -43.5 10.5t-25 27t-10.5 38t0 44.5q2 17 5 33.5t8 30.5q15 49 44.5 104t71.5 101.5t95.5 77t116.5 30.5q20 0 34.5 -3.5t29.5 -10.5l58 22h2q17 0 15 -15q-1 -5 -2 -9t-3 -9 q-20 -67 -40 -133.5t-41 -132.5q-2 -8 -6 -21.5t-8 -30t-7.5 -33.5t-4.5 -31q-1 -11 -0.5 -20t3.5 -13h12q36 0 72 16.5t67.5 48.5t57.5 79t41 109l1 11q8 73 -14.5 130t-66.5 96t-105 59.5t-130 20.5q-74 0 -147 -20.5t-133.5 -66.5t-103 -120.5t-57.5 -183.5l-1 -15 q-11 -99 17 -172t80 -122t120 -73t139 -24q67 0 120.5 12.5t98.5 34.5t83.5 52.5t74.5 65.5zM726 502q2 6 2 8q1 12 -5 18t-15.5 9t-21.5 3.5t-23 0.5q-51 0 -86 -17.5t-58 -46t-37.5 -65t-26.5 -74.5q-2 -9 -4 -19t-4 -21q-4 -14 -8.5 -32t-6.5 -37q-2 -15 -0.5 -29.5 t7 -25.5t16.5 -17.5t29 -6.5q28 0 55.5 20.5t52.5 53.5t47 73t39.5 79.5t29.5 73t18 52.5z" />
<glyph unicode="A" horiz-adv-x="704" d="M699 0l4 40q-26 0 -41.5 8.5t-25 23t-14.5 33t-10 39.5q-38 155 -75.5 307.5t-83.5 304.5h-147l-5 -40h89l-283 -595q-9 -18 -17.5 -32.5t-19.5 -25.5t-26 -17t-36 -6l-4 -40h185l4 40h-68l119 269h225q15 -68 31 -135t35 -134h-59l-4 -40h227zM457 361h-186l132 289z " />
<glyph unicode="B" horiz-adv-x="623" d="M613 237q8 76 -28 127.5t-111 64.5h-4l1 6h3q53 23 85 66.5t37 98.5q4 42 -6.5 72.5t-33 50t-55 28.5t-71.5 9q-67 0 -133 -2t-133 -2l-5 -40h69q-27 -116 -44 -232t-29 -234q-6 -52 -9 -104t-5 -104h-52l-4 -42q45 0 89.5 -2.5t89.5 -2.5h26q54 0 109 15t100.5 45.5 t76.5 76t37 105.5zM505 209q-8 -75 -50.5 -118.5t-120.5 -43.5q-26 0 -44.5 2t-29.5 10.5t-15 24.5t-1 43l26 260h8q12 0 24.5 1t23.5 1q45 0 80.5 -10.5t59 -32.5t34 -56t5.5 -81zM494 574q-5 -43 -18 -70t-34.5 -42t-52 -20t-69.5 -5h-46q8 69 12.5 136.5t9.5 136.5 q16 0 32 1t32 1q70 0 106 -32.5t28 -105.5z" />
<glyph unicode="C" horiz-adv-x="639" d="M618 132q1 6 -6.5 15.5t-14.5 9.5q-1 0 -1 -1h-1q-23 -21 -45 -40t-45.5 -33t-50 -22.5t-57.5 -8.5q-71 0 -112 32.5t-60.5 82.5t-22 110.5t3.5 117.5q5 52 18.5 110t40.5 107t71 81t111 32q33 0 58 -4.5t42 -16t26 -32.5t12 -54q1 -8 1.5 -17t3.5 -17t8.5 -13t16.5 -5 q3 0 7 -0.5t9 -0.5q6 0 10.5 2t5.5 9l14 141q2 11 1 17.5t-10 12.5q-10 7 -32.5 12.5t-48 10t-49.5 7t-37 2.5q-90 0 -159 -41t-117.5 -105.5t-76.5 -144.5t-36 -158q-8 -70 0 -132.5t35.5 -110t78.5 -75t130 -27.5q61 0 120 21t108 64q5 4 13 12t16.5 17t14.5 18t6 15z" />
<glyph unicode="D" horiz-adv-x="734" d="M735 401q10 96 -11.5 166.5t-69.5 116.5t-120.5 68t-163.5 22q-64 0 -127.5 -8t-126.5 -19l1 -39q17 4 35.5 6t39.5 2q-23 -117 -41.5 -232.5t-30.5 -232.5q-6 -53 -8.5 -105.5t-4.5 -105.5h-54l-4 -40q54 0 107 -2.5t107 -2.5h29q93 0 170.5 29t135 82t93 128t44.5 167z M632 344q-7 -67 -29 -121.5t-59.5 -93t-91.5 -59.5t-124 -21q-9 0 -26 0.5t-34.5 2t-32.5 5.5t-20 12q-8 11 -7 30.5t2 32.5q11 102 19.5 202.5t19.5 202.5q5 46 8.5 91.5t5.5 91.5q95 0 168.5 -21.5t121.5 -67.5t68.5 -117t10.5 -170z" />
<glyph unicode="E" d="M563 169q1 8 0.5 10.5t-8.5 2.5q-25 0 -37.5 -9.5t-20 -24.5t-13 -31.5t-16.5 -31.5t-31 -24.5t-57 -9.5q-50 0 -86.5 1.5t-44.5 11.5q-3 3 -3.5 18.5t0 37.5t2.5 47.5t4 48.5t3.5 41t2.5 25l9 85h181q16 0 24.5 5.5t10.5 22.5l3 32h-213q5 69 9.5 136.5t10.5 136.5 l155 5q34 0 48 -9.5t18 -44.5v-20q0 -11 2 -21.5t8 -18t18 -7.5q6 0 9.5 -0.5t7.5 -0.5q7 0 10.5 4t5.5 19l15 129l1 4v11t-5 6h-422l-5 -40h67q-24 -116 -41.5 -232t-29.5 -233q-6 -53 -9 -105.5t-5 -105.5h-52l-4 -40h430q8 0 16 24t14 54t11 57t7 34z" />
<glyph unicode="F" horiz-adv-x="512" d="M530 601l15 138v11t-4 6h-401l-5 -40h67q-23 -108 -40 -214.5t-28 -215.5q-6 -62 -10.5 -123t-6.5 -123h-52l-4 -40h221l4 40h-82q12 82 21.5 163.5t18.5 163.5h180q16 0 24.5 5.5t10.5 22.5l3 32h-213q5 69 9 136.5t10 136.5h3q12 0 33.5 2.5t34.5 2.5h56h15q10 0 20 -1 t18 -3.5t13 -6.5q12 -10 13 -28.5t1.5 -36.5t4.5 -31.5t21 -13.5h12q7 0 11.5 3t5.5 14z" />
<glyph unicode="G" horiz-adv-x="732" d="M692 247q8 70 12 137h-169l-5 -40h84q-7 -36 -12.5 -71.5t-9.5 -71.5q-3 -28 -5 -56t-2 -56h-2q-36 -21 -78 -32.5t-82 -11.5q-68 0 -110.5 30.5t-65.5 78t-29 106.5t0 116q6 62 24 124.5t51.5 112.5t85.5 81.5t127 31.5q32 0 56 -4.5t40 -16t24.5 -31.5t11.5 -52 q0 -8 0.5 -17t3 -16.5t7.5 -13t16 -5.5q3 0 7.5 -0.5t9.5 -0.5q6 0 11 2t6 9l15 141q1 11 -0.5 17.5t-10.5 12.5q-12 7 -33 12t-45 8t-47 4t-38 1q-95 0 -171 -37t-131 -98.5t-87.5 -142.5t-41.5 -168q-8 -72 3 -135t43 -109.5t86 -73.5t132 -27q159 0 296 99q7 41 13 81.5 t10 81.5z" />
<glyph unicode="H" horiz-adv-x="774" d="M295 716h64l5 40h-200l-5 -40h67q-23 -108 -40 -214.5t-28 -215.5q-6 -62 -10.5 -123t-6.5 -123h-52l-4 -40h205l4 40h-66q8 53 14.5 105t12.5 105l12 120h315q-7 -43 -12 -89q-6 -60 -8.5 -120.5t-5.5 -120.5h-53l-4 -40h206l4 40h-66q10 72 19 143t17 143 q10 97 17 194.5t12 195.5h63l5 40h-198l-5 -40h68q-17 -72 -27 -144.5t-24 -144.5h-319q7 73 13 144.5t11 144.5z" />
<glyph unicode="I" horiz-adv-x="375" d="M290 0l4 40h-66q10 72 19 143.5t17 143.5q10 97 17 194t12 195h64l5 40h-198l-5 -40h65q0 -12 -3 -24q-41 -203 -63 -406q-6 -62 -10.5 -123t-6.5 -123h-52l-4 -40h205z" />
<glyph unicode="J" horiz-adv-x="456" d="M422 331q11 107 18 213t8 212h-150l-5 -40h87q-17 -78 -29.5 -158.5t-20.5 -158.5q-6 -63 -9 -124t-10 -124q-3 -25 -9.5 -47.5t-19 -40t-32.5 -27.5t-49 -10q-35 0 -51.5 12t-23.5 29.5t-8 38.5t-5 38.5t-15.5 29.5t-37.5 12q-8 0 -13 -6t-8.5 -15t-5 -20t-2.5 -20 l-3 -20q-2 -17 -1.5 -40t14.5 -36q24 -27 56.5 -37t70.5 -10q82 0 129.5 31t73 81t35.5 112t16 125z" />
<glyph unicode="K" horiz-adv-x="712" d="M696 0l-3 35q-12 -4 -28 -4q-28 0 -51.5 24.5t-44 62.5t-39 84t-36 90t-35 80t-36.5 54q-8 8 -17 13t-20 10h-1l317 267h49l5 40h-235l-5 -40h4q9 0 20 -0.5t20 -3.5t15 -9.5t5 -18.5q-1 -11 -10 -21t-17 -17h-1l-284 -246l4 20q7 85 12.5 168t11.5 168h-132l-5 -40h67 q-23 -108 -40 -214.5t-28 -215.5q-6 -62 -10.5 -123t-6.5 -123h-52l-4 -40h205l4 40h-66q10 77 20 152.5t18 152.5h2l60 47q14 -37 29 -72.5t31 -71.5q17 -39 38.5 -84.5t50.5 -84t67.5 -64t90.5 -25.5q15 0 30.5 3t30.5 7z" />
<glyph unicode="L" horiz-adv-x="546" d="M543 169q1 7 0.5 10t-8.5 3q-26 0 -38.5 -9.5t-19.5 -24.5t-12.5 -31.5t-16.5 -31.5t-32 -24.5t-59 -9.5q-15 0 -28 -0.5t-25 -0.5q-16 0 -28.5 2t-20.5 9.5t-11 21t-1 36.5q16 150 27.5 298.5t22.5 298.5h97l5 40h-231l-5 -40h67q-24 -116 -41.5 -232t-29.5 -233 q-6 -53 -9 -105.5t-5 -105.5h-52l-4 -40h410q8 0 9.5 7t2.5 12q10 37 21 74.5t15 75.5z" />
<glyph unicode="M" horiz-adv-x="990" d="M965 0l4 40h-6q-27 0 -40.5 4t-20.5 13.5t-9 26t-5 41.5q-8 66 -14 132t-14 132q-11 93 -23 184t-23 183h-145l-5 -40h84l-1 -20q-55 -130 -114.5 -256t-116.5 -255q-4 -8 -6 -14t-14 -6q-10 0 -13 5.5t-5 13.5q-13 57 -23.5 113.5t-21.5 113.5q-14 88 -31 174t-43 171 h-126l-5 -40h76l2 -20l-187 -569q-6 -18 -12.5 -34t-16.5 -28t-24.5 -18.5t-36.5 -6.5l-4 -40h186l4 40h-71l171 561l8 -50q7 -62 15.5 -130.5t19.5 -138t24.5 -136.5t30.5 -125q5 -20 13 -23.5t25 -3.5h13q14 0 21.5 3.5t15.5 22.5l233 531l16 36q3 -64 7.5 -133.5t10 -140 t12.5 -140t14 -133.5h-65l-4 -40h240z" />
<glyph unicode="N" horiz-adv-x="842" d="M821 17q1 2 1 7q0 6 -4 6q-12 0 -24.5 -0.5t-25.5 -0.5q-16 0 -32 2t-31 8l70 677h70l5 40h-205l-5 -40h88l-67 -645q-39 36 -72 84t-62 101t-54.5 107t-48.5 102q-36 74 -73.5 146.5t-75.5 144.5h-131l-5 -40h74l-70 -676h-74l-4 -40h194l4 40h-75l61 588l15 -47 q18 -57 40.5 -111.5t46.5 -108.5q28 -61 61.5 -127t78.5 -120.5t104.5 -89.5t139.5 -35h13q10 0 22 0.5t23.5 3.5t19 8.5t8.5 15.5z" />
<glyph unicode="O" horiz-adv-x="850" d="M819 422q7 73 -7 138t-49.5 114t-92 77.5t-134.5 28.5q-91 0 -166 -37.5t-129.5 -99t-88 -141t-42.5 -163.5q-8 -72 5 -136.5t46.5 -113.5t88.5 -78t133 -29q96 0 172.5 35t132 95t89 140t42.5 170zM702 364q-6 -57 -22.5 -114.5t-48 -104t-79.5 -75.5t-117 -29 q-70 0 -113 32t-65 82.5t-27 111.5t1 119q6 54 22.5 114t48 110t79 83t114.5 33q72 0 115.5 -35t66 -88t27 -117t-1.5 -122z" />
<glyph unicode="P" horiz-adv-x="596" d="M608 554q7 64 -10.5 104.5t-52 63t-82.5 30.5t-102 8q-50 0 -98.5 -2t-98.5 -2l-5 -40h67q-23 -108 -40 -214.5t-28 -215.5q-6 -62 -10.5 -123t-6.5 -123h-52l-4 -40h205l4 40h-66q10 66 18 132.5t15 132.5h7q8 0 14.5 -0.5t14.5 -0.5q57 0 110 16t95.5 47.5t71 78.5 t34.5 108zM506 525q-8 -84 -59.5 -127t-133.5 -43q-11 0 -23 0.5t-23 0.5q9 87 15 172t11 172h5q8 0 20 2t20 2q90 0 134 -43.5t34 -135.5z" />
<glyph unicode="Q" horiz-adv-x="852" d="M823 426q7 73 -7.5 137.5t-51 113t-93.5 77t-134 28.5q-92 0 -166.5 -37t-129.5 -98.5t-88.5 -140.5t-42.5 -164q-7 -69 6.5 -134.5t47 -115.5t88.5 -80.5t130 -30.5q26 0 51.5 6.5t50.5 6.5h6q-9 -16 -12 -29.5t-5 -30.5q-4 -36 13 -61.5t44.5 -41.5t61.5 -23.5t64 -7.5 q6 0 21 0.5t30.5 2.5t27.5 7t13 14q1 3 0.5 12.5t-4.5 9.5q-9 0 -17.5 -2t-17.5 -2q-28 0 -46.5 11t-31.5 28t-22 37.5t-18.5 39t-21.5 33t-30 19.5h-1q136 68 203 170t82 246zM703 366q-6 -56 -24 -114.5t-50.5 -106t-81 -78t-115.5 -30.5q-73 0 -116.5 32.5t-65.5 83 t-25.5 112.5t2.5 122q6 57 24 117.5t50.5 110.5t82 82t118.5 32q46 0 80.5 -16.5t58 -44.5t37.5 -64.5t21 -77t7.5 -81.5t-3.5 -79z" />
<glyph unicode="R" horiz-adv-x="669" d="M659 1l-7 35q-7 -2 -13.5 -3t-14.5 -1q-29 0 -48.5 19.5t-34 50.5t-25.5 68t-22.5 72t-25.5 63t-34 41q77 30 124 84t56 136q6 54 -6 91t-38 60.5t-65.5 34t-89.5 10.5q-63 0 -125.5 -3t-125.5 -3l-5 -40h67q-23 -108 -40 -214.5t-28 -215.5q-6 -62 -10.5 -123t-6.5 -123 h-52l-4 -40h205l4 40h-66q10 72 18.5 142.5t16.5 142.5q22 0 44 1t44 1h5q7 -29 16 -65t21.5 -74t29.5 -74t40 -64.5t52.5 -45.5t66.5 -17q20 0 39 4t38 10zM506 534q-8 -80 -49.5 -119.5t-122.5 -39.5q-14 0 -29.5 2t-29.5 2h-6q7 83 13 165t11 165h7q11 0 22 1t22 1 q92 0 132 -41.5t30 -135.5z" />
<glyph unicode="S" horiz-adv-x="526" d="M494 219q6 57 -13 97t-50 70t-68.5 54t-69.5 50t-52 56.5t-15 74.5q5 50 36.5 76.5t80.5 26.5q34 0 52.5 -10t28 -24.5t12.5 -31.5t5.5 -31.5t7 -24.5t17.5 -10q3 0 7.5 -0.5t9.5 -0.5q8 0 13.5 2.5t7.5 10.5l11 108q1 11 0 22t-12 17h-1q-21 14 -53 20t-58 6 q-48 0 -91 -15t-76.5 -43t-55.5 -68t-27 -89q-4 -39 2 -66t20 -48.5t35.5 -39.5t48.5 -39q26 -20 55.5 -39.5t53.5 -43.5t38.5 -53.5t10.5 -68.5q-6 -58 -45 -93.5t-97 -35.5q-46 0 -69 13.5t-32 33.5t-9 44v44t-5 33.5t-25 13.5h-4q-14 0 -23 -3.5t-11 -23.5l-13 -129 q-2 -14 0 -22.5t14 -18.5q26 -22 64.5 -30t73.5 -8q54 0 100.5 16.5t82.5 47t58.5 74.5t28.5 99z" />
<glyph unicode="T" horiz-adv-x="604" d="M654 579q5 44 1.5 86.5t1.5 86.5q1 9 -7 9q-69 0 -139 -3.5t-139 -3.5q-63 0 -125.5 2t-125.5 2q-8 0 -8 -10l-1 -3q-1 -12 -5 -25t-8 -25q-9 -29 -17.5 -59t-11.5 -59q-1 -5 6.5 -6t14.5 -1h9q16 0 23.5 10t11.5 25t7.5 32t13 32t27.5 25t51 10q12 0 24.5 0.5t24.5 0.5 h54q-22 -104 -39 -207.5t-28 -208.5q-7 -63 -11 -124.5t-6 -124.5h-70l-4 -40h233l4 40h-72q11 63 20.5 127t16.5 128q5 48 7 96.5t3.5 97t3.5 97t7 96.5l2 23q18 0 36.5 0.5t36.5 0.5h7q10 0 24 -0.5t27.5 -2.5t25 -6t16.5 -11q7 -11 9 -30t5 -38.5t9 -33.5t21 -14 q4 0 8 -0.5t9 -0.5q12 0 16 10z" />
<glyph unicode="U" horiz-adv-x="816" d="M802 16l-2 33q-12 -5 -24.5 -6.5t-24.5 -1.5q-17 0 -24 7t-13 21q-5 13 -4 61t6 114.5t12.5 144t14 150t12 130.5t5.5 87h-135l-5 -40h69q-9 -65 -20.5 -129.5t-22.5 -129.5q-8 -48 -14.5 -96.5t-15.5 -96.5q-7 -39 -30 -74.5t-55 -63t-71 -43.5t-78 -16q-57 0 -86 26.5 t-39.5 67t-8.5 88.5t7 91l15 147q8 68 13.5 134.5t7.5 134.5h-127l-5 -40h62q-16 -96 -36 -190t-30 -191l-3 -26q-6 -54 -8 -111t11.5 -103.5t49.5 -76t107 -29.5q35 0 78.5 14.5t86.5 39.5t80.5 59.5t60.5 74.5l-9 -46q-2 -19 -3 -43.5t3 -47t16.5 -38t38.5 -15.5 q34 0 70 8.5t68 20.5z" />
<glyph unicode="V" horiz-adv-x="655" d="M724 716l5 40l-230 1l-5 -41h19q14 0 28.5 -1.5t25.5 -6t17 -14t4 -25.5q0 -5 -1 -9.5t-3 -9.5q-5 -16 -20.5 -53.5t-37 -85.5t-46 -102t-47.5 -103.5t-42.5 -89.5t-30.5 -60l-15 -29q-16 76 -34.5 156t-38 160t-40 159.5t-41.5 153.5h-102l-5 -40h52q19 -171 48.5 -337 t72.5 -330q1 -6 3.5 -15t6 -18t9.5 -15t14 -6h13q15 0 27.5 3.5t20.5 20.5l329 697h44z" />
<glyph unicode="W" horiz-adv-x="971" d="M1035 716l5 40h-222l-5 -40q18 0 35 -3.5t29.5 -12t19 -22t4.5 -34.5q-2 -16 -14.5 -52t-31 -82t-41 -97.5t-44 -99.5t-39.5 -87t-27 -60l-16 -37q-9 64 -20 134t-22.5 140.5t-23 140t-22.5 132.5q-2 9 -4.5 23t-7.5 26.5t-13.5 21.5t-20.5 9h-12q-13 0 -28 -3t-16 -14 q-3 -27 3 -53t11 -52l-198 -505q-20 104 -34.5 185.5t-25.5 158.5q-11 72 -22.5 143t-30.5 140h-107l-5 -40h56q1 -82 6.5 -172t16 -180.5t26.5 -177.5t39 -164q5 -19 17.5 -25.5t32.5 -6.5q22 0 32 24l206 536q16 -109 30.5 -201t31.5 -176q8 -39 14.5 -79.5t17.5 -78.5 q5 -15 9 -18t20 -3h5q14 0 26 3t18 18l297 701h45z" />
<glyph unicode="X" horiz-adv-x="695" d="M680 0l4 40q-23 0 -40.5 5.5t-34.5 20.5q-12 11 -27.5 36.5t-33 59.5t-36 72.5t-35.5 75t-31.5 67.5t-23.5 49l218 290h60l5 40h-187l-5 -40h8q7 0 15.5 -0.5t16 -2.5t12.5 -6.5t4 -11.5q-1 -5 -11 -21.5t-25.5 -38.5t-34.5 -46t-36.5 -45.5t-32.5 -37.5t-22 -20 q-4 4 -14.5 22.5t-24 45.5t-28.5 58t-29 60t-24.5 51.5t-15.5 32.5h-121l-5 -40h69q29 -85 57.5 -167.5t58.5 -166.5h-1l-215 -281q-11 -14 -20 -25.5t-19.5 -19.5t-23.5 -12t-32 -4l-4 -40h215l4 40q-6 0 -14.5 -0.5t-18.5 -0.5q-9 0 -18.5 1t-16.5 4t-11.5 8t-3.5 13 t14 27.5t32 46t42.5 55.5t46 56t41 48t28.5 31q29 -74 61.5 -146t68.5 -143h-96l-4 -40h295z" />
<glyph unicode="Y" horiz-adv-x="625" d="M704 716l5 40h-183l-5 -40h18q17 0 30.5 -5t11.5 -25q-1 -10 -14 -32.5t-32 -52.5t-42.5 -63.5t-45 -63.5t-39.5 -53.5t-27 -33.5l-13 -13q-37 97 -80 196.5t-98 185.5h-106l-5 -40h47q30 -105 69.5 -204.5t86.5 -196.5h1q-3 -29 -8 -58t-8 -58q-4 -40 -7 -79.5t-6 -79.5 h-69l-4 -40h241l4 40h-68q4 37 9 73.5t9 73.5q4 32 5.5 64t4.5 64h1l280 401h37z" />
<glyph unicode="Z" horiz-adv-x="587" d="M571 170q1 8 -5 10t-14 2h-13q-20 0 -30.5 -9.5t-17.5 -23.5t-13.5 -30.5t-18.5 -30.5t-32.5 -23.5t-54.5 -9.5q-49 0 -97 1t-99 6q56 83 114.5 163.5t112.5 164.5q33 51 64.5 102t63.5 102q19 31 36.5 62.5t39.5 61.5l8 12l8 12l-21 22q-11 -5 -22.5 -8t-22.5 -3 q-93 0 -184 3.5t-184 3.5q-24 0 -31 -8.5t-9 -31.5q-2 -17 -4.5 -34.5t-4.5 -34.5q-2 -14 -2.5 -27.5t1.5 -26.5q0 -7 4 -7q32 0 44.5 8t16.5 20.5t5.5 28.5t13.5 32q5 7 21 11t35 6t36 2.5t25 0.5q43 0 85.5 -1.5t85.5 -1.5l12 4q-15 -19 -43.5 -54.5t-64.5 -81.5 t-76.5 -99.5t-81 -108t-77.5 -107t-66 -97t-47 -78t-20 -49.5q-2 -17 8.5 -21t24.5 -4q92 0 182.5 -0.5t182.5 -0.5h17q17 0 35.5 4t25.5 22q4 10 12 30.5t15.5 43t13.5 42.5t7 29z" />
<glyph unicode="[" horiz-adv-x="370" d="M126 235q8 75 15.5 152.5t14 151t12.5 138.5t10.5 115.5t7 82.5t3.5 39q2 14 5.5 18.5t13.5 4.5h21t40.5 0.5t50.5 1t51.5 1t42.5 0.5h26t9.5 -7t0.5 -18q-2 -14 -5.5 -18.5t-8.5 -4.5t-24.5 0.5t-44 1t-48.5 1t-37 0.5q-7 0 -8 -11l-131 -1224q-1 -11 6 -11q13 0 37 0.5 t48.5 1t44 1t24.5 0.5t8.5 -4.5t1.5 -18.5q-2 -11 -5.5 -18t-10.5 -7h-26q-18 0 -42.5 0.5t-51 1t-50 1t-40.5 0.5h-21q-10 0 -13 4.5t-1 18.5q1 10 8.5 63.5t18 136t23 187.5t24.5 218z" />
<glyph unicode="\" horiz-adv-x="647" d="M755 -221l-634 1259l-54 -32l633 -1259z" />
<glyph unicode="]" horiz-adv-x="370" d="M268 235q8 75 16.5 152.5t17 151t16.5 138.5t14 115.5t10 82.5t5 39q2 14 -1.5 18.5t-13.5 4.5h-21t-40 0.5t-50 1t-51 1t-43 0.5h-25t-10.5 -7t-5.5 -18q-2 -14 1.5 -18.5t8.5 -4.5q4 0 24 0.5t44.5 1t48.5 1t37 0.5q7 0 6 -11l-125 -1224q-1 -11 -8 -11 q-13 0 -36.5 0.5t-48 1t-44.5 1t-24 0.5q-5 0 -8.5 -4.5t-5.5 -18.5q-2 -11 0.5 -18t9.5 -7h26q18 0 42 0.5t51 1t50 1t40 0.5h21q10 0 14 4.5t6 18.5q1 10 5 63.5t10.5 136t15.5 187.5t21 218z" />
<glyph unicode="^" horiz-adv-x="384" d="M412 609q1 5 -5 22t-14 37t-15.5 38t-10.5 26q-2 4 -9.5 24.5t-17 43.5t-19 41.5t-13.5 18.5h-31q-6 -8 -22 -29t-36.5 -48.5t-43.5 -57.5t-41.5 -56t-31.5 -45t-13 -23q0 -5 4.5 -6t9.5 -1h4q9 0 14 1t8.5 3t7 6.5t8.5 12.5l126 174l57 -169q5 -14 9 -21t20 -7h13 q13 0 27 2t15 13z" />
<glyph unicode="_" horiz-adv-x="457" d="M453 -31l7 67h-457l-6 -67h456z" />
<glyph unicode="`" horiz-adv-x="577" d="M421 685q0 3 -6.5 9.5t-14.5 19t-13 32t-2 49.5q2 26 8.5 50.5t8.5 50.5q2 22 -5.5 40.5t-33.5 18.5q-14 0 -24 -6.5t-16.5 -16.5t-10 -22.5t-4.5 -23.5q-5 -44 10 -88t37 -79q3 -4 9 -13t13 -18t14.5 -16t12.5 -7q6 0 11 7.5t6 12.5z" />
<glyph unicode="a" d="M600 13l-1 35q-11 -2 -22.5 -4t-22.5 -2q-21 0 -33 13q-8 9 -10 34t-1 54t3 56t3 40q9 83 19 165t19 165v4q2 14 0 26t-20 12h-2l-61 -27q-19 8 -37 12.5t-40 4.5q-49 0 -89.5 -17.5t-74 -47.5t-59 -69t-44 -82.5t-29.5 -88t-15 -84.5q-4 -33 -2.5 -73t13 -74.5t36 -57.5 t67.5 -23q34 0 67.5 15t63 41.5t53 62t38.5 77.5l-6 -62q-2 -21 -3 -43t4 -40.5t19 -30.5t41 -12q32 0 63 8t63 13zM465 496q-3 -24 -9.5 -65.5t-18.5 -90t-28.5 -98.5t-38.5 -90.5t-49 -66t-60 -25.5t-49.5 20t-22.5 48.5t-5 60t3 55.5q1 12 0.5 24.5t1.5 23.5 q5 47 14 92.5t29.5 81t57 57t95.5 21.5h4q13 0 27.5 -1t25.5 -5.5t18 -14t5 -27.5z" />
<glyph unicode="b" horiz-adv-x="586" d="M564 377q3 33 1.5 72.5t-13 73.5t-36 56.5t-67.5 22.5q-71 0 -126.5 -52.5t-101.5 -139.5l6 35q11 125 21.5 248t15.5 248h-139l-4 -36h89q-36 -188 -62 -374t-46 -375q-4 -37 -2.5 -68.5t13.5 -54t37 -35t69 -12.5q77 0 138 36t104.5 92t69.5 125.5t33 137.5zM462 325 q-4 -38 -14.5 -86t-31.5 -91.5t-54.5 -73t-83.5 -29.5q-32 0 -48.5 12.5t-23 32.5t-5.5 45t4 50q3 34 14 81.5t28 95t41 89t54 64.5q14 10 27 17t29 7q18 0 30 -12.5t19.5 -32t11.5 -43.5t5 -48t0 -44.5t-2 -33.5z" />
<glyph unicode="c" horiz-adv-x="486" d="M472 129q1 6 -9.5 15.5t-15.5 9.5q-7 0 -17 -15t-26 -32.5t-37.5 -32.5t-51.5 -15q-45 0 -71.5 23.5t-39.5 59t-15.5 77t1.5 77.5q4 33 13.5 76t28 81.5t48 65.5t73.5 27q34 0 47 -17t18.5 -38t11.5 -38t27 -17h7q8 0 13 2.5t7 14.5l9 88q2 19 -8.5 31t-26 18.5t-34 8.5 t-33.5 2q-68 0 -121.5 -35t-92.5 -88t-62 -116.5t-29 -121.5q-5 -47 0 -92.5t23.5 -81.5t53 -58t89.5 -22q56 0 106 25t87 70q8 10 16.5 22.5t10.5 25.5z" />
<glyph unicode="d" d="M600 13l-1 35q-11 -2 -22.5 -4t-22.5 -2q-19 0 -27.5 17t-11 40.5t-1 47t3.5 35.5q20 191 34.5 379.5t25.5 379.5h-140l-4 -36h95q-16 -81 -28 -160.5t-29 -160.5q-19 8 -37.5 12.5t-40.5 4.5q-49 0 -89.5 -17.5t-74 -47.5t-59 -69t-44 -82.5t-29.5 -88t-15 -84.5 q-4 -33 -2.5 -73t13 -74.5t36 -57.5t67.5 -23q34 0 67.5 12t63 34.5t53 55t37.5 73.5l-5 -37q-2 -21 -3 -43.5t4 -42t18.5 -32t41.5 -12.5q32 0 63 8t63 13zM465 496q-3 -24 -9.5 -66t-18 -90.5t-28 -98t-38.5 -90t-49.5 -66t-60.5 -25.5q-35 0 -49.5 18t-19.5 49 q-8 40 -8 81q0 42 5 84q5 47 14 92.5t29.5 81t57 57t95.5 21.5h4q13 0 27.5 -1t25.5 -5.5t18 -14t5 -27.5zM599 48h2l-2 1v-1z" />
<glyph unicode="e" horiz-adv-x="488" d="M493 447q8 68 -25.5 111t-103.5 43q-67 0 -117 -38t-84.5 -94.5t-53.5 -121t-25 -118.5q-4 -40 -2.5 -83t15.5 -78.5t43 -58.5t79 -23q53 0 104 24t87 66q7 8 16 19.5t11 21.5q1 7 -6 16t-14 9q-3 0 -6 -4q-24 -32 -56.5 -54.5t-72.5 -22.5q-29 0 -47.5 10.5t-29 28.5 t-14 41t-2.5 48q57 0 109 18t93.5 52t68.5 81.5t33 106.5zM406 427q-4 -37 -19.5 -71.5t-41 -61t-59 -42.5t-72.5 -16q-19 0 -22.5 12t-1.5 27q2 18 6 46t11 59t17.5 62t25.5 56t35.5 40.5t46.5 15.5q24 0 39.5 -12.5t24 -31t10.5 -41t0 -42.5z" />
<glyph unicode="f" horiz-adv-x="320" d="M559 819q2 18 4 34t4 29q2 19 0.5 33t-10.5 23t-27.5 13.5t-50.5 4.5q-59 0 -105 -24t-81 -62.5t-60 -87.5t-41 -100q-2 -7 -5.5 -18t-7 -22.5t-8 -21.5t-8.5 -15q-11 -14 -24 -16t-28 -2l-6 -56h49q-12 -65 -18 -129l-25 -230q-2 -20 -4.5 -41t-4.5 -42q-2 -17 -3 -34.5 t-1 -34.5q0 -11 9.5 -16.5t23.5 -5.5q15 0 30 6t21 17q4 9 9 32.5t8.5 50.5t6.5 52.5t5 37.5q8 78 13 155.5t13 155.5l3 26h121q14 0 17 6t5 19l3 31h-139l2 20q3 25 7.5 56.5t13.5 63.5t22 62.5t32.5 54t46 38t61.5 14.5q31 0 43.5 -15.5t18 -34.5t10 -34.5t20.5 -15.5h9 q13 0 18.5 3t7.5 20z" />
<glyph unicode="g" horiz-adv-x="590" d="M488 -75q13 123 22 213t16 155.5t11.5 110t7.5 75t5 52t4 40.5q1 13 -1 26.5t-18 13.5h-3l-57 -27q-22 8 -40.5 12.5t-40.5 4.5q-49 0 -89.5 -17.5t-74 -47.5t-59 -69t-44 -82.5t-29.5 -88t-15 -84.5q-4 -33 -2.5 -73t13 -74.5t36.5 -57.5t68 -23q33 0 63 11.5t56 31.5 t46.5 46.5t33.5 55.5l34 71q-3 -33 -7 -76t-8.5 -88t-8.5 -88t-7 -76q-5 -47 -19 -85t-39 -64.5t-61.5 -41t-86.5 -14.5q-44 0 -67.5 13.5t-36.5 52.5q-2 6 -6 17.5t-13 11.5q-11 0 -20.5 -8.5t-16 -20.5t-10.5 -25t-5 -22q-3 -24 9 -39t31 -23.5t41.5 -11.5t40.5 -3 q152 0 241.5 82t105.5 234zM465 491q-3 -24 -9.5 -65.5t-18 -89t-28 -97t-38.5 -89t-49.5 -65t-60.5 -25.5t-49.5 19.5t-22.5 48t-5 60t3 55.5q1 12 0.5 24.5t1.5 24.5q5 47 14 92.5t29.5 81t57 57t95.5 21.5h12q14 0 27 -1t23 -6.5t15 -16t3 -29.5z" />
<glyph unicode="h" horiz-adv-x="625" d="M603 13l-2 34h-2q-10 0 -20 -2.5t-21 -2.5q-18 0 -26.5 15t-11 36t-1 42.5t2.5 33.5l26 243q3 29 4 62.5t-6.5 61.5t-27.5 46.5t-59 18.5q-36 0 -71 -23.5t-66.5 -60.5t-59 -84t-48.5 -93q9 87 17 166t14.5 152.5t11 143.5t7.5 139h-139l-4 -36h89q-21 -94 -35 -189 t-25 -190l-58 -506q-3 -20 14 -20q27 0 43 2t25 10t12.5 24t6.5 45q10 96 38.5 188t84.5 176q9 13 22 30.5t28.5 33t32.5 26t34 10.5q15 0 23 -6t11.5 -15t3.5 -21q0 -11 -1 -23q-10 -94 -27 -186.5t-27 -186.5q-2 -20 -2.5 -40.5t5.5 -37t19.5 -27t39.5 -10.5 q32 0 62.5 7.5t62.5 13.5z" />
<glyph unicode="i" horiz-adv-x="307" d="M286 10l-2 35q-23 -5 -43 -5q-19 0 -27.5 15.5t-11.5 36.5t-1.5 43.5t2.5 36.5l1 4q5 45 7 90t7 90q5 58 8 115.5t2 115.5h-117l-4 -36h66q-23 -112 -43.5 -223t-32.5 -223q-2 -20 -2 -41q0 -20 5.5 -36.5t19 -27t39.5 -10.5q32 0 63.5 7.5t63.5 12.5zM265 870q1 11 1 25 q0 15 -3.5 28.5t-11 22.5t-22.5 9q-17 0 -28 -9t-18 -22.5t-11 -29t-5 -28.5q-1 -12 -1 -27q0 -14 4 -27t12.5 -21.5t24.5 -8.5t26.5 9.5t17 23t10 28.5t4.5 27z" />
<glyph unicode="j" horiz-adv-x="254" d="M213 179q11 103 14.5 204t8.5 204h-134l-4 -36h66q-6 -23 -9.5 -46.5t-6.5 -46.5l-2 -27q-6 -56 -15 -111t-15 -111q-7 -70 -11.5 -139.5t-12.5 -139.5l-2 -21q-4 -35 -10.5 -76.5t-22.5 -77.5t-43 -60t-72 -24q-28 0 -44 13.5t-25.5 30t-15 30.5t-12.5 14 q-11 0 -20 -7.5t-15.5 -18.5t-10.5 -23t-5 -21q-2 -21 7 -36t24.5 -24.5t34.5 -14t37 -4.5q63 0 109.5 28.5t79.5 75t55.5 105.5t36.5 121t21.5 121t12.5 105zM266 870q1 11 1 25q0 15 -3.5 28.5t-11.5 22.5t-23 9q-17 0 -28 -9t-18 -22.5t-11 -29t-5 -28.5q-1 -12 -0.5 -27 t4.5 -27.5t12.5 -21t24.5 -8.5t26.5 9.5t17 23t10 28.5t4.5 27z" />
<glyph unicode="k" horiz-adv-x="575" d="M628 14l-7 30q-13 -5 -31 -5q-36 0 -62.5 21t-48 53t-40 70t-37 73.5t-39.5 63t-48 37.5h-1l235 194h58l4 36h-234l-4 -36q5 0 12 0.5t15 0.5q15 0 27 -4.5t10 -20.5q-1 -7 -15 -22.5t-35 -35t-47 -41t-50.5 -39.5t-45 -31t-30.5 -16q16 149 29 299.5t21 299.5h-139 l-4 -36h89q-18 -95 -30.5 -189.5t-26.5 -189.5q-17 -116 -31.5 -231t-26.5 -231l-1 -13q-1 -8 -1 -17t1.5 -16.5t5.5 -12.5t12 -5q24 0 39 3t23.5 12t12.5 24.5t7 40.5q5 50 8.5 99.5t6.5 99.5h2l53 40q13 -46 35 -102.5t55 -106.5t77.5 -84t101.5 -34q48 0 95 22z" />
<glyph unicode="l" horiz-adv-x="306" d="M286 13l-1 35l-22 -4t-22 -2q-17 0 -25.5 10t-11.5 24t-2 30.5t2 28.5q7 95 13.5 188t15.5 188q11 108 20.5 215t11.5 215h-140l-4 -36h89q-15 -74 -25 -147t-22 -147q-18 -118 -33.5 -233.5t-27.5 -233.5l-3 -24q-2 -21 -2.5 -43.5t4.5 -41t18.5 -31t39.5 -12.5 q32 0 63.5 8t63.5 13z" />
<glyph unicode="m" horiz-adv-x="914" d="M893 11l-2 35q-11 -2 -21.5 -3.5t-21.5 -1.5q-18 0 -26.5 17.5t-10.5 41.5t-1 49t3 41l1 9q5 50 11 98.5t11 98.5q3 28 5 63.5t-4.5 66.5t-26 52.5t-58.5 21.5q-37 0 -72.5 -25.5t-65.5 -62t-54 -76.5t-38 -69v22q3 27 6 63.5t-2.5 69.5t-23 56t-56.5 23q-41 0 -76 -25 t-63.5 -61t-50.5 -77t-36 -73q0 68 2.5 120t5.5 102h-117l-4 -36h66q-20 -89 -34.5 -177.5t-23.5 -178.5q-5 -44 -8.5 -87.5t-8.5 -87.5q-2 -14 3.5 -17t17.5 -3h15q13 0 27 2t21 13q5 8 7.5 24t3.5 26q6 48 13 93t18 88.5t27 87t39 88.5q7 15 20.5 36.5t30.5 41.5t36 34.5 t37 14.5q13 0 20.5 -5.5t10.5 -13.5t3 -19t-1 -21q-9 -85 -21 -167.5t-20 -166.5l-7 -66q-2 -14 -2.5 -29t-2.5 -29q-2 -13 0 -22.5t18 -9.5q9 0 17 -1t17 -1q25 0 33.5 14t11.5 37q10 96 34.5 190.5t72.5 182.5q9 16 22 37.5t29.5 40t35.5 31.5t40 13q14 0 21.5 -6.5 t10.5 -16t3 -21.5t-1 -23q-10 -94 -26.5 -185t-26.5 -185q-2 -20 -2.5 -40.5t5 -37t18.5 -27.5t39 -11q32 0 63.5 7.5t63.5 12.5z" />
<glyph unicode="n" horiz-adv-x="625" d="M605 13l-1 35q-23 -6 -46 -6q-18 0 -26 17.5t-10.5 40.5t-1 46.5t3.5 35.5l22 213q3 32 4 68t-6.5 67t-27 51t-57.5 20q-36 0 -72 -22.5t-68 -58.5t-58.5 -80.5t-44.5 -89.5q2 39 3.5 72t3 61.5t2.5 53.5t3 50h-117l-4 -36h66q-18 -125 -39.5 -248t-34.5 -248 q-1 -6 -1 -16q0 -9 1.5 -18t6 -15t13.5 -6h16q14 0 27.5 2t20.5 13q6 10 8.5 22.5t4.5 23.5q6 53 13 101.5t19.5 94.5t33 91t52.5 93q9 13 22.5 31t29.5 34.5t33.5 28t34.5 11.5q15 0 23 -6.5t11.5 -17t3 -23t-1.5 -24.5q-8 -84 -24.5 -165.5t-24.5 -165.5l-3 -20 q-2 -21 -2.5 -44.5t4.5 -43t18.5 -32t39.5 -12.5q32 0 63.5 8t63.5 13z" />
<glyph unicode="o" horiz-adv-x="595" d="M571 357q5 46 -0.5 91t-24.5 80t-53.5 56.5t-88.5 21.5q-70 0 -126 -36t-97 -91t-65.5 -121t-30.5 -126q-5 -47 0 -92t24 -80.5t54 -57t89 -21.5q72 0 128 35.5t96.5 91t64.5 121.5t30 128zM471 284q-3 -33 -12.5 -73t-28 -74.5t-47.5 -58t-72 -23.5q-46 0 -72 25.5 t-38 63t-13 80.5t3 78q4 36 13.5 78.5t29 79t50.5 61t78 24.5q44 0 68 -28.5t34 -69.5t10 -86q0 -44 -3 -77z" />
<glyph unicode="p" horiz-adv-x="580" d="M550 305q6 60 -3.5 113t-36.5 92.5t-72.5 62.5t-110.5 23q-12 0 -25.5 -2t-30.5 -2l21 189q-23 -2 -37 -7.5t-23 -15t-13 -24.5t-7 -37l-6 -61q-2 -20 -4.5 -39t-7.5 -38h-2q-44 -25 -78.5 -53t-69.5 -64l25 -28q24 26 52.5 47.5t65.5 40.5q-17 -106 -32 -212t-26 -213 q-12 -113 -24.5 -225t-24.5 -225q-1 -5 -1 -13q0 -9 8 -9q12 0 19.5 3.5t12.5 9.5t9.5 14.5t9.5 18.5q18 33 29 61t17.5 55t10.5 56t8 64q2 26 5 52t5 52h4q10 0 26 -3t27 -3q63 0 112.5 29.5t85 75.5t56 103t26.5 112zM448 266q-3 -35 -11.5 -75.5t-26 -75t-47 -58 t-74.5 -23.5q-19 0 -36.5 5t-33.5 16l51 487h4q8 0 17.5 1.5t18.5 1.5q49 0 78.5 -29.5t44 -72t17 -91t-1.5 -86.5z" />
<glyph unicode="q" horiz-adv-x="580" d="M537 404q4 39 6 78t6 78h2q-32 20 -71 30t-79 10q-51 0 -93.5 -18t-76.5 -49t-60 -71.5t-44.5 -85t-29.5 -91t-16 -88.5q-3 -33 -0.5 -70.5t15 -68.5t37.5 -51.5t67 -20.5q34 0 68.5 14.5t65 42t55 66.5t39.5 87l-6 -69q-11 -49 -20 -97.5t-14 -97.5q-1 -10 -3 -35.5 t-4 -58.5t-4 -69.5t-3.5 -68t-1.5 -53.5t2 -26q3 -7 5.5 -8.5t10.5 -1.5q21 0 34 1.5t20 8t10 19t5 34.5q20 183 39 365t39 365zM461 496q-3 -25 -9 -67t-17 -91t-27.5 -99t-39 -91t-51 -66.5t-65.5 -25.5q-31 0 -46 22.5t-19.5 53.5t-2.5 64t4 55q3 25 7.5 55.5t12 62 t17.5 61t24 51.5q23 37 55.5 50.5t72.5 13.5q18 0 40 -2.5t36 -13.5q8 -7 9 -14.5t-1 -18.5z" />
<glyph unicode="r" horiz-adv-x="440" d="M462 464l11 107q2 18 -4 25.5t-24 7.5q-37 0 -72 -26.5t-64.5 -64.5t-51.5 -79t-34 -71l-3 26q1 50 2.5 99t5.5 99h-117l-4 -36h66q-22 -103 -35.5 -207.5t-24.5 -208.5l-2 -11q-1 -13 -2.5 -34t-0.5 -41t5 -34.5t13 -14.5h43q21 0 26.5 15t7.5 32q5 48 11.5 97t17 97.5 t27 96t40.5 92.5h1q4 10 12.5 24.5t19 27.5t23 22.5t24.5 9.5q13 0 17.5 -11.5t7 -26t8 -26t20.5 -11.5q20 0 24 4t6 21z" />
<glyph unicode="s" horiz-adv-x="420" d="M399 175q4 41 -10.5 72t-38.5 56t-52.5 45t-53 40.5t-40 42.5t-12.5 50q4 35 29.5 52.5t57.5 17.5q37 0 50 -14.5t17.5 -32.5t7 -32.5t17.5 -14.5h4q6 0 16 1.5t11 7.5l9 83q1 10 0 19t-12 14q-8 5 -19.5 9t-24 6.5t-25 3.5t-22.5 1q-37 0 -71.5 -13.5t-61.5 -37 t-44.5 -55.5t-21.5 -70q-4 -41 11 -70.5t39.5 -52.5t53.5 -42t54 -39t40.5 -44t11.5 -56q-2 -20 -11.5 -36.5t-24 -27.5t-32.5 -17t-37 -6q-36 0 -59 15t-36.5 33.5t-21.5 33.5t-14 15q-11 0 -20 -8.5t-15.5 -20t-10.5 -24t-5 -20.5q-3 -24 12 -39.5t37.5 -24t47.5 -12 t43 -3.5q42 0 81 14.5t70 40t51 61.5t25 79z" />
<glyph unicode="t" horiz-adv-x="325" d="M390 560l3 27h-137q1 5 3 20t4 34q1 17 2.5 35t1.5 32q0 15 -2 24.5t-6 9.5q-25 0 -37.5 -11.5t-19 -29t-9.5 -37.5t-9 -37.5t-17.5 -29t-33.5 -11.5h-11l-6 -56h51q-17 -106 -33 -211.5t-27 -211.5q-2 -20 -2.5 -40.5t5 -37t19 -27t39.5 -10.5q37 0 75.5 9t75.5 19 l-5 35q-14 -4 -29 -6.5t-29 -2.5q-15 0 -26.5 4t-16.5 20q-3 13 -3 39q0 27 1.5 56.5t3.5 57t4 43.5l16 132t15 132h107q30 0 33 30zM314 57h-1v-1h1v1z" />
<glyph unicode="u" horiz-adv-x="641" d="M619 48l-22 -4t-22 -2q-27 0 -33 18t-6 40q-1 51 2.5 101t8.5 101q8 72 17 142.5t17 142.5h-24q-19 0 -30.5 -11.5t-19 -28t-11 -35t-5.5 -31.5q-5 -28 -12.5 -69.5t-19.5 -88t-29.5 -93.5t-40.5 -84.5t-53.5 -61t-69.5 -23.5q-29 0 -43 14.5t-19.5 36t-4 46.5t3.5 46 q5 42 8 83.5t6 83.5q4 54 5 108t6 108h-117l-4 -36h66q-20 -93 -38 -184.5t-28 -185.5q-3 -33 -2.5 -68t11 -63t34 -46t65.5 -18q32 0 66.5 15.5t66 41t56.5 59.5t38 72l-6 -59q-2 -20 -3 -41.5t4 -39.5t18 -30t39 -12q32 0 63 8t63 13zM619 48v1h-1v-1h1z" />
<glyph unicode="v" horiz-adv-x="557" d="M624 551l4 36h-206l-4 -36q14 0 29 -1t26.5 -6.5t18.5 -16t5 -28.5q0 -3 -4 -12.5t-9 -20.5t-9.5 -21t-5.5 -13q-5 -10 -17 -36.5t-28 -60.5t-34.5 -71.5t-35.5 -68t-31.5 -50.5t-22.5 -20q-7 0 -14.5 20t-14.5 45.5t-12 49t-7 31.5q-18 81 -39 160.5t-50 155.5h-108 l-4 -36h57q5 -103 19 -205t43 -200q7 -23 14.5 -44.5t14.5 -44.5q2 -5 4.5 -14.5t6 -19t7 -17.5t7.5 -11t15 -3.5t16 -0.5h13q12 0 22.5 3t17.5 17l274 540h42z" />
<glyph unicode="w" horiz-adv-x="832" d="M899 551l4 36h-205l-4 -36q14 0 29 -1t26.5 -6.5t18 -16t4.5 -28.5q-1 -11 -12 -37t-27 -59.5t-35 -70.5t-37 -70.5t-33 -60t-23 -38.5q-1 -1 -3.5 -4.5t-5.5 -7.5t-6 -7t-5 -3q-7 0 -13 15t-11 38t-9.5 50t-8 52t-6 44t-3.5 25q-1 5 -4 21t-7 37.5t-8.5 46t-8.5 45 t-7 34.5t-4 16q-2 3 -9 7.5t-16 8.5t-19 7t-19 3q-19 0 -20 -16q-2 -19 3 -42t10 -41l-51 -113q-3 -6 -11 -25.5t-19 -46t-24 -56t-25.5 -54t-22.5 -40.5t-16 -16h-2q-5 3 -9.5 20t-8 37.5t-6.5 39.5t-4 26q-18 85 -30.5 164.5t-34.5 158.5h-106l-4 -36h55q3 -63 7 -122.5 t10 -118t15 -117t23 -118.5q1 -5 3.5 -17t5.5 -25.5t6.5 -24t6.5 -12.5q8 -4 17 -4.5t18 -0.5q11 0 22 2.5t16 15.5l187 410q6 -38 11.5 -94t12 -115t16 -112.5t22.5 -85.5q6 -14 15 -17.5t24 -3.5h8q11 0 18.5 2.5t14.5 16.5l272 541h42z" />
<glyph unicode="x" horiz-adv-x="536" d="M565 8l-5 36q-9 -2 -18 -3t-18 -1q-23 0 -39 11t-27 28q-38 55 -65.5 117.5t-53.5 124.5l183 230h55l4 36h-176l-3 -36h10q8 0 15.5 -1t13.5 -3.5t6 -6.5q-1 -5 -10 -19t-22.5 -32t-29.5 -37t-30.5 -35t-25.5 -26.5t-14 -10.5q-11 0 -13 11q-23 51 -48.5 99t-50.5 97 h-113l-4 -36h62q20 -69 42.5 -135.5t40.5 -135.5h-1l-164 -205q-9 -11 -16 -19t-15 -12.5t-17.5 -6.5t-23.5 -2l-4 -35h184l3 35q-4 0 -11.5 -0.5t-16.5 -0.5q-14 0 -27 2t-12 10q1 5 11 20t24.5 34t31.5 39.5t32.5 37.5t26.5 28t14 11q6 0 15 -16.5t21 -41.5t28.5 -54 t38 -54t49.5 -41.5t63 -16.5q26 0 50.5 5t49.5 11z" />
<glyph unicode="y" horiz-adv-x="612" d="M525 -35q11 103 15 205t15 205q5 54 12.5 106t13.5 106h-24q-19 0 -30.5 -11.5t-19 -28t-11 -35t-5.5 -31.5q-5 -28 -12.5 -69.5t-19.5 -88t-29 -93.5t-40.5 -84.5t-53.5 -61t-69 -23.5q-30 0 -44 15.5t-18.5 38t-3.5 48.5t3 47q9 95 13.5 188.5t10.5 188.5h-117l-4 -36 h66q-20 -93 -38 -184.5t-28 -185.5q-3 -33 -2.5 -68t11 -63t34 -46t65.5 -18q33 0 69 15t67.5 40.5t54.5 60.5t31 75l3 -48q3 -64 1.5 -128t-8.5 -129q-10 -93 -60 -149t-148 -56q-44 0 -67.5 14t-36.5 53q-1 2 -2.5 7t-3.5 9.5t-4.5 8t-6.5 3.5q-12 0 -21 -8.5t-16 -20 t-10.5 -24.5t-4.5 -22q-3 -24 9 -39t31 -23.5t41.5 -11.5t40.5 -3q34 0 68 5.5t66.5 17t62.5 30t56 44.5q27 27 44.5 58t28 63.5t16 67t9.5 69.5z" />
<glyph unicode="z" horiz-adv-x="419" d="M399 125q-12 -28 -25 -41t-45 -13q-46 0 -90 9.5t-90 9.5q25 41 49 82t47 83q35 67 68 134t76 130h1q18 12 36.5 28t20.5 39q1 7 -2 15.5t-11 8.5q-15 -8 -25.5 -14t-21 -11t-22.5 -7.5t-30 -2.5t-35.5 4t-35 9.5t-35 9.5t-35.5 4q-41 0 -55.5 -16t-18.5 -54l-7 -70h29 q-2 10 1 28q2 16 7 30.5t16 14.5q10 0 17.5 -8.5t16.5 -18t20.5 -18t31.5 -8.5q14 0 27.5 2.5t29.5 2.5q-13 -20 -25.5 -41t-24.5 -42q-44 -81 -87 -161.5t-86 -162.5q-23 -5 -39.5 -18t-18.5 -37q-1 -10 1.5 -22t15.5 -12q9 0 16 5t14.5 11.5t16.5 11.5t21 5 q22 0 46.5 -11.5t50 -25.5t51.5 -25.5t52 -11.5t44.5 19t31 45.5t21 55t14.5 47.5zM398 126h-1v-1zM399 125v1h-1z" />
<glyph unicode="{" horiz-adv-x="397" d="M47 292q1 10 7 19t16 9q60 0 95 40t42 108q3 28 7 73t8 91.5t7.5 88.5t6.5 66q3 34 19 62.5t41 48t56 30.5t64 11h18t11 0.5t11 0.5h18q8 0 11.5 -3.5t2.5 -15.5q-2 -10 -5.5 -17t-10.5 -7q-11 0 -24 0.5t-39 0.5q-38 0 -67 -31.5t-35 -90.5q-1 -11 -3.5 -35t-5.5 -54.5 t-6 -65t-6 -66t-6 -58t-4 -41.5q-4 -38 -12 -67t-27 -50t-51.5 -33t-84.5 -15q52 -3 82 -15t44 -33t16.5 -50.5t-1.5 -66.5q-2 -15 -5 -44t-7.5 -64.5t-9 -74.5t-8 -73.5t-6.5 -61t-4 -37.5q-7 -59 16 -90.5t61 -31.5q26 0 39 0.5t24 0.5q7 0 9.5 -7t0.5 -17 q-1 -12 -5.5 -15.5t-12.5 -3.5h-18t-10.5 0.5t-10.5 0.5h-18q-33 0 -62 11t-49.5 30.5t-30.5 47.5t-7 63q2 16 5 43t7 60t8.5 69t8.5 70.5t7.5 63.5t5.5 48q8 68 -19 108t-87 40q-10 0 -14.5 9.5t-2.5 20.5z" />
<glyph unicode="|" horiz-adv-x="181" d="M91 -260l117 1120h-58l-117 -1120h58z" />
<glyph unicode="}" horiz-adv-x="397" d="M405 292q1 10 -3 19t-14 9q-60 0 -87 40t-20 108q3 28 8.5 73t11.5 91.5t11 88.5t8 66q3 34 -7 62.5t-30.5 48t-49 30.5t-61.5 11h-18t-11 0.5t-11 0.5h-18q-8 0 -12.5 -3.5t-5.5 -15.5q-2 -10 0.5 -17t9.5 -7q11 0 24 0.5t39 0.5q38 0 61 -31.5t17 -90.5q-1 -11 -4 -35 t-6.5 -54.5t-7.5 -65t-8 -66t-6.5 -58t-4.5 -41.5q-4 -38 -1.5 -67t16.5 -50t44 -33t82 -15q-53 -3 -85.5 -15t-51 -33t-26.5 -50.5t-12 -66.5q-2 -15 -5 -44t-6 -64.5t-7 -74.5t-7 -73.5t-5.5 -61t-3.5 -37.5q-7 -59 -36 -90.5t-67 -31.5q-26 0 -38.5 0.5t-23.5 0.5 q-7 0 -10.5 -7t-5.5 -17q-1 -12 2.5 -15.5t11.5 -3.5h18t11 0.5t11 0.5h18q33 0 64 11t55.5 30.5t40.5 47.5t19 63q2 16 4.5 43t5.5 60t6 69t6 70.5t5.5 63.5t4.5 48q8 68 43 108t95 40q10 0 15.5 9.5t7.5 20.5z" />
<glyph unicode="~" horiz-adv-x="502" d="M548 674l-16 17q-40 -37 -89 -37q-29 0 -54 8.5t-49 19t-47 19t-48 8.5q-22 0 -43.5 -13t-41 -31.5t-36.5 -40t-29 -37.5l16 -14q38 48 96 48q24 0 44.5 -7.5t41 -17t40.5 -17t43 -7.5t47 9.5t46.5 24.5t42.5 33t36 35z" />
<glyph unicode="&#xa1;" horiz-adv-x="230" d="M135 -256q11 109 16 215.5t8 214.5q1 31 1 62t2 62q0 7 0.5 17t-1.5 19t-7 15.5t-16 6.5q-13 0 -17.5 -8.5t-7.5 -18.5q-7 -23 -11.5 -47t-8.5 -48q-20 -112 -38.5 -223.5t-30.5 -223.5l-1 -14q-2 -14 -3.5 -33t-1 -38t3 -34t10.5 -19q8 -5 16 -6t18 -1q21 0 33.5 10 t20 25.5t10.5 33.5t5 33zM205 515q1 12 1.5 26.5t-3.5 27.5t-12.5 21.5t-24.5 8.5q-15 0 -26 -9.5t-17.5 -23t-10 -28.5t-4.5 -27q-1 -11 -1 -26q0 -14 3.5 -27.5t11.5 -23t23 -9.5q16 0 27 9.5t18 23t10.5 29.5t4.5 28z" />
<glyph unicode="&#xa2;" horiz-adv-x="486" d="M480 201q0 6 -10.5 15.5t-15.5 9.5q-2 0 -5 -3.5t-6.5 -8.5t-6.5 -9.5t-4 -5.5q-18 -29 -40.5 -49t-56.5 -20h-9t-9 1l51 486h6q30 -4 40 -21.5t14.5 -37t10 -35t26.5 -15.5h4q10 0 15.5 2.5t7.5 16.5l9 86q2 22 -11.5 34.5t-34 18t-43 6.5t-38.5 1l10 96h-40l-13 -111 q-52 -11 -93.5 -49.5t-72 -89t-49 -106.5t-23.5 -101q-5 -51 0 -97.5t25 -81t57 -55t95 -20.5l-12 -107h40l12 113h4q40 5 76.5 31.5t61.5 57.5q8 10 17 22.5t11 25.5zM279 144q-32 15 -49.5 40t-26 55.5t-8.5 63.5t3 63q3 26 8.5 58.5t16.5 64.5t27.5 60t40.5 45 q3 2 14.5 8.5t21.5 6.5z" />
<glyph unicode="&#xa3;" horiz-adv-x="736" d="M712 0l4 40q-38 0 -64 8t-48 21.5t-42.5 31.5t-47.5 38q15 26 23.5 51t11.5 54q2 22 1 40t-6 34.5t-13 32.5t-19 33h-1v3h128q19 0 24 7.5t7 24.5l2 21h-213q-17 11 -32.5 24t-31.5 26l-32.5 26t-32 31t-23 36.5t-6.5 42.5t13.5 40.5t28 29.5t37 18t41.5 6q34 0 52.5 -10 t28.5 -24.5t13 -32t6 -32t7.5 -24.5t17.5 -10q4 0 8 -0.5t9 -0.5q7 0 12.5 2.5t6.5 11.5l12 109q1 13 -0.5 21t-12.5 16q-10 7 -24.5 12t-31 8.5t-33 5.5t-28.5 2q-42 0 -83 -11.5t-75 -34.5t-56.5 -57.5t-27.5 -81.5q-5 -50 9.5 -81.5t50.5 -62.5l-1 -5h-144l-5 -53h214 q24 -15 50.5 -33t48 -40.5t34 -50t9.5 -61.5q-2 -8 -4.5 -16t-10.5 -16q-21 17 -48.5 37.5t-57.5 38t-61 29.5t-60 12q-31 0 -63 -10.5t-58.5 -29.5t-45 -46.5t-21.5 -60.5q-4 -39 11.5 -68t43 -47.5t62 -28t68.5 -9.5q60 0 112 19.5t106 57.5l93 -64h158zM428 86 q-34 -31 -73 -43.5t-81 -12.5q-30 0 -61 8t-56 25t-40 42t-11 60q3 31 23.5 49t51.5 18q21 0 55.5 -18t70.5 -42t68.5 -48.5t51.5 -37.5h1z" />
<glyph unicode="&#xa4;" horiz-adv-x="639" d="M407 225l8 80h-214q0 23 1.5 45.5t3.5 44.5l1 12h232l8 79h-227q10 45 26.5 87.5t43.5 76.5t65.5 54.5t91.5 20.5q33 0 58 -4.5t42 -16t26 -32.5t12 -54q1 -8 1.5 -17t3.5 -17t8.5 -13t16.5 -5q3 0 7 -0.5t9 -0.5q6 0 10.5 2t5.5 9l14 141q2 11 1 17.5t-10 12.5 q-10 7 -32.5 12.5t-48 10t-49.5 7t-37 2.5q-68 0 -124 -24t-100 -64t-76.5 -93.5t-53.5 -111.5h-51l-8 -79h36q-5 -20 -7.5 -39t-4.5 -38l-3 -25h-63l-8 -80h71q4 -52 19 -96t44.5 -76t74.5 -50t109 -18q61 0 120 21t108 64q5 4 13 12t16.5 17t14.5 18t6 15q1 6 -6.5 15.5 t-14.5 9.5q-1 0 -1 -1h-1q-23 -21 -45 -40t-45.5 -33t-50 -22.5t-57.5 -8.5q-45 0 -78 13.5t-55.5 37t-36 55t-19.5 67.5h199z" />
<glyph unicode="&#xa5;" horiz-adv-x="625" d="M704 716l5 40h-183l-5 -40h18q17 0 30.5 -5t11.5 -25q-1 -10 -14 -32.5t-32 -52.5t-42.5 -63.5t-45 -63.5t-39.5 -53.5t-27 -33.5h-18q-37 97 -77.5 190t-95.5 179h-106l-5 -40h55q30 -105 69.5 -204.5t86.5 -196.5h-173l-5 -51h171l-8 -64h-170l-5 -51h171l-10 -109h-68 l-4 -40h233l4 40h-68q2 27 5.5 54.5t7.5 54.5h170l5 51h-169l6 64h170l5 51h-171l280 401h37z" />
<glyph unicode="&#xa6;" horiz-adv-x="181" d="M91 -260l48 460h-58l-48 -460h58zM208 860h-58l-42 -410h58z" />
<glyph unicode="&#xa7;" horiz-adv-x="564" d="M560 287q4 41 -10 72t-38 56t-53 45t-53.5 40.5t-40 42.5t-12.5 50q4 35 30 52.5t58 17.5q37 0 50 -14.5t17.5 -32.5t7 -32.5t17.5 -14.5h4q6 0 16 1.5t11 7.5l9 83q1 10 -0.5 19t-11.5 14q-8 5 -19.5 9t-24 6.5t-25 3.5t-22.5 1q-37 0 -71.5 -13.5t-61.5 -37 t-44.5 -55.5t-21.5 -70l-1 -11q-32 -5 -61 -20t-51.5 -37.5t-37.5 -52t-18 -63.5q-5 -41 10 -70.5t39.5 -52.5t53.5 -42t54 -39t40.5 -44t12.5 -56q-2 -20 -11.5 -36.5t-24 -27.5t-32.5 -17t-37 -6q-36 0 -59 15t-36.5 33.5t-21.5 33.5t-14 15q-11 0 -20 -8.5t-16 -20 t-11 -24t-5 -20.5q-3 -24 12 -39.5t37.5 -24t48 -12t43.5 -3.5q41 0 79.5 14t69.5 39t51.5 60.5t25.5 77.5q33 8 62 25t51.5 41.5t37.5 55t18 66.5zM184 409q4 35 30 52.5t58 17.5q14 -29 34.5 -50t44.5 -40q1 -1 2 -1.5t2 -1.5q23 -17 46.5 -32.5t42 -33t29.5 -38.5t8 -48 q-4 -37 -30.5 -59.5t-60.5 -26.5q-6 32 -24.5 56.5t-42 45t-49.5 38.5t-46.5 36.5t-33.5 38.5t-10 46z" />
<glyph unicode="&#xa8;" horiz-adv-x="577" d="M499 867q1 10 0.5 23t-4.5 24t-12 19t-21 8t-22.5 -8t-16 -19t-10 -24t-4.5 -23q-1 -11 -0.5 -22.5t4 -22t11 -17t21.5 -6.5q13 0 23 6.5t16.5 16.5t10 22t4.5 23zM334 867q1 10 0.5 23t-4.5 24t-11.5 19t-20.5 8t-22.5 -7.5t-16 -19t-10 -24.5t-4.5 -23q-1 -11 -0.5 -23 t4.5 -22t11.5 -16.5t21.5 -6.5q13 0 22.5 6.5t15.5 16.5t9.5 22t4.5 23z" />
<glyph unicode="&#xa9;" horiz-adv-x="1063" d="M1052 416q6 71 -15 140.5t-69.5 125t-124.5 89.5t-178 34h-4q-81 -1 -151.5 -20.5t-129.5 -54t-106.5 -80t-82 -98t-55 -108t-26.5 -110.5v-5q-7 -70 12 -139.5t65 -125t120 -90.5t176 -35h4q127 1 227.5 42t172.5 107.5t113.5 150.5t50.5 171zM947 358l-1 -6 q-6 -56 -34 -119t-77.5 -116.5t-120.5 -89t-161 -36.5h-3q-62 0 -111 18t-86 48.5t-63 70t-41.5 82t-21 85.5t-2.5 81v2q4 35 17.5 76.5t36.5 83t55.5 80t74 68.5t92 48t109.5 19h3q94 0 160.5 -40.5t107 -100.5t56.5 -128.5t10 -125.5zM759 207q1 6 -9.5 15.5t-15.5 9.5 q-7 0 -17 -15t-26 -32.5t-37.5 -32.5t-51.5 -15q-45 0 -71.5 23.5t-39.5 59t-15 77t2 77.5q3 33 12.5 76t28.5 81.5t48 65.5t73 27q34 0 47 -17t18.5 -38t11.5 -38t27 -17h7q8 0 13 2.5t7 14.5l9 88q2 19 -8 31t-26 18.5t-34.5 8.5t-33.5 2q-68 0 -121.5 -35t-92.5 -88 t-62 -116.5t-29 -121.5q-5 -47 0 -92.5t23.5 -81.5t53 -58t89.5 -22q56 0 106 25t87 70q8 10 16.5 22.5t10.5 25.5z" />
<glyph unicode="&#xab;" horiz-adv-x="745" d="M618 562q0 3 -3 8.5t-7.5 11t-10 9.5t-8.5 5l-115 -120q-38 -41 -77 -82.5t-81 -79.5q-5 -5 -15 -14.5t-11 -17.5q-1 -4 10 -24t27.5 -49t36.5 -61.5t38.5 -61.5t32.5 -50.5t19 -26.5t8.5 -7t11.5 -2h71q5 0 9.5 1t4.5 5q1 3 -1 7t-4 6q-49 70 -97.5 139.5t-90.5 145.5 q8 8 30 29t49.5 48.5t58 57.5t55.5 55.5t42 44t17 23.5zM367 562q0 3 -3 8.5t-8 11t-10 10t-8 4.5l-4 -4l-117 -123q-38 -39 -75 -79t-77 -76l-15 -15t-11 -17q-1 -5 9 -23t25 -43t33.5 -54.5t35.5 -56t30.5 -48t18.5 -31.5q8 -14 15 -20t25 -6h63q4 0 8.5 1t4.5 5 q1 3 -1.5 7t-2.5 7q-51 69 -99 139t-90 145q8 8 30 29.5t50 48.5t58 56.5t55.5 55.5t42.5 44.5t17 23.5z" />
<glyph unicode="&#xac;" horiz-adv-x="1024" d="M40 -4h824q33 0 59 8.5t44 23.5t27.5 34.5t9.5 41.5q0 43 -22.5 68t-59.5 37q25 12 40.5 34.5t15.5 53.5q0 17 -4 31.5t-15 27.5h3v140h-47l-4 -93h-292v188h-231v125h53v48h-415l-9 -106h49l4 58h109v-313h-139v-407zM229 356v360h108v-173h232v-139h-53v-48h2l75 -186 h-192l-20 -47h230l32 -79h-554v312h140zM698 44h-3l-128 312h266q30 0 48 -6.5t28.5 -16t14 -20t3.5 -18.5q0 -28 -25 -46.5t-60 -18.5h-114v-48h103q8 0 28 -1.5t40.5 -8t36.5 -21t16 -40.5t-12.5 -39.5t-32 -20t-42 -7.5t-43.5 -1h-124v1zM913 623h46l-3 140h-294v-221 h153v-51h47v151h-47v-52h-103v125h193zM337 405l13 -178h48l12 178h-73z" />
<glyph unicode="&#xad;" horiz-adv-x="685" d="M661 254l8 78h-585l-8 -78h585z" />
<glyph unicode="&#xae;" horiz-adv-x="753" d="M795 655q5 54 -11 106.5t-52.5 94t-93.5 67.5t-135 26h-4q-92 0 -166 -33t-128 -84t-85.5 -114.5t-38.5 -124.5v-4q-5 -53 9.5 -105.5t49.5 -94.5t90.5 -68.5t132.5 -26.5h4q96 0 172.5 31t131 81.5t86 114.5t38.5 130v4zM715 611q-5 -45 -27 -96t-62 -93l-4 12 q-5 -1 -9.5 -2t-9.5 -1q-14 0 -23.5 8t-17 21.5t-13.5 30t-11 34.5q-8 25 -15.5 47t-17.5 33q40 20 65 51t30 78q7 64 -26 91t-93 27q-12 0 -24.5 -0.5t-23.5 -1.5q-6 0 -12 -0.5t-11 -0.5q-19 0 -39 -0.5t-40 -0.5l-3 -33h40q-12 -53 -21 -105.5t-14 -105.5l-4 -32 l-11 -136h-30l-3 -33h130l3 33h-39q5 39 9.5 77.5t9.5 76.5h45q6 -26 15.5 -60t24.5 -64t37.5 -50.5t56.5 -20.5h9q5 0 11 2q-35 -29 -80 -46.5t-100 -17.5h-3q-70 0 -118.5 29.5t-78 73.5t-41.5 94.5t-8 93.5q3 27 13 58.5t27.5 63t42 61t56 52t70 36.5t84.5 14h3 q72 0 121.5 -30.5t79.5 -75.5t42 -97t8 -95zM529 715q-9 -85 -95 -85h-17q-10 0 -13 1q3 45 5.5 90t6.5 90q5 1 12 1h12q51 0 72.5 -22.5t16.5 -74.5z" />
<glyph unicode="&#xaf;" horiz-adv-x="479" d="M483 805l7 68h-282l-7 -68h282z" />
<glyph unicode="&#xb0;" horiz-adv-x="149" d="M214 674q4 39 -12.5 68.5t-59.5 29.5q-27 0 -48.5 -13.5t-36.5 -34.5t-24 -46t-12 -48q-4 -39 13 -67.5t60 -28.5q28 0 49 13t36 33.5t23.5 45t11.5 48.5zM172 647q-1 -12 -4.5 -27t-10.5 -28.5t-17.5 -22.5t-26.5 -9q-18 0 -28.5 10.5t-15.5 25.5t-6 32.5t0 31.5 q1 13 5 28t11.5 27.5t18.5 21t28 8.5t27 -10.5t14.5 -25.5t5 -32t-0.5 -30z" />
<glyph unicode="&#xb1;" horiz-adv-x="595" d="M574 341l8 74h-205l19 186h-73l-19 -186h-204l-8 -74h204l-20 -190h73l20 190h205zM539 0l7 72h-482l-7 -72h482z" />
<glyph unicode="&#xb4;" horiz-adv-x="577" d="M462 886q1 11 0 23.5t-5.5 22.5t-13 16.5t-22.5 6.5q-26 0 -37.5 -19t-13.5 -41q-2 -25 -1.5 -49.5t-1.5 -49.5q-4 -32 -13 -54t-35 -43h-1q-9 -5 -11 -14q-1 -6 2.5 -13t10.5 -7q2 0 6 2.5t5 3.5h1q22 17 44 42.5t40 55t30.5 60t15.5 57.5z" />
<glyph unicode="&#xb5;" horiz-adv-x="641" d="M617 48l-22 -4t-22 -2q-27 0 -33 18t-6 40q-1 51 2.5 101t8.5 101q8 72 17 142.5t17 142.5h-22q-19 0 -30.5 -11.5t-19 -28t-11 -35t-5.5 -31.5q-5 -28 -12.5 -69.5t-19.5 -88t-29.5 -93.5t-40.5 -84.5t-53.5 -61t-69.5 -23.5q-29 0 -44 14.5t-21 36t-5.5 46.5t2.5 46 q5 42 8 83.5t6 83.5q4 54 7.5 108t8.5 108h-117l-4 -36h66q-14 -66 -25 -131t-22 -131h-1q-23 -112 -43.5 -223t-32.5 -223q-2 -20 -2 -40q0 -21 5.5 -37.5t19 -27t39.5 -10.5l77 50q-19 0 -27.5 15.5t-11 36.5t-1.5 43.5t3 36.5l1 4l6 84q21 -12 57 -12q32 0 66.5 15.5 t66 41t56.5 59.5t38 72l-6 -59q-2 -20 -3 -41.5t4 -39.5t18 -30t39 -12q32 0 62 8t62 13zM617 48v1h-1v-1h1z" />
<glyph unicode="&#xb6;" horiz-adv-x="596" d="M131 446q-5 -45 4 -82t28.5 -66t48 -50t64.5 -34l-11 -103q-4 -45 -8 -97.5t-7 -97.5h-66l-4 -40l358 1l4 40h-52q10 62 19.5 130.5t15.5 130.5q11 109 16.5 215.5t5.5 214.5h67l4 40q-50 0 -98 2t-98 2q-54 0 -104 -8t-89 -30.5t-65 -63t-33 -104.5zM494 605 q-2 -22 -7.5 -75t-12 -122t-14 -145t-14 -145t-11 -122t-5.5 -75l-93 -4q10 61 19 129.5t16 130.5l42 423z" />
<glyph unicode="&#xb7;" horiz-adv-x="295" d="M227 397q1 11 0.5 26t-4 28t-12 22t-23.5 9q-16 0 -27 -9.5t-18 -23t-11 -29.5t-5 -28t-0.5 -26.5t4.5 -27t13 -21t25 -8.5q15 0 25.5 9.5t17.5 23t10.5 28.5t4.5 27z" />
<glyph unicode="&#xb8;" horiz-adv-x="486" d="M248 -364q20 30 29 58t13 62q3 30 -2.5 54t-13 45.5t-13.5 40.5t-4 38q0 2 -0.5 5t0.5 5q1 13 6.5 22.5t12.5 18t14 16.5t11 18l-49 1q-6 -14 -17 -37t-23 -50t-22.5 -56t-16.5 -56q-3 -22 2.5 -34.5t15 -19t20.5 -9.5t21 -7.5t15.5 -12.5t4.5 -24q-2 -19 -9.5 -37.5 t-15.5 -35.5z" />
<glyph unicode="&#xb9;" horiz-adv-x="955" d="M941 445q13 6 13 14q0 7 -12 7q-7 0 -14 -3q-54 -20 -85.5 -32t-48.5 -12q-16 0 -23 11q-9 13 -24 25t-33 20t-37 13t-35 5q-19 0 -32 -3t-25 -7t-25 -7t-32 -3h-7q-22 0 -35.5 10.5t-21.5 28.5t-11 41.5t-3 50.5q0 38 4.5 58.5t19.5 35.5q4 -1 7 -1.5t8 -0.5 q15 0 31.5 5t31 14t23.5 21.5t9 27.5q0 2 -0.5 4t-0.5 4q-8 29 -27.5 37.5t-45.5 8.5q-15 0 -31 -1t-33 -1q-30 0 -58 8.5t-49 40.5q-12 18 -21.5 38.5t-25.5 30.5q-15 18 -32 18q-12 0 -22 -7t-15 -13t-6 -7q-10 -10 -10 -25q0 -11 4 -22.5t9.5 -22.5t9.5 -20t4 -14 q0 -1 -0.5 -1.5t-0.5 -1.5q-24 -9 -39 -21.5t-23 -27.5t-10.5 -31.5t-2.5 -33.5q0 -16 1 -32t1 -30t-2 -27t-9 -24q-14 -23 -36.5 -44t-43.5 -43t-36.5 -44.5t-15.5 -48.5q0 -5 0.5 -9t1.5 -9q0 -11 8.5 -30t26 -38t43.5 -33t62 -14q38 0 58 10t29 26t10 36.5t1.5 42.5 t3 43.5t15 38.5t38 28t71.5 13q7 -15 17 -27t18.5 -23t14.5 -24t6 -30q-14 -26 -37 -50.5t-50 -48t-55 -47t-50.5 -47t-37 -48t-14.5 -50.5v-9q22 -41 65 -41q27 0 54 18q0 17 -2 30t-2 25q0 19 11 41l21 35q11 -28 15.5 -52t4.5 -45q0 -35 -6 -63.5t-6 -57.5h75 q2 12 3 23.5t1 22.5q0 32 -4.5 61.5t-4.5 53.5q0 15 3.5 27t12 21t23.5 13.5t38 4.5h34q8 0 7 -2t3 -11q-7 -18 -7 -41q0 -27 8.5 -54t18.5 -54t18.5 -53t8.5 -50h3q34 0 47 9.5t14 26.5q0 16 -9 37t-19.5 44t-19.5 46.5t-9 45.5q0 13 4 25t14 22q5 -5 12.5 -24.5 t16.5 -45.5t20 -55.5t23 -54t24.5 -40.5t25.5 -16q19 0 29.5 3.5t16.5 8t10 8t12 3.5v3q0 7 2 12.5t2 12.5q0 10 -9 20q-25 1 -44.5 8t-33.5 23.5t-24 44t-16 69.5q39 14 59 38.5t30 51t14.5 52t11.5 41.5zM303 644q14 26 28.5 45t28.5 19q2 0 8 -2q15 -8 15 -34 q0 -12 -4 -26.5t-12 -28.5q-13 -24 -30 -37.5t-32 -13.5q-7 0 -13 3q-11 5 -11 19q0 11 6 24.5t16 31.5zM222 693q13 26 30.5 42.5t31.5 16.5q2 0 8 -2q10 -6 10 -19q0 -11 -6 -27t-16 -36q-14 -27 -27.5 -47t-26.5 -20q-4 0 -6 1q-14 8 -14 32q0 25 16 59zM140 378 q8 17 18 28.5t18 11.5q3 0 5 -1q10 -7 10 -22q0 -14 -10 -34q-8 -15 -19 -24t-21 -9q-4 0 -8 2q-7 4 -7 12q0 13 14 36zM94 410q8 17 19 27t20 10q4 0 6 -1q6 -3 6 -12q0 -8 -4 -17.5t-10 -22.5q-9 -17 -17.5 -30t-16.5 -13q-3 0 -4 1q-9 4 -9 21t10 37zM313 630q0 -9 5 -15 t13 -6t13 6t5 15t-5 15.5t-13 6.5t-13 -6.5t-5 -15.5zM232 678q0 -8 5 -14t13 -6t13.5 6t5.5 14t-5.5 14t-13.5 6t-13 -6t-5 -14z" />
<glyph unicode="&#xba;" horiz-adv-x="1031" d="M821 17q1 2 1 7q0 6 -4 6q-12 0 -24.5 -0.5t-25.5 -0.5q-16 0 -32 2t-31 8l70 677h70l5 40h-205l-5 -40h88l-67 -645q-39 36 -72 84t-62 101t-54.5 107t-48.5 102q-36 74 -73.5 146.5t-75.5 144.5h-131l-5 -40h74l-70 -676h-74l-4 -40h194l4 40h-75l61 588l15 -47 q18 -57 40.5 -111.5t46.5 -108.5q28 -61 61.5 -127t78.5 -120.5t104.5 -89.5t139.5 -35h13q10 0 22 0.5t23.5 3.5t19 8.5t8.5 15.5zM1039 503q2 19 -0.5 37t-11.5 31.5t-23.5 21.5t-36.5 8q-27 0 -48.5 -13.5t-36.5 -34.5t-24 -46t-12 -48q-4 -39 13 -67.5t60 -28.5 q28 0 49 13t36 33.5t23.5 45t11.5 48.5zM997 476q-1 -12 -4.5 -27t-10.5 -28.5t-17.5 -22.5t-26.5 -9q-18 0 -28.5 10.5t-15.5 25.5t-6 32.5t1 31.5q1 13 4.5 28t11 27.5t18.5 21t28 8.5t27 -10.5t14.5 -25.5t5 -32t-0.5 -30zM1005 172l8 68h-189l-8 -68h189z" />
<glyph unicode="&#xbb;" horiz-adv-x="745" d="M766 305q0 4 -11 25.5t-28.5 51.5t-38 64t-40 64t-34 51t-18.5 25q-8 1 -15 1h-14h-51q-2 0 -10 -0.5t-9 -5.5q0 -5 1.5 -7t3.5 -5q50 -69 98.5 -139.5t89.5 -145.5q-7 -7 -28.5 -28t-49.5 -48.5t-58.5 -58.5t-56 -57.5t-42.5 -45t-17 -21.5t3.5 -9t8.5 -11t11 -9.5 t9 -4.5q23 20 43 44t41 47q45 49 91 96.5t94 92.5q6 5 16 15.5t11 18.5zM515 305q1 7 -3 13.5t-7 11.5q-1 1 -11.5 19.5t-26.5 45t-34.5 58t-36.5 59.5t-32 48.5t-20 25.5q-5 1 -10 1h-10h-59q-2 0 -10 -0.5t-9 -5.5q0 -5 15 -27.5t34.5 -50t37.5 -52t24 -32.5 q23 -32 43 -66t39 -69q-8 -8 -29.5 -29t-49.5 -48.5t-58.5 -58t-56 -57t-42 -45t-16.5 -21.5t3.5 -9t8.5 -11.5t11 -9.5t9 -4q2 0 7.5 6t12.5 13.5t12.5 15t7.5 9.5l92 99q35 38 70.5 73t72.5 70q6 5 13 12.5t8 15.5z" />
<glyph unicode="&#xbf;" horiz-adv-x="406" d="M452 -168q1 13 0.5 28t-5.5 27.5t-15 20.5t-27 8q-8 0 -19 -2.5t-21.5 -7t-17.5 -12t-8 -17.5q-1 -9 4 -17t11 -17.5t11 -21.5t3 -30q-3 -22 -14 -40t-27.5 -30.5t-36.5 -19.5t-41 -7q-34 0 -57.5 13t-37 34.5t-18 49.5t-1.5 59q4 40 20 78t37.5 74t46 71.5t46 70.5 t37 70.5t19.5 71.5q3 29 -10 51t-45 22q-29 0 -41 -18.5t-14 -43.5l-13 -116q-5 -52 -33.5 -97t-61.5 -89.5t-61 -91.5t-34 -102q-4 -40 7.5 -70.5t35 -50.5t56 -30.5t69.5 -10.5q42 0 85.5 12.5t79.5 37t61 60.5t30 83zM348 511q1 13 1 28t-4 28.5t-13 22.5t-26 9 q-15 0 -25.5 -9t-17 -22t-10 -27.5t-4.5 -26.5q-1 -11 -0.5 -26.5t4.5 -29.5t12.5 -23.5t23.5 -9.5q16 0 27 9t17.5 22t10 28t4.5 27z" />
<glyph unicode="&#xc0;" horiz-adv-x="704" d="M699 0l4 40q-26 0 -41.5 8.5t-25 23t-14.5 33t-10 39.5q-38 155 -75.5 307.5t-83.5 304.5h-147l-5 -40h89l-283 -595q-9 -18 -17.5 -32.5t-19.5 -25.5t-26 -17t-36 -6l-4 -40h185l4 40h-68l119 269h225q15 -68 31 -135t35 -134h-59l-4 -40h227zM457 361h-186l132 289z M492 1014q1 10 0.5 20.5t-4.5 19.5t-11 14.5t-19 5.5q-22 0 -32.5 -17t-12.5 -36q-2 -22 -1 -43t-1 -43q-3 -25 -11.5 -42t-17.5 -28.5t-16.5 -18.5t-7.5 -10q-1 -5 2 -11t9 -6q19 7 40 31t39 54t30 60.5t14 49.5z" />
<glyph unicode="&#xc1;" horiz-adv-x="704" d="M699 0l4 40q-26 0 -41.5 8.5t-25 23t-14.5 33t-10 39.5q-38 155 -75.5 307.5t-83.5 304.5h-147l-5 -40h89l-283 -595q-9 -18 -17.5 -32.5t-19.5 -25.5t-26 -17t-36 -6l-4 -40h185l4 40h-68l119 269h225q15 -68 31 -135t35 -134h-59l-4 -40h227zM457 361h-186l132 289z M506 1014q1 10 0.5 20.5t-4.5 19.5t-11 14.5t-19 5.5q-22 0 -32.5 -17t-12.5 -36q-2 -22 -1.5 -43.5t-1.5 -43.5q-3 -25 -11 -42.5t-17 -28.5t-16.5 -17.5t-7.5 -9.5q-1 -5 1.5 -11t8.5 -6q2 0 6 2t5 3q18 12 37.5 35.5t35.5 51t27 55t13 48.5z" />
<glyph unicode="&#xc2;" horiz-adv-x="704" d="M699 0l4 40q-26 0 -41.5 8.5t-25 23t-14.5 33t-10 39.5q-38 155 -75.5 307.5t-83.5 304.5h-147l-5 -40h89l-283 -595q-9 -18 -17.5 -32.5t-19.5 -25.5t-26 -17t-36 -6l-4 -40h185l4 40h-68l119 269h225q15 -68 31 -135t35 -134h-59l-4 -40h227zM457 361h-186l132 289z M559 854q0 4 -5.5 20t-14 38t-18.5 46.5t-19 45.5t-15.5 36t-7.5 17q-2 3 -4.5 10t-6.5 7h-13t-13 -1q-5 -5 -19.5 -23t-33 -42t-38.5 -51t-37 -50.5t-28.5 -40.5t-11.5 -20q-1 -6 9 -6h6q9 0 13 0.5t7 3t5.5 6.5t7.5 11l103 134h16l45 -130q3 -7 4.5 -12t4 -8t7 -4.5 t12.5 -1.5h11q11 0 21.5 2t12.5 13z" />
<glyph unicode="&#xc3;" horiz-adv-x="704" d="M699 0l4 40q-26 0 -41.5 8.5t-25 23t-14.5 33t-10 39.5q-38 155 -75.5 307.5t-83.5 304.5h-147l-5 -40h89l-283 -595q-9 -18 -17.5 -32.5t-19.5 -25.5t-26 -17t-36 -6l-4 -40h185l4 40h-68l119 269h225q15 -68 31 -135t35 -134h-59l-4 -40h227zM457 361h-186l132 289z M619 971l-20 19q-17 -11 -30 -21t-35 -10q-20 0 -37.5 6t-35 13t-35.5 13t-37 6q-17 0 -33 -9t-30.5 -22.5t-27 -28.5l-22.5 -27h-1l21 -16q15 16 28.5 24.5t35.5 8.5q17 0 32 -5t30 -11.5t30 -11.5t32 -5q21 0 39.5 6.5t35 17.5t31.5 24.5t29 28.5z" />
<glyph unicode="&#xc4;" horiz-adv-x="704" d="M699 0l4 40q-26 0 -41.5 8.5t-25 23t-14.5 33t-10 39.5q-38 155 -75.5 307.5t-83.5 304.5h-147l-5 -40h89l-283 -595q-9 -18 -17.5 -32.5t-19.5 -25.5t-26 -17t-36 -6l-4 -40h185l4 40h-68l119 269h225q15 -68 31 -135t35 -134h-59l-4 -40h227zM457 361h-186l132 289z M572 970q1 8 0.5 19t-3.5 21t-9.5 17t-17.5 7q-12 0 -20.5 -6.5t-14 -16.5t-8.5 -21t-4 -20t-0.5 -19.5t4 -20t10 -15.5t18.5 -6t20 6t13.5 15t8 19.5t3.5 20.5zM383 970q1 9 0.5 20t-4 20.5t-10 16.5t-17.5 7t-19.5 -6.5t-14 -16.5t-8.5 -21t-4 -20t-0.5 -20t4 -20 t10.5 -15t19 -6t19.5 6t13 15.5t8 20t3.5 19.5z" />
<glyph unicode="&#xc5;" horiz-adv-x="704" d="M699 0l4 40q-26 0 -41.5 8.5t-25 23t-14.5 33t-10 39.5q-38 155 -75.5 307.5t-83.5 304.5h-147l-5 -40h89l-283 -595q-9 -18 -17.5 -32.5t-19.5 -25.5t-26 -17t-36 -6l-4 -40h185l4 40h-68l119 269h225q15 -68 31 -135t35 -134h-59l-4 -40h227zM545 955q3 24 -3.5 45 t-20 37t-33.5 25.5t-44 9.5t-45.5 -9.5t-38.5 -25.5t-27.5 -37t-13.5 -45q-2 -23 4 -44.5t19.5 -38t33 -26.5t43.5 -10t46 10t39 26.5t28 38t13 44.5zM457 361h-186l132 289zM511 955q-2 -17 -10 -30.5t-20 -23.5t-27 -15.5t-31 -5.5q-32 0 -52.5 21.5t-17.5 53.5 q4 32 29 53.5t57 21.5q16 0 30 -5.5t24 -15.5t15 -24t3 -30z" />
<glyph unicode="&#xc6;" horiz-adv-x="982" d="M927 141q0 3 1 9.5t0.5 13.5t-2.5 12.5t-6 5.5q-21 0 -32 -4.5t-17.5 -13t-11 -21.5t-11.5 -29q-9 -20 -18.5 -32.5t-21.5 -19.5t-27.5 -9t-35.5 -2q-16 0 -31 -0.5t-31 -0.5h-9q-12 0 -24 1t-21.5 5.5t-15 13t-5.5 24.5q2 69 3.5 136.5t1.5 136.5h200q16 0 24 5.5 t10 22.5l3 32h-237q-6 69 -7 137t-7 137q38 0 76.5 2t76.5 2h33t33 -1t28 -3t18 -7.5t10 -15.5t5 -27q1 -16 1 -29t3.5 -22t12.5 -13.5t29 -4.5q13 0 13 10l13 119q2 14 3 28t-1 16h-1q0 1 -1 1h-538l-5 -40h101q-77 -103 -150.5 -207t-147.5 -210q-29 -42 -59 -83.5 t-59 -84.5q-10 -15 -21 -31t-24.5 -29.5t-29 -22t-34.5 -8.5l-5 -40h176l4 40h-62l177 269h235q-2 -68 -1 -135t3 -134h-95l-4 -40h468q6 0 14 19t15 44t12 47.5t6 30.5zM508 361h-195q45 69 91 136t94 134l19 19q-4 -68 -7 -144.5t-2 -144.5z" />
<glyph unicode="&#xc7;" horiz-adv-x="639" d="M618 132q2 10 -6 16.5t-17 7.5q-23 -21 -45 -40t-45.5 -33t-50 -22.5t-57.5 -8.5q-71 0 -112 32.5t-60.5 82.5t-22 110.5t3.5 117.5q5 52 18.5 110t40.5 107t71 81t111 32q33 0 57.5 -4.5t41.5 -16t26.5 -32.5t12.5 -54q1 -8 1.5 -17t3.5 -17t8.5 -13t16.5 -5q3 0 7 -0.5 t9 -0.5q6 0 10.5 2t5.5 9l14 141q2 11 1 17t-10 13q-10 7 -32.5 12.5t-48 10t-49.5 7t-37 2.5q-90 0 -159 -41t-117.5 -105.5t-76.5 -144.5t-36 -158q-6 -60 -1.5 -121.5t30.5 -113.5q29 -57 76.5 -80t111.5 -29h4q-6 -15 -15 -35.5t-17.5 -42t-15.5 -42t-8 -34.5 q-3 -24 9 -33.5t26.5 -15.5t26.5 -13.5t10 -27.5q-2 -17 -9.5 -32.5t-15.5 -29.5h-4l22 -5q15 27 23.5 49t11.5 53q3 25 -1.5 47t-10.5 41.5t-11 38t-3 36.5q2 11 4.5 22.5t4.5 22.5q66 0 121.5 20.5t106.5 68.5q4 4 12 11.5t15.5 16t13 16.5t5.5 14z" />
<glyph unicode="&#xc8;" d="M563 169q1 8 0.5 10.5t-8.5 2.5q-25 0 -37.5 -9.5t-20 -24.5t-13 -31.5t-16.5 -31.5t-31 -24.5t-57 -9.5q-50 0 -86.5 1.5t-44.5 11.5q-3 3 -3.5 18.5t0 37.5t2.5 47.5t4 48.5t3.5 41t2.5 25l9 85h181q16 0 24.5 5.5t10.5 22.5l3 32h-213q5 69 9.5 136.5t10.5 136.5 l155 5q34 0 48 -9.5t18 -44.5v-20q0 -11 2 -21.5t8 -18t18 -7.5q6 0 9.5 -0.5t7.5 -0.5q7 0 10.5 4t5.5 19l15 129l1 4v11t-5 6h-422l-5 -40h67q-24 -116 -41.5 -232t-29.5 -233q-6 -53 -9 -105.5t-5 -105.5h-52l-4 -40h430q8 0 16 24t14 54t11 57t7 34zM444 836 q0 3 -5.5 9.5t-12 18t-11.5 29t-2 41.5q2 18 6.5 36.5t6.5 36.5q1 10 1.5 22t-1.5 22t-9 16.5t-21 6.5q-12 0 -20.5 -5.5t-14.5 -14.5t-9.5 -19.5t-4.5 -20.5q-4 -38 9 -77.5t33 -70.5q2 -3 7.5 -11t11.5 -16t12 -14t10 -6q7 0 10 6t4 11z" />
<glyph unicode="&#xc9;" d="M563 169q1 8 0.5 10.5t-8.5 2.5q-25 0 -37.5 -9.5t-20 -24.5t-13 -31.5t-16.5 -31.5t-31 -24.5t-57 -9.5q-50 0 -86.5 1.5t-44.5 11.5q-3 3 -3.5 18.5t0 37.5t2.5 47.5t4 48.5t3.5 41t2.5 25l9 85h181q16 0 24.5 5.5t10.5 22.5l3 32h-213q5 69 9.5 136.5t10.5 136.5 l155 5q34 0 48 -9.5t18 -44.5v-20q0 -11 2 -21.5t8 -18t18 -7.5q6 0 9.5 -0.5t7.5 -0.5q7 0 10.5 4t5.5 19l15 129l1 4v11t-5 6h-422l-5 -40h67q-24 -116 -41.5 -232t-29.5 -233q-6 -53 -9 -105.5t-5 -105.5h-52l-4 -40h430q8 0 16 24t14 54t11 57t7 34zM494 1014 q1 10 0 20.5t-4.5 19.5t-11 14.5t-19.5 5.5q-22 0 -32 -17.5t-12 -35.5q-2 -22 -1.5 -43.5t-1.5 -43.5q-3 -25 -11.5 -42t-17.5 -28.5t-16.5 -18t-7.5 -9.5q-1 -5 2 -11t9 -6l9 5h1q19 13 38.5 36t35.5 50t27 54t13 50z" />
<glyph unicode="&#xca;" d="M563 169q1 8 0.5 10.5t-8.5 2.5q-25 0 -37.5 -9.5t-20 -24.5t-13 -31.5t-16.5 -31.5t-31 -24.5t-57 -9.5q-50 0 -86.5 1.5t-44.5 11.5q-3 3 -3.5 18.5t0 37.5t2.5 47.5t4 48.5t3.5 41t2.5 25l9 85h181q16 0 24.5 5.5t10.5 22.5l3 32h-213q5 69 9.5 136.5t10.5 136.5 l155 5q34 0 48 -9.5t18 -44.5v-20q0 -11 2 -21.5t8 -18t18 -7.5q6 0 9.5 -0.5t7.5 -0.5q7 0 10.5 4t5.5 19l15 129l1 4v11t-5 6h-422l-5 -40h67q-24 -116 -41.5 -232t-29.5 -233q-6 -53 -9 -105.5t-5 -105.5h-52l-4 -40h430q8 0 16 24t14 54t11 57t7 34zM535 854q0 5 -5 20 t-13 35.5t-17.5 43.5t-18.5 43.5t-15.5 35.5t-8.5 20t-5 13.5t-8 8.5h-13t-13 -1q-5 -5 -19.5 -23t-33 -42t-38.5 -51t-37 -50.5t-28.5 -40.5t-11.5 -20q-1 -6 9 -6h7q8 0 12.5 0.5t7.5 3t5.5 6.5t7.5 11l102 134h17l44 -130q5 -15 8.5 -20.5t20.5 -5.5h12q10 0 20 2t12 13z " />
<glyph unicode="&#xcb;" d="M563 169q1 8 0.5 10.5t-8.5 2.5q-25 0 -37.5 -9.5t-20 -24.5t-13 -31.5t-16.5 -31.5t-31 -24.5t-57 -9.5q-50 0 -86.5 1.5t-44.5 11.5q-3 3 -3.5 18.5t0 37.5t2.5 47.5t4 48.5t3.5 41t2.5 25l9 85h181q16 0 24.5 5.5t10.5 22.5l3 32h-213q5 69 9.5 136.5t10.5 136.5 l155 5q34 0 48 -9.5t18 -44.5v-20q0 -11 2 -21.5t8 -18t18 -7.5q6 0 9.5 -0.5t7.5 -0.5q7 0 10.5 4t5.5 19l15 129l1 4v11t-5 6h-422l-5 -40h67q-24 -116 -41.5 -232t-29.5 -233q-6 -53 -9 -105.5t-5 -105.5h-52l-4 -40h430q8 0 16 24t14 54t11 57t7 34zM353 970q1 9 0.5 20 t-4 20.5t-10 16.5t-17.5 7q-12 0 -20.5 -6.5t-14 -16.5t-8.5 -21t-4 -20t-0.5 -19.5t4 -20t10 -15.5t18.5 -6t20.5 6t13.5 15t8 19.5t4 20.5zM542 970q1 9 0 20t-4 21t-10 16.5t-18 6.5t-19.5 -7t-13.5 -16.5t-8 -20.5t-4 -20t-1 -20q0 -10 3 -19.5t10 -15.5t19 -6t20.5 6 t13.5 15t8 19.5t4 20.5z" />
<glyph unicode="&#xcc;" horiz-adv-x="375" d="M290 0l4 40h-66q10 72 19 143.5t17 143.5q10 97 17 194t12 195h64l5 40h-198l-5 -40h65q0 -12 -3 -24q-41 -203 -63 -406q-6 -62 -10.5 -123t-6.5 -123h-52l-4 -40h205zM306 836q0 3 -6 9.5t-13 17.5t-12 28t-2 41q2 23 7.5 44.5t7.5 44.5q2 18 -4 35.5t-28 17.5 q-12 0 -20.5 -5.5t-14.5 -14.5t-9.5 -19.5t-4.5 -20.5q-4 -38 9.5 -77.5t32.5 -70.5q2 -4 7.5 -11.5t11.5 -15.5t12 -14t11 -6q6 0 10 6t5 11z" />
<glyph unicode="&#xcd;" horiz-adv-x="375" d="M290 0l4 40h-66q10 72 19 143.5t17 143.5q10 97 17 194t12 195h64l5 40h-198l-5 -40h65q0 -12 -3 -24q-41 -203 -63 -406q-6 -62 -10.5 -123t-6.5 -123h-52l-4 -40h205zM332 1014q1 10 0.5 20.5t-4.5 19.5t-11 14.5t-19 5.5q-23 0 -33 -17t-12 -36q-2 -22 -2 -44 q0 -21 -2 -43q-3 -25 -11 -42t-17 -28.5t-16 -18t-7 -9.5q-1 -5 2 -11t9 -6l8 5h1q19 12 38.5 35.5t35.5 50.5t27 54.5t13 49.5z" />
<glyph unicode="&#xce;" horiz-adv-x="375" d="M308 0l4 40h-66q10 72 19 143.5t17 143.5q10 97 17 194t12 195h64l5 40h-198l-5 -40h65q0 -12 -3 -24q-41 -203 -63 -406q-6 -62 -10.5 -123t-6.5 -123h-52l-4 -40h205zM418 854q0 5 -5 20t-13 35.5t-17.5 43.5t-18.5 43.5t-15.5 35.5t-8.5 20t-5 13.5t-8 8.5h-13t-13 -1 q-5 -5 -19.5 -23t-33 -42t-38.5 -51t-37 -50.5t-28.5 -40.5t-11.5 -20q-1 -6 9 -6h7q8 0 12.5 0.5t7.5 3t5.5 6.5t7.5 11l102 134h17l44 -130q5 -15 8.5 -20.5t20.5 -5.5h12q10 0 20 2t12 13z" />
<glyph unicode="&#xcf;" horiz-adv-x="375" d="M294 0l4 40h-66q10 72 19 143.5t17 143.5q10 97 17 194t12 195h64l5 40h-198l-5 -40h65q0 -12 -3 -24q-41 -203 -63 -406q-6 -62 -10.5 -123t-6.5 -123h-52l-4 -40h205zM234 970q1 9 0 20t-4 20.5t-10 16.5t-18 7q-12 0 -20.5 -6.5t-14 -16.5t-8.5 -21t-4 -20t-0.5 -20 t4 -20t10.5 -15t19 -6t20.5 6t13.5 15t8 19.5t4 20.5zM422 970q1 9 0.5 20t-4 20.5t-10 16.5t-17.5 7t-19.5 -6.5t-14 -16.5t-8.5 -21t-4 -20t-0.5 -19.5t3.5 -20t9.5 -15.5t18.5 -6t20.5 6t13.5 15t8 19.5t4 20.5z" />
<glyph unicode="&#xd0;" horiz-adv-x="805" d="M782 401q10 96 -11.5 166.5t-69.5 116.5t-120.5 68t-163.5 22q-64 0 -127.5 -8t-126.5 -19l1 -39q17 4 35.5 6t39.5 2q-14 -71 -26 -140.5t-23 -139.5h-76l-7 -68h73q-4 -29 -7 -58.5t-6 -58.5q-6 -53 -8.5 -105.5t-4.5 -105.5h-54l-4 -40q54 0 107 -2.5t107 -2.5h29 q93 0 170.5 29t135 82t93 128t44.5 167zM442 368l7 68h-164l11 101q5 46 8.5 91.5t5.5 91.5q95 0 168.5 -21.5t121.5 -67.5t68.5 -117t10.5 -170q-7 -67 -29 -121.5t-59.5 -93t-91.5 -59.5t-124 -21q-9 0 -26 0.5t-34.5 2t-32.5 5.5t-20 12q-8 11 -7 30.5t2 32.5 q6 59 11.5 117.5t10.5 118.5h163z" />
<glyph unicode="&#xd1;" horiz-adv-x="842" d="M821 17q1 2 1 7q0 6 -4 6q-12 0 -24.5 -0.5t-25.5 -0.5q-16 0 -32 2t-31 8l70 677h70l5 40h-205l-5 -40h88l-67 -645q-39 36 -72 84t-62 101t-54.5 107t-48.5 102q-36 74 -73.5 146.5t-75.5 144.5h-131l-5 -40h74l-70 -676h-74l-4 -40h194l4 40h-75l61 588l15 -47 q18 -57 40.5 -111.5t46.5 -108.5q28 -61 61.5 -127t78.5 -120.5t104.5 -89.5t139.5 -35h13q10 0 22 0.5t23.5 3.5t19 8.5t8.5 15.5zM708 972l-20 19q-16 -16 -30 -23.5t-37 -7.5q-21 0 -39 6t-35 13.5t-34 13.5t-35 6q-17 0 -33 -9.5t-30.5 -23t-27 -28.5l-22.5 -27l19 -16 q15 16 29 25t36 9q16 0 31 -5.5t30 -11.5t30.5 -11.5t32.5 -5.5q21 0 39.5 6.5t35 17.5t31.5 24.5t29 28.5z" />
<glyph unicode="&#xd2;" horiz-adv-x="850" d="M819 422q7 73 -7 138t-49.5 114t-92 77.5t-134.5 28.5q-91 0 -166 -37.5t-129.5 -99t-88 -141t-42.5 -163.5q-8 -72 5 -136.5t46.5 -113.5t88.5 -78t133 -29q96 0 172.5 35t132 95t89 140t42.5 170zM702 364q-6 -57 -22.5 -114.5t-48 -104t-79.5 -75.5t-117 -29 q-70 0 -113 32t-65 82.5t-27 111.5t1 119q6 54 22.5 114t48 110t79 83t114.5 33q72 0 115.5 -35t66 -88t27 -117t-1.5 -122zM561 836q0 7 -5 10h-1q-17 19 -23.5 38.5t-3.5 47.5q2 23 7.5 45t7.5 45q2 19 -4 35.5t-28 16.5q-12 0 -20.5 -5.5t-14.5 -14.5t-9.5 -19.5 t-4.5 -20.5q-2 -15 5 -47t19 -65t27.5 -58t32.5 -25q6 0 10 6t5 11z" />
<glyph unicode="&#xd3;" horiz-adv-x="850" d="M819 422q7 73 -7 138t-49.5 114t-92 77.5t-134.5 28.5q-91 0 -166 -37.5t-129.5 -99t-88 -141t-42.5 -163.5q-8 -72 5 -136.5t46.5 -113.5t88.5 -78t133 -29q96 0 172.5 35t132 95t89 140t42.5 170zM702 364q-6 -57 -22.5 -114.5t-48 -104t-79.5 -75.5t-117 -29 q-70 0 -113 32t-65 82.5t-27 111.5t1 119q6 54 22.5 114t48 110t79 83t114.5 33q72 0 115.5 -35t66 -88t27 -117t-1.5 -122zM619 1014q1 10 0 20.5t-4.5 19.5t-11 14.5t-19.5 5.5q-22 0 -32 -17.5t-12 -35.5q-2 -22 -1.5 -43.5t-1.5 -43.5q-3 -25 -11.5 -42t-17.5 -28.5 t-16.5 -18t-7.5 -9.5q-1 -5 2 -11t9 -6l9 5h1q19 13 38.5 36t35.5 50t27 54t13 50z" />
<glyph unicode="&#xd4;" horiz-adv-x="850" d="M819 422q7 73 -7 138t-49.5 114t-92 77.5t-134.5 28.5q-91 0 -166 -37.5t-129.5 -99t-88 -141t-42.5 -163.5q-8 -72 5 -136.5t46.5 -113.5t88.5 -78t133 -29q96 0 172.5 35t132 95t89 140t42.5 170zM702 364q-6 -57 -22.5 -114.5t-48 -104t-79.5 -75.5t-117 -29 q-70 0 -113 32t-65 82.5t-27 111.5t1 119q6 54 22.5 114t48 110t79 83t114.5 33q72 0 115.5 -35t66 -88t27 -117t-1.5 -122zM678 854q0 4 -5.5 20t-14.5 38t-19 47t-19 46t-15.5 35.5t-6.5 16.5q-2 3 -4.5 10t-6.5 7h-13t-13 -1q-5 -5 -19.5 -23t-33 -42t-38.5 -51 t-37 -50.5t-28.5 -40.5t-11.5 -20q-1 -6 9 -6h6q8 0 12.5 0.5t7.5 3t5.5 6.5t7.5 11l103 134h16l45 -130q3 -8 4.5 -13t4 -8t7 -4t12.5 -1h11q11 0 21.5 2t12.5 13z" />
<glyph unicode="&#xd5;" horiz-adv-x="850" d="M819 422q7 73 -7 138t-49.5 114t-92 77.5t-134.5 28.5q-91 0 -166 -37.5t-129.5 -99t-88 -141t-42.5 -163.5q-8 -72 5 -136.5t46.5 -113.5t88.5 -78t133 -29q96 0 172.5 35t132 95t89 140t42.5 170zM702 364q-6 -57 -22.5 -114.5t-48 -104t-79.5 -75.5t-117 -29 q-70 0 -113 32t-65 82.5t-27 111.5t1 119q6 54 22.5 114t48 110t79 83t114.5 33q72 0 115.5 -35t66 -88t27 -117t-1.5 -122zM712 970l-19 19q-14 -14 -30.5 -23t-35.5 -9q-20 0 -37.5 6t-34.5 13.5t-35 13.5t-37 6q-16 0 -32.5 -9t-31.5 -22t-28 -28.5t-21 -27.5l19 -16 q14 15 28 24.5t35 9.5q16 0 31.5 -5.5t30.5 -12t31 -12t33 -5.5q20 0 38.5 7t35 18t31.5 25t29 28z" />
<glyph unicode="&#xd6;" horiz-adv-x="850" d="M819 422q7 73 -7 138t-49.5 114t-92 77.5t-134.5 28.5q-91 0 -166 -37.5t-129.5 -99t-88 -141t-42.5 -163.5q-8 -72 5 -136.5t46.5 -113.5t88.5 -78t133 -29q96 0 172.5 35t132 95t89 140t42.5 170zM702 364q-6 -57 -22.5 -114.5t-48 -104t-79.5 -75.5t-117 -29 q-70 0 -113 32t-65 82.5t-27 111.5t1 119q6 54 22.5 114t48 110t79 83t114.5 33q72 0 115.5 -35t66 -88t27 -117t-1.5 -122zM471 970q1 9 0 20t-4 21t-10 16.5t-18 6.5t-19.5 -7t-14 -16.5t-8.5 -20.5t-4 -20t-0.5 -20t4 -20t10.5 -15t19 -6t20 6t13.5 15t8 20t3.5 20z M660 970q1 8 0 19t-4 21t-9.5 17t-17.5 7t-19.5 -6.5t-14.5 -16.5t-9 -21t-4 -20t-0.5 -20t4 -20t10.5 -15t19 -6t20 6t13.5 15t8 19.5t3.5 20.5z" />
<glyph unicode="&#xd7;" horiz-adv-x="527" d="M448 58l60 55l-160 180l198 179l-48 52l-196 -179l-163 182l-61 -55l162 -182l-199 -180l46 -53l200 181z" />
<glyph unicode="&#xd8;" horiz-adv-x="850" d="M819 421q8 85 -10 157t-77 129h-1l94 130l-42 29l-90 -125h-6q-20 11 -37 18.5t-34 12t-36 6.5t-43 2q-91 0 -166 -37.5t-130 -99t-88.5 -141t-42.5 -163.5q-9 -83 9 -157.5t78 -129.5h1l-90 -123l43 -29l86 120h6q19 -10 36.5 -17.5t35 -12t37 -6.5t42.5 -2 q93 0 167.5 36.5t129 97.5t87 140t41.5 165zM639 665l-371 -516h-8q-28 51 -31.5 114.5t2.5 122.5q6 55 23 115.5t49.5 110t80.5 82t116 32.5q45 0 78.5 -14.5t60.5 -46.5zM699 361q-6 -57 -22.5 -114t-47.5 -102.5t-78.5 -74.5t-115.5 -29q-43 0 -77.5 14.5t-64.5 41.5h-1 l371 515h8q14 -32 21.5 -62t10 -60t1.5 -61.5t-5 -67.5z" />
<glyph unicode="&#xd9;" horiz-adv-x="816" d="M802 16l-2 33q-12 -5 -24.5 -6.5t-24.5 -1.5q-17 0 -24 7t-13 21q-5 13 -4 61t6 114.5t12.5 144t14 150t12 130.5t5.5 87h-135l-5 -40h69q-9 -65 -20.5 -129.5t-22.5 -129.5q-8 -48 -14.5 -96.5t-15.5 -96.5q-7 -39 -30 -74.5t-55 -63t-71 -43.5t-78 -16q-57 0 -86 26.5 t-39.5 67t-8.5 88.5t7 91l15 147q8 68 13.5 134.5t7.5 134.5h-127l-5 -40h62q-16 -96 -36 -190t-30 -191l-4 -37q-6 -54 -7.5 -109t12.5 -99.5t50 -72.5t106 -28q35 0 74.5 11t77 30.5t70.5 45.5t55 55h20q-2 -19 -3 -43.5t3 -47t16.5 -38t38.5 -15.5q34 0 70 8.5t68 20.5z M519 836q0 3 -6 9t-12.5 17.5t-11.5 28.5t-2 41q2 23 7.5 44.5t7.5 44.5q2 19 -4 36t-29 17q-12 0 -20.5 -5.5t-14 -14.5t-9 -19.5t-4.5 -20.5q-4 -38 9.5 -77.5t32.5 -70.5q2 -4 7.5 -11.5t11.5 -15.5t12 -14t11 -6q6 0 9.5 6t4.5 11z" />
<glyph unicode="&#xda;" horiz-adv-x="816" d="M802 16l-2 33q-12 -5 -24.5 -6.5t-24.5 -1.5q-17 0 -24 7t-13 21q-5 13 -4 61t6 114.5t12.5 144t14 150t12 130.5t5.5 87h-135l-5 -40h69q-9 -65 -20.5 -129.5t-22.5 -129.5q-8 -48 -14.5 -96.5t-15.5 -96.5q-7 -39 -30 -74.5t-55 -63t-71 -43.5t-78 -16q-57 0 -86 26.5 t-39.5 67t-8.5 88.5t7 91l15 147q8 68 13.5 134.5t7.5 134.5h-127l-5 -40h62q-16 -96 -36 -190t-30 -191l-4 -37q-6 -54 -7.5 -109t12.5 -99.5t50 -72.5t106 -28q35 0 74.5 11t77 30.5t70.5 45.5t55 55h20q-2 -19 -3 -43.5t3 -47t16.5 -38t38.5 -15.5q34 0 70 8.5t68 20.5z M582 1014q1 10 0.5 20.5t-4.5 19.5t-11 14.5t-19 5.5q-23 0 -33 -17t-12 -36q-2 -22 -2 -43t-2 -43q-3 -25 -11 -42.5t-17 -29t-16 -18t-7 -9.5q-1 -5 2 -11t9 -6l8 5h1q19 12 38.5 35.5t35.5 50.5t27 54.5t13 49.5z" />
<glyph unicode="&#xdb;" horiz-adv-x="816" d="M802 16l-2 33q-12 -5 -24.5 -6.5t-24.5 -1.5q-17 0 -24 7t-13 21q-5 13 -4 61t6 114.5t12.5 144t14 150t12 130.5t5.5 87h-135l-5 -40h69q-9 -65 -20.5 -129.5t-22.5 -129.5q-8 -48 -14.5 -96.5t-15.5 -96.5q-7 -39 -30 -74.5t-55 -63t-71 -43.5t-78 -16q-57 0 -86 26.5 t-39.5 67t-8.5 88.5t7 91l15 147q8 68 13.5 134.5t7.5 134.5h-127l-5 -40h62q-16 -96 -36 -190t-30 -191l-4 -37q-6 -54 -7.5 -109t12.5 -99.5t50 -72.5t106 -28q35 0 74.5 11t77 30.5t70.5 45.5t55 55h20q-2 -19 -3 -43.5t3 -47t16.5 -38t38.5 -15.5q34 0 70 8.5t68 20.5z M624 854q0 4 -5.5 20t-14 38t-18.5 46.5t-19 45.5t-15.5 36t-7.5 17q-2 3 -4.5 10t-6.5 7h-13t-13 -1q-5 -5 -19.5 -23t-33 -42t-38.5 -51t-37 -50.5t-28.5 -40.5t-11.5 -20q-1 -6 9 -6h6q9 0 13 0.5t7 3t5.5 6.5t7.5 11l103 134h16l45 -130q3 -7 4.5 -12t4 -8t7 -4.5 t12.5 -1.5h11q11 0 21.5 2t12.5 13z" />
<glyph unicode="&#xdc;" horiz-adv-x="816" d="M802 16l-2 33q-12 -5 -24.5 -6.5t-24.5 -1.5q-17 0 -24 7t-13 21q-5 13 -4 61t6 114.5t12.5 144t14 150t12 130.5t5.5 87h-135l-5 -40h69q-9 -65 -20.5 -129.5t-22.5 -129.5q-8 -48 -14.5 -96.5t-15.5 -96.5q-7 -39 -30 -74.5t-55 -63t-71 -43.5t-78 -16q-57 0 -86 26.5 t-39.5 67t-8.5 88.5t7 91l15 147q8 68 13.5 134.5t7.5 134.5h-127l-5 -40h62q-16 -96 -36 -190t-30 -191l-4 -37q-6 -54 -7.5 -109t12.5 -99.5t50 -72.5t106 -28q35 0 74.5 11t77 30.5t70.5 45.5t55 55h20q-2 -19 -3 -43.5t3 -47t16.5 -38t38.5 -15.5q34 0 70 8.5t68 20.5z M450 970q1 9 0 20t-4 20.5t-10 16.5t-18 7t-19.5 -6.5t-14 -16.5t-8.5 -21t-4 -20t-0.5 -20t4 -20t10.5 -15t19 -6t20 6t13.5 15t8 20t3.5 20zM638 970q1 8 0.5 19t-3.5 21t-9.5 17t-17.5 7q-12 0 -20.5 -6.5t-14 -16.5t-8.5 -21t-4 -20t-0.5 -20t4 -20t10.5 -15t19 -6t20 6 t13 15t7.5 20t3.5 20z" />
<glyph unicode="&#xdd;" horiz-adv-x="625" d="M704 716l5 40h-183l-5 -40h18q17 0 30.5 -5t11.5 -25q-1 -10 -14 -32.5t-32 -52.5t-42.5 -63.5t-45 -63.5t-39.5 -53.5t-27 -33.5l-13 -13q-37 97 -80 196.5t-98 185.5h-106l-5 -40h47q30 -105 69.5 -204.5t86.5 -196.5h1q-3 -29 -8 -58t-8 -58q-4 -40 -7 -79.5t-6 -79.5 h-69l-4 -40h241l4 40h-68q4 37 9 73.5t9 73.5q4 32 5.5 64t4.5 64h1l280 401h37zM489 1055q1 11 0 23.5t-5.5 22.5t-13 16.5t-22.5 6.5q-26 0 -37.5 -19t-13.5 -41q-3 -25 -2 -49.5t-2 -49.5q-3 -32 -12 -54t-36 -43h-1q-4 -2 -7 -5.5t-3 -8.5q-1 -6 2.5 -13t10.5 -7 q2 0 5.5 2.5t4.5 3.5h1q22 17 44 42.5t40.5 55t31 60t15.5 57.5z" />
<glyph unicode="&#xde;" horiz-adv-x="590" d="M593 399q7 64 -10.5 104.5t-52 63t-82.5 30.5t-102 8q-15 0 -30 -0.5t-29 -0.5q2 28 3 55.5t3 56.5h64l5 40h-198l-5 -40h65q0 -12 -3 -24q-41 -203 -63 -406q-6 -62 -10.5 -123t-6.5 -123h-52l-4 -40h205l4 40h-66q2 19 5 38t5 38l8 34h7q8 0 14.5 -0.5t14.5 -0.5 q57 0 110 16t95.5 47.5t71 78.5t34.5 108zM491 370q-8 -84 -60 -127t-134 -43q-11 0 -22.5 0.5t-22.5 0.5q2 26 4.5 51.5t4.5 51.5q8 72 12.5 129t8.5 111q8 0 20.5 2.5t20.5 2.5q90 0 134 -43.5t34 -135.5z" />
<glyph unicode="&#xdf;" horiz-adv-x="595" d="M576 197q4 38 -6 72.5t-27.5 64.5t-39 57t-39.5 51t-29.5 45.5t-9.5 41.5q3 28 25.5 57t49.5 63t51 74.5t29 91.5q3 33 -6 61t-27.5 49t-46 32.5t-60.5 11.5q-43 0 -79 -17.5t-66 -46.5t-53.5 -66.5t-41.5 -78t-30 -81t-18 -74.5q-8 -39 -12.5 -78t-9.5 -78 q-11 -106 -17 -212t-17 -212q-2 -17 5 -21.5t18 -4.5h19q13 0 21.5 3t16.5 14q2 3 8 40t13.5 92t16 120t15.5 123.5t12.5 102.5t6.5 57q2 16 3.5 34.5t3.5 39.5q5 47 14.5 99.5t29.5 97t53.5 73.5t85.5 29q51 0 78 -31.5t22 -82.5q-4 -36 -19.5 -67.5t-37 -60t-46 -54.5 t-46 -52.5t-37 -54t-18.5 -57.5q-4 -37 7.5 -68.5t30 -59t41 -53t41.5 -50t30.5 -50t8.5 -53.5q-2 -17 -9 -33.5t-18.5 -29.5t-27 -20.5t-34.5 -7.5q-30 0 -49 14.5t-31 32t-19.5 32t-15.5 14.5q-11 0 -20 -8.5t-15.5 -20t-10.5 -24t-5 -20.5q-2 -21 9 -35.5t28 -23 t37.5 -12t37.5 -3.5q43 0 82.5 17t69.5 46t49.5 67.5t24.5 81.5z" />
<glyph unicode="&#xe0;" d="M600 13l-1 35q-11 -2 -22.5 -4t-22.5 -2q-21 0 -33 13q-8 9 -10 34t-1 54t3 56t3 40q9 83 19 165t19 165v4q2 14 0 26t-20 12h-2l-61 -27q-19 8 -37 12.5t-40 4.5q-49 0 -89.5 -17.5t-74 -47.5t-59 -69t-44 -82.5t-29.5 -88t-15 -84.5q-4 -33 -2.5 -73t13 -74.5t36 -57.5 t67.5 -23q34 0 67.5 15t63 41.5t53 62t38.5 77.5l-6 -62q-2 -21 -3 -43t4 -40.5t19 -30.5t41 -12q32 0 63 8t63 13zM465 496q-3 -24 -9.5 -65.5t-18.5 -90t-28.5 -98.5t-38.5 -90.5t-49 -66t-60 -25.5t-49.5 20t-22.5 48.5t-5 60t3 55.5q1 12 0.5 24.5t1.5 23.5 q5 47 14 92.5t29.5 81t57 57t95.5 21.5h4q13 0 27.5 -1t25.5 -5.5t18 -14t5 -27.5zM448 685q0 3 -6.5 9.5t-14.5 19t-13 32t-2 49.5q2 26 8.5 50.5t8.5 50.5q2 22 -5.5 40.5t-33.5 18.5q-14 0 -24 -6.5t-16.5 -16.5t-10 -22.5t-4.5 -23.5q-5 -44 10 -88t37 -79q3 -4 9 -13 t13 -18t14.5 -16t12.5 -7q6 0 11 7.5t6 12.5z" />
<glyph unicode="&#xe1;" d="M600 13l-1 35q-11 -2 -22.5 -4t-22.5 -2q-21 0 -33 13q-8 9 -10 34t-1 54t3 56t3 40q9 83 19 165t19 165v4q2 14 0 26t-20 12h-2l-61 -27q-19 8 -37 12.5t-40 4.5q-49 0 -89.5 -17.5t-74 -47.5t-59 -69t-44 -82.5t-29.5 -88t-15 -84.5q-4 -33 -2.5 -73t13 -74.5t36 -57.5 t67.5 -23q34 0 67.5 15t63 41.5t53 62t38.5 77.5l-6 -62q-2 -21 -3 -43t4 -40.5t19 -30.5t41 -12q32 0 63 8t63 13zM465 496q-3 -24 -9.5 -65.5t-18.5 -90t-28.5 -98.5t-38.5 -90.5t-49 -66t-60 -25.5t-49.5 20t-22.5 48.5t-5 60t3 55.5q1 12 0.5 24.5t1.5 23.5 q5 47 14 92.5t29.5 81t57 57t95.5 21.5h4q13 0 27.5 -1t25.5 -5.5t18 -14t5 -27.5zM469 886q1 11 0 23.5t-5.5 22.5t-13 16.5t-22.5 6.5q-26 0 -37.5 -19t-13.5 -41q-2 -25 -1.5 -49.5t-1.5 -49.5q-4 -32 -13 -54t-35 -43h-1q-9 -5 -11 -14q-1 -6 2.5 -13t10.5 -7q2 0 6 2.5 t5 3.5h1q22 17 44 42.5t40 55t30.5 60t15.5 57.5z" />
<glyph unicode="&#xe2;" d="M600 13l-1 35q-11 -2 -22.5 -4t-22.5 -2q-21 0 -33 13q-8 9 -10 34t-1 54t3 56t3 40q9 83 19 165t19 165v4q2 14 0 26t-20 12h-2l-61 -27q-19 8 -37 12.5t-40 4.5q-49 0 -89.5 -17.5t-74 -47.5t-59 -69t-44 -82.5t-29.5 -88t-15 -84.5q-4 -33 -2.5 -73t13 -74.5t36 -57.5 t67.5 -23q34 0 67.5 15t63 41.5t53 62t38.5 77.5l-6 -62q-2 -21 -3 -43t4 -40.5t19 -30.5t41 -12q32 0 63 8t63 13zM465 496q-3 -24 -9.5 -65.5t-18.5 -90t-28.5 -98.5t-38.5 -90.5t-49 -66t-60 -25.5t-49.5 20t-22.5 48.5t-5 60t3 55.5q1 12 0.5 24.5t1.5 23.5 q5 47 14 92.5t29.5 81t57 57t95.5 21.5h4q13 0 27.5 -1t25.5 -5.5t18 -14t5 -27.5zM526 696q1 4 -4.5 20t-13 34.5t-14.5 35t-10 23.5q-1 3 -7.5 20t-15 36.5t-16 35t-10.5 15.5h-13t-13 -1q-5 -5 -19 -23t-33 -42t-39 -51t-37 -50.5t-28 -40.5t-12 -20q0 -6 7 -6h6 q8 0 12.5 0.5t8 2.5t6.5 6l9 12l102 134h16l45 -130q5 -15 8.5 -20.5t20.5 -5.5h8q11 0 23 2t13 13z" />
<glyph unicode="&#xe3;" d="M600 13l-1 35q-11 -2 -22.5 -4t-22.5 -2q-21 0 -33 13q-8 9 -10 34t-1 54t3 56t3 40q9 83 19 165t19 165v4q2 14 0 26t-20 12h-2l-61 -27q-19 8 -37 12.5t-40 4.5q-49 0 -89.5 -17.5t-74 -47.5t-59 -69t-44 -82.5t-29.5 -88t-15 -84.5q-4 -33 -2.5 -73t13 -74.5t36 -57.5 t67.5 -23q34 0 67.5 15t63 41.5t53 62t38.5 77.5l-6 -62q-2 -21 -3 -43t4 -40.5t19 -30.5t41 -12q32 0 63 8t63 13zM465 496q-3 -24 -9.5 -65.5t-18.5 -90t-28.5 -98.5t-38.5 -90.5t-49 -66t-60 -25.5t-49.5 20t-22.5 48.5t-5 60t3 55.5q1 12 0.5 24.5t1.5 23.5 q5 47 14 92.5t29.5 81t57 57t95.5 21.5h4q13 0 27.5 -1t25.5 -5.5t18 -14t5 -27.5zM586 779l-20 19q-17 -11 -30 -21t-35 -10q-20 0 -37.5 6t-35 13t-35.5 13t-37 6q-17 0 -33 -9t-30.5 -22.5t-27 -28.5l-22.5 -27h-1l21 -16q15 16 28.5 24.5t35.5 8.5q17 0 32 -5t30 -11.5 t30 -11.5t32 -5q21 0 39.5 6.5t35 17.5t31.5 24.5t29 28.5z" />
<glyph unicode="&#xe4;" d="M600 13l-1 35q-11 -2 -22.5 -4t-22.5 -2q-21 0 -33 13q-8 9 -10 34t-1 54t3 56t3 40q9 83 19 165t19 165v4q2 14 0 26t-20 12h-2l-61 -27q-19 8 -37 12.5t-40 4.5q-49 0 -89.5 -17.5t-74 -47.5t-59 -69t-44 -82.5t-29.5 -88t-15 -84.5q-4 -33 -2.5 -73t13 -74.5t36 -57.5 t67.5 -23q34 0 67.5 15t63 41.5t53 62t38.5 77.5l-6 -62q-2 -21 -3 -43t4 -40.5t19 -30.5t41 -12q32 0 63 8t63 13zM465 496q-3 -24 -9.5 -65.5t-18.5 -90t-28.5 -98.5t-38.5 -90.5t-49 -66t-60 -25.5t-49.5 20t-22.5 48.5t-5 60t3 55.5q1 12 0.5 24.5t1.5 23.5 q5 47 14 92.5t29.5 81t57 57t95.5 21.5h4q13 0 27.5 -1t25.5 -5.5t18 -14t5 -27.5zM537 836q1 10 0.5 23t-4.5 24t-12 19t-21 8t-22.5 -8t-16 -19t-10 -24t-4.5 -23q-1 -11 -0.5 -22.5t4 -22t11 -17t21.5 -6.5q13 0 23 6.5t16.5 16.5t10 22t4.5 23zM372 836q1 10 0.5 23 t-4.5 24t-11.5 19t-20.5 8t-22.5 -7.5t-16 -19t-10 -24.5t-4.5 -23q-1 -11 -0.5 -23t4.5 -22t11.5 -16.5t21.5 -6.5q13 0 22.5 6.5t15.5 16.5t9.5 22t4.5 23z" />
<glyph unicode="&#xe5;" d="M600 13l-1 35q-11 -2 -22.5 -4t-22.5 -2q-21 0 -33 13q-8 9 -10 34t-1 54t3 56t3 40q9 83 19 165t19 165v4q2 14 0 26t-20 12h-2l-61 -27q-19 8 -37 12.5t-40 4.5q-49 0 -89.5 -17.5t-74 -47.5t-59 -69t-44 -82.5t-29.5 -88t-15 -84.5q-4 -33 -2.5 -73t13 -74.5t36 -57.5 t67.5 -23q34 0 67.5 15t63 41.5t53 62t38.5 77.5l-6 -62q-2 -21 -3 -43t4 -40.5t19 -30.5t41 -12q32 0 63 8t63 13zM465 496q-3 -24 -9.5 -65.5t-18.5 -90t-28.5 -98.5t-38.5 -90.5t-49 -66t-60 -25.5t-49.5 20t-22.5 48.5t-5 60t3 55.5q1 12 0.5 24.5t1.5 23.5 q5 47 14 92.5t29.5 81t57 57t95.5 21.5h4q13 0 27.5 -1t25.5 -5.5t18 -14t5 -27.5zM495 811q2 19 -0.5 37t-11 31.5t-23 21.5t-36.5 8q-27 0 -48.5 -13.5t-37 -34.5t-24.5 -46t-11 -48q-5 -39 12.5 -67.5t60.5 -28.5q28 0 49 13t36 33.5t23.5 45t10.5 48.5zM453 784 q-1 -12 -4.5 -27t-10.5 -28.5t-17.5 -22.5t-26.5 -9q-18 0 -28.5 10.5t-15.5 25.5t-6 32.5t1 31.5q1 13 5 28t11.5 27.5t18.5 21t28 8.5t26.5 -10.5t14 -25.5t5 -32t-0.5 -30z" />
<glyph unicode="&#xe6;" horiz-adv-x="796" d="M787 447q8 68 -25.5 111t-103.5 43q-52 0 -93.5 -24.5t-83.5 -62.5q-42 87 -143 87q-20 0 -48.5 -5.5t-55 -17.5t-46 -30.5t-22.5 -43.5q-1 -11 -2.5 -22t-2.5 -22q-3 -17 -1 -36q0 -5 3 -5q20 0 31 3.5t22 23.5q10 21 18.5 40.5t20 35.5t29 25.5t45.5 9.5q30 0 47 -15 t25 -38t8.5 -49.5t-1.5 -50.5q-2 -15 -5 -25.5t-9 -17t-15.5 -11t-25.5 -8.5q-48 -11 -99 -23t-93.5 -34t-72.5 -59.5t-36 -99.5q-4 -33 4 -59t25.5 -44t43.5 -27.5t58 -9.5q61 0 107.5 27t93.5 74q10 -24 20.5 -42.5t25 -31.5t34.5 -20t49 -7q56 0 107.5 27t89.5 71 q6 7 12.5 15.5t8.5 17.5q1 12 -7 17l-16 10q-27 -37 -59 -60t-73 -23q-29 0 -47.5 10.5t-29 28.5t-14 41t-2.5 48q57 0 109 18t93.5 52t68.5 81.5t33 106.5zM700 427q-4 -37 -19.5 -71.5t-41 -61t-59 -42.5t-72.5 -16q-11 0 -16 4.5t-7 12t-1.5 16t1.5 16.5q2 18 6 45t11 57 t17.5 60t25.5 53.5t35 38.5t46 15q24 0 39.5 -12.5t24 -31t10.5 -41t0 -42.5zM392 266q-3 -34 -12 -72t-26.5 -70t-46 -53t-71.5 -21q-44 0 -69 27.5t-20 71.5q4 42 26 70t53 44.5t68 23.5t72 7q17 0 22.5 -6t3.5 -22z" />
<glyph unicode="&#xe7;" horiz-adv-x="486" d="M472 129q1 7 -9.5 15t-15.5 10q-23 -41 -53 -68t-79 -27q-44 0 -70 24t-39.5 59.5t-16 77t0.5 76.5q4 33 13.5 76t28 81.5t48 65.5t73.5 27q33 0 46.5 -17t19.5 -37.5t10 -37.5t18 -17h16q11 0 15.5 4.5t6.5 24.5l8 75q2 19 -8.5 31t-26 18.5t-34 8.5t-33.5 2 q-68 0 -121.5 -35t-92.5 -88t-62 -116.5t-29 -121.5q-5 -46 -1.5 -89t20 -77.5t48.5 -57.5t85 -29q-8 -20 -18 -40.5t-20 -41.5t-17.5 -42t-9.5 -42q-3 -22 2.5 -34.5t15 -19t20.5 -9.5t21 -7.5t15.5 -12.5t4.5 -24q-2 -19 -9.5 -37.5t-15.5 -35.5l21 -5q20 30 29 58t13 62 q3 30 -2.5 54t-13 45.5t-13.5 40.5t-4 38q2 29 17 53q48 5 93.5 27.5t75.5 63.5q8 10 17.5 23.5t11.5 27.5z" />
<glyph unicode="&#xe8;" horiz-adv-x="488" d="M493 447q8 68 -25.5 111t-103.5 43q-67 0 -117 -38t-84.5 -94.5t-53.5 -121t-25 -118.5q-4 -40 -2.5 -83t15.5 -78.5t43 -58.5t79 -23q53 0 104 24t87 66q7 8 16 19.5t11 21.5q1 10 -6.5 17.5t-15.5 10.5q-2 -2 -2.5 -3.5t-1.5 -3.5q-24 -32 -56.5 -54.5t-72.5 -22.5 q-29 0 -47.5 10.5t-29 28.5t-14 41t-2.5 48q57 0 109 18t93.5 52t68.5 81.5t33 106.5zM406 427q-4 -37 -19.5 -71.5t-41 -61t-59 -42.5t-72.5 -16q-19 0 -22.5 12t-1.5 27q2 19 6 47t11 59t17.5 62t25.5 55.5t35.5 40t46.5 15.5q24 0 39.5 -12.5t24 -31t10.5 -41t0 -42.5z M390 685q0 3 -6.5 10t-14.5 19.5t-13 32t-2 48.5q2 26 8 50.5t8 50.5q2 23 -5.5 41t-33.5 18q-14 0 -23.5 -6.5t-16 -16.5t-10 -22.5t-4.5 -23.5q-5 -44 10 -88t37 -79q3 -5 9 -14t13 -18t14.5 -15.5t12.5 -6.5q6 0 11 7.5t6 12.5z" />
<glyph unicode="&#xe9;" horiz-adv-x="488" d="M493 447q8 68 -25.5 111t-103.5 43q-67 0 -117 -38t-84.5 -94.5t-53.5 -121t-25 -118.5q-4 -40 -2.5 -83t15.5 -78.5t43 -58.5t79 -23q53 0 104 24t87 66q7 8 16 19.5t11 21.5q1 7 -6 16t-14 9q-3 0 -6 -4q-24 -32 -56.5 -54.5t-72.5 -22.5q-29 0 -47.5 10.5t-29 28.5 t-14 41t-2.5 48q57 0 109 18t93.5 52t68.5 81.5t33 106.5zM406 427q-4 -37 -19.5 -71.5t-41 -61t-59 -42.5t-72.5 -16q-19 0 -22.5 12t-1.5 27q2 18 6 46t11 59t17.5 62t25.5 56t35.5 40.5t46.5 15.5q24 0 39.5 -12.5t23.5 -31t10.5 -41t0.5 -42.5zM447 886q1 11 0 23.5 t-5.5 22.5t-13 16.5t-22.5 6.5q-26 0 -37.5 -19t-13.5 -41q-2 -25 -1.5 -49.5t-1.5 -49.5q-4 -32 -13 -54t-36 -43q-9 -5 -11 -14q-1 -6 2.5 -13t10.5 -7q2 0 6 2.5t6 3.5q22 17 44 42.5t40 55t30.5 60t15.5 57.5z" />
<glyph unicode="&#xea;" horiz-adv-x="488" d="M493 447q8 68 -25.5 111t-103.5 43q-67 0 -117 -38t-84.5 -94.5t-53.5 -121t-25 -118.5q-4 -40 -2.5 -83t15.5 -78.5t43 -58.5t79 -23q53 0 104 24t87 66q7 8 16 19.5t11 21.5q1 7 -6 16t-14 9q-3 0 -6 -4q-24 -32 -56.5 -54.5t-72.5 -22.5q-29 0 -47.5 10.5t-29 28.5 t-14 41t-2.5 48q57 0 109 18t93.5 52t68.5 81.5t33 106.5zM406 427q-4 -37 -19.5 -71.5t-41 -61t-59 -42.5t-72.5 -16q-19 0 -22.5 12t-1.5 27q2 18 6 46t11 59t17.5 62t25.5 56t35.5 40.5t46.5 15.5q24 0 39.5 -12.5t24 -31t10.5 -41t0 -42.5zM514 704q1 6 -5.5 23.5 t-16.5 41t-22 51t-23.5 53t-20 46.5t-11.5 33q-3 3 -5 3h-32q-6 -8 -22.5 -29t-37.5 -48.5t-43.5 -57.5t-41.5 -56t-31.5 -44.5t-12.5 -23.5q0 -7 8 -7h14q13 0 18 3.5t17 19.5l116 154h17l50 -149q5 -14 9 -21t20 -7h17q13 0 25.5 2.5t13.5 12.5z" />
<glyph unicode="&#xeb;" horiz-adv-x="488" d="M493 447q8 68 -25.5 111t-103.5 43q-67 0 -117 -38t-84.5 -94.5t-53.5 -121t-25 -118.5q-4 -40 -2.5 -83t15.5 -78.5t43 -58.5t79 -23q53 0 104 24t87 66q7 8 16 19.5t11 21.5q1 7 -6 16t-14 9q-3 0 -6 -4q-24 -32 -56.5 -54.5t-72.5 -22.5q-29 0 -47.5 10.5t-29 28.5 t-14 41t-2.5 48q57 0 109 18t93.5 52t68.5 81.5t33 106.5zM406 427q-4 -37 -19.5 -71.5t-41 -61t-59 -42.5t-72.5 -16q-19 0 -22.5 12t-1.5 27q2 18 6 46t11 59t17.5 62t25.5 56t35.5 40.5t46.5 15.5q24 0 39.5 -12.5t24 -31t10.5 -41t0 -42.5zM482 867q1 10 0.5 23 t-4.5 24.5t-12 19t-21 7.5t-22.5 -8t-16 -19.5t-10 -24t-4.5 -22.5q-1 -11 -0.5 -23t4.5 -22t11.5 -16.5t21.5 -6.5q13 0 23 6.5t16 16.5t9.5 22t4.5 23zM317 867q1 10 0.5 23t-4 24t-11 19t-20.5 8t-22.5 -7.5t-16 -19t-10 -24.5t-4.5 -23q-1 -11 -0.5 -22.5t4 -22t11 -17 t21.5 -6.5q13 0 22.5 6.5t15.5 16.5t9.5 22t4.5 23z" />
<glyph unicode="&#xec;" horiz-adv-x="307" d="M286 10l-2 35q-23 -5 -43 -5q-19 0 -27.5 15.5t-11.5 36.5t-1.5 43.5t2.5 36.5l1 4q5 45 7 90t7 90q5 58 8 115.5t2 115.5h-117l-4 -36h66q-23 -112 -43.5 -223t-32.5 -223q-2 -20 -2 -41q0 -20 5.5 -36.5t19 -27t39.5 -10.5q32 0 63.5 7.5t63.5 12.5zM282 685 q0 3 -6.5 9.5t-14 19t-12.5 32t-2 49.5q2 26 8 50.5t8 50.5q2 22 -5.5 40.5t-33.5 18.5q-14 0 -24 -6.5t-16.5 -16.5t-10 -22.5t-4.5 -23.5q-5 -44 10 -88t37 -79q3 -4 9 -13t13 -18t14.5 -16t12.5 -7q6 0 11 7.5t6 12.5z" />
<glyph unicode="&#xed;" horiz-adv-x="307" d="M286 10l-2 35q-23 -5 -43 -5q-19 0 -27.5 15.5t-11.5 36.5t-1.5 43.5t2.5 36.5l1 4q5 45 7 90t7 90q5 58 8 115.5t2 115.5h-117l-4 -36h66q-23 -112 -43.5 -223t-32.5 -223q-2 -20 -2 -41q0 -20 5.5 -36.5t19 -27t39.5 -10.5q32 0 63.5 7.5t63.5 12.5zM299 886 q1 11 0 23.5t-5 22.5t-12.5 16.5t-22.5 6.5q-26 0 -37.5 -19t-13.5 -41q-2 -25 -2 -50q0 -24 -2 -49q-2 -17 -4.5 -30t-8 -23.5t-13.5 -21t-21 -22.5h-1q-9 -5 -11 -14q-1 -6 2.5 -13t10.5 -7q2 0 5.5 2.5t4.5 3.5h1q22 17 44 42.5t40 55t30.5 60t15.5 57.5z" />
<glyph unicode="&#xee;" horiz-adv-x="307" d="M286 10l-2 35q-23 -5 -43 -5q-13 0 -20.5 5t-11.5 13.5t-5.5 18.5t-1.5 21q-2 45 1.5 89.5t7.5 89.5q8 77 13.5 155.5t3.5 154.5h-117l-4 -36h66q-23 -112 -43.5 -223t-32.5 -223q-2 -20 -2 -41q0 -20 5.5 -36.5t19 -27t39.5 -10.5q32 0 63.5 7.5t63.5 12.5zM358 704 q1 8 -11 40.5t-28 71.5t-31 74l-21 49l-5 10t-8 6h-30q-6 -5 -22 -25.5t-37 -48t-44 -58.5t-42.5 -58t-32.5 -46.5t-13 -22.5q0 -7 8 -7h17q11 0 15.5 3.5t16.5 19.5l116 154h18l50 -149q5 -12 8.5 -20t18.5 -8h17q13 0 26 2.5t14 12.5z" />
<glyph unicode="&#xef;" horiz-adv-x="305" d="M285 10l-2 35q-11 -2 -22 -3.5t-22 -1.5q-18 0 -26.5 15.5t-11.5 36.5t-1.5 43t2.5 36l1 4q4 39 6 77.5t4 76.5q2 35 5 70t5 70q1 29 1.5 58.5t2.5 59.5h-117l-4 -36h65q-21 -103 -40.5 -205t-30.5 -205l-3 -34q-2 -20 -2.5 -41t5 -38t19 -27.5t38.5 -10.5q32 0 64 7.5 t64 12.5zM355 870q1 10 0.5 23t-4.5 24t-12 19t-21 8t-22.5 -8t-16 -19.5t-10 -24t-4.5 -22.5q-1 -11 -0.5 -23t4 -22.5t11.5 -17t22 -6.5q13 0 23 6.5t16 17t9.5 22.5t4.5 23zM190 870q1 10 0.5 23t-4.5 24t-11.5 19t-20.5 8t-22.5 -8t-16 -19t-10 -24t-4.5 -23 q-1 -11 -0.5 -23t4 -22.5t11.5 -17t22 -6.5t23.5 6.5t15.5 17t9 22.5t4 23z" />
<glyph unicode="&#xf0;" horiz-adv-x="699" d="M656 823l-24 61l-110 -51q-35 44 -82 74t-107 43q-5 1 -12 2t-15 1q-12 0 -23.5 -4t-14.5 -16q-2 -5 -2.5 -10.5t-1.5 -10.5q-1 -8 -1 -17q0 -8 -1 -16q-1 -1 -2 -1h-1l0.5 -0.5t2.5 -0.5q18 5 32.5 7.5t29.5 2.5q8 0 16.5 -1t17.5 -3q35 -7 62 -26.5t48 -48.5l-103 -47 l24 -61l111 51q16 -36 27 -77t17 -81t8 -77t1 -66q-38 38 -73.5 61t-83.5 31q-11 2 -20.5 3t-20.5 1q-44 0 -83 -15.5t-71.5 -43t-56 -65.5t-35.5 -83q-4 -14 -6 -27.5t-4 -27.5q-5 -51 4.5 -100t33.5 -89.5t62.5 -68.5t91.5 -37q11 -2 21 -3t21 -1q53 0 99.5 21.5 t83.5 57.5t63.5 83t40.5 99q12 47 18 100q5 52 3.5 108.5t-10.5 113t-27 110t-45 100.5zM185 248q7 37 23.5 79t42 77.5t60 59t78.5 23.5h10q37 -2 62 -21t39 -47.5t18 -63t1 -67.5q-1 -5 -2 -9.5t-1 -9.5q-6 -37 -23.5 -78.5t-44 -76t-62 -57t-78.5 -22.5h-9 q-37 3 -61.5 21t-38 45t-17 60.5t-0.5 66.5l2 10t1 10z" />
<glyph unicode="&#xf1;" horiz-adv-x="625" d="M605 13l-1 35q-23 -6 -46 -6q-18 0 -26 17.5t-10.5 40.5t-1 46.5t3.5 35.5l22 213q3 32 4 68t-6.5 67t-27 51t-57.5 20q-36 0 -72 -22.5t-68 -58.5t-58.5 -80.5t-44.5 -89.5q2 39 3.5 72t3 61.5t2.5 53.5t3 50h-117l-4 -36h66q-18 -125 -39.5 -248t-34.5 -248 q-1 -6 -1 -16q0 -9 1.5 -18t6 -15t13.5 -6h16q14 0 27.5 2t20.5 13q6 10 8.5 22.5t4.5 23.5q6 53 13 101.5t19.5 94.5t33 91t52.5 93q9 13 22.5 31t29.5 34.5t33.5 28t34.5 11.5q15 0 23 -6.5t11.5 -17t3 -23t-1.5 -24.5q-8 -84 -24.5 -165.5t-24.5 -165.5l-3 -20 q-2 -21 -2.5 -44.5t4.5 -43t18.5 -32t39.5 -12.5q32 0 63.5 8t63.5 13zM608 914l-23 21q-14 -17 -34 -26t-40 -9q-22 0 -42.5 7t-40 15t-39.5 15t-42 7q-21 0 -39 -10t-34 -25t-30 -32t-26 -32h-1l24 -20q17 18 32 29t41 11q14 0 30.5 -6.5t34.5 -14t37 -13.5t40 -6 q23 0 43.5 7.5t39.5 20.5t36 28.5t33 32.5z" />
<glyph unicode="&#xf2;" horiz-adv-x="595" d="M571 357q5 46 -0.5 91t-24.5 80t-53.5 56.5t-88.5 21.5q-70 0 -126 -36t-97 -91t-65.5 -121t-30.5 -126q-5 -47 0 -92t24 -80.5t54 -57t89 -21.5q72 0 128 35.5t96.5 91t64.5 121.5t30 128zM471 284q-3 -33 -12.5 -73t-28 -74.5t-47.5 -58t-72 -23.5q-46 0 -72 25.5 t-38 63t-13 80.5t3 78q4 36 13.5 78.5t29 79t50.5 61t78 24.5q44 0 68 -28.5t34 -69.5t10 -86q0 -44 -3 -77zM430 685q0 3 -6.5 10t-14.5 19.5t-13 32t-2 48.5q2 26 8 50.5t8 50.5q2 23 -5.5 41t-33.5 18q-14 0 -23.5 -6.5t-16 -16.5t-10 -22.5t-4.5 -23.5q-5 -44 10 -88 t37 -79q3 -5 9 -14t13 -18t14.5 -15.5t12.5 -6.5q6 0 11 7.5t6 12.5z" />
<glyph unicode="&#xf3;" horiz-adv-x="595" d="M571 357q5 46 -0.5 91t-24.5 80t-53.5 56.5t-88.5 21.5q-70 0 -126 -36t-97 -91t-65.5 -121t-30.5 -126q-5 -47 0 -92t24 -80.5t54 -57t89 -21.5q72 0 128 35.5t96.5 91t64.5 121.5t30 128zM471 284q-3 -33 -12.5 -73t-28 -74.5t-47.5 -58t-72 -23.5q-46 0 -72 25.5 t-38 63t-13 80.5t3 78q4 36 13.5 78.5t29 79t50.5 61t78 24.5q44 0 68 -28.5t34 -69.5t10 -86q0 -44 -3 -77zM468 886q1 11 0 23.5t-5.5 22.5t-13 16.5t-21.5 6.5q-26 0 -37.5 -19t-13.5 -41q-2 -25 -2 -50q0 -24 -2 -49q-4 -32 -13 -54t-35 -43h-1q-9 -5 -11 -14 q-1 -6 2.5 -13t10.5 -7q2 0 6 2.5t5 3.5h1q22 17 44 42.5t40 55t30.5 60t15.5 57.5z" />
<glyph unicode="&#xf4;" horiz-adv-x="595" d="M571 357q5 46 -0.5 91t-24.5 80t-53.5 56.5t-88.5 21.5q-70 0 -126 -36t-97 -91t-65.5 -121t-30.5 -126q-5 -47 0 -92t24 -80.5t54 -57t89 -21.5q72 0 128 35.5t96.5 91t64.5 121.5t30 128zM471 284q-3 -33 -12.5 -73t-28 -74.5t-47.5 -58t-72 -23.5q-46 0 -72 25.5 t-38 63t-13 80.5t3 78q4 36 13.5 78.5t29 79t50.5 61t78 24.5q44 0 68 -28.5t34 -69.5t10 -86q0 -44 -3 -77zM562 706q0 4 -5 21t-13.5 40t-19.5 49.5t-20.5 50.5t-17.5 42t-12 25q-2 5 -5 10.5t-5 11.5q-2 0 -2.5 0.5t-2.5 0.5h-31q-6 -7 -22 -28t-37 -48.5t-44 -58 t-42.5 -57t-32 -45t-12.5 -21.5q-2 -8 6 -8h19q10 0 14.5 3.5t16.5 20.5l116 154h16q4 -12 11.5 -36.5t16 -50.5t16.5 -48t13 -30h1q2 -8 8.5 -10.5t14.5 -2.5h17q13 0 25 2.5t13 12.5z" />
<glyph unicode="&#xf5;" horiz-adv-x="595" d="M571 357q5 46 -0.5 91t-24.5 80t-53.5 56.5t-88.5 21.5q-70 0 -126 -36t-97 -91t-65.5 -121t-30.5 -126q-5 -47 0 -92t24 -80.5t54 -57t89 -21.5q72 0 128 35.5t96.5 91t64.5 121.5t30 128zM471 284q-3 -33 -12.5 -73t-28 -74.5t-47.5 -58t-72 -23.5q-46 0 -72 25.5 t-38 63t-13 80.5t3 78q4 36 13.5 78.5t29 79t50.5 61t78 24.5q44 0 68 -28.5t34 -69.5t10 -86q0 -44 -3 -77zM611 914l-23 22q-19 -17 -34 -26.5t-41 -9.5q-23 0 -43 7t-40 15t-40 15t-42 7q-17 0 -35.5 -10.5t-36 -25.5t-32.5 -32t-23 -31h-1l22 -19q17 20 33 29.5t41 9.5 q13 0 29.5 -6.5t34.5 -14t37.5 -13.5t39.5 -6q24 0 44.5 7.5t39.5 20.5t36 28.5t34 32.5z" />
<glyph unicode="&#xf6;" horiz-adv-x="595" d="M571 357q5 46 -0.5 91t-24.5 80t-53.5 56.5t-88.5 21.5q-70 0 -126 -36t-97 -91t-65.5 -121t-30.5 -126q-5 -47 0 -92t24 -80.5t54 -57t89 -21.5q72 0 128 35.5t96.5 91t64.5 121.5t30 128zM471 284q-3 -33 -12.5 -73t-28 -74.5t-47.5 -58t-72 -23.5q-45 0 -70.5 24.5 t-38 61.5t-14 78.5t1.5 76.5q4 36 13.5 79.5t28.5 81t50.5 63t79.5 25.5q44 0 68 -28.5t34 -69.5t10 -86q0 -44 -3 -77zM525 867q1 10 0.5 23t-4.5 24t-12 19t-21 8t-22.5 -8t-16 -19.5t-10 -24t-4.5 -22.5q-1 -11 -0.5 -23t4.5 -22t11.5 -16.5t21.5 -6.5q13 0 23 6.5 t16 16.5t9.5 22t4.5 23zM360 867q1 10 0.5 23t-4.5 24t-11.5 19t-20.5 8t-22.5 -8t-16 -19t-10 -24t-4.5 -23q-1 -11 -0.5 -23t4.5 -22t11.5 -16.5t21.5 -6.5q13 0 22.5 6.5t15.5 16.5t9.5 22t4.5 23z" />
<glyph unicode="&#xf7;" horiz-adv-x="751" d="M720 252l8 79h-629l-8 -79h629zM427 76q1 12 1 26q0 15 -3.5 28t-12.5 22t-24 9q-16 0 -27 -9.5t-18 -23t-10.5 -29.5t-4.5 -28q-2 -12 -1.5 -26.5t4.5 -27t13 -20.5t25 -8q15 0 25.5 9t17.5 22.5t10.5 28.5t4.5 27zM475 511q1 11 1 26t-4 28.5t-12 22.5t-23 9 q-16 0 -27 -9.5t-18 -23.5t-11 -30t-5 -28q-1 -13 -1 -28q0 -14 4 -26t13 -20t26 -8q15 0 25.5 9.5t17 23t10 28.5t4.5 26z" />
<glyph unicode="&#xf8;" horiz-adv-x="596" d="M573 365q5 53 -2.5 97.5t-40.5 84.5l72 99l-34 25l-65 -91h-6q-23 12 -43.5 18.5t-48.5 6.5q-71 0 -128 -36.5t-98 -92.5t-66 -123t-31 -128q-5 -53 1.5 -94.5t34.5 -84.5l-76 -105l33 -24l68 93h6q25 -14 46.5 -21t51.5 -7q73 0 130.5 36t99 92.5t65.5 124t31 130.5z M472 300q-4 -35 -13.5 -77.5t-28.5 -79.5t-49.5 -62.5t-75.5 -25.5q-32 0 -53.5 13.5t-41.5 35.5l248 346h9q7 -38 8 -74.5t-3 -75.5zM448 504l-249 -348h-9q-7 32 -6 66t5 68q4 36 14 80t30 83t51.5 65.5t78.5 26.5q54 0 85 -41z" />
<glyph unicode="&#xf9;" horiz-adv-x="641" d="M619 48l-22 -4t-22 -2q-27 0 -33 18t-6 40q-1 51 2.5 101t8.5 101q8 72 17 142.5t17 142.5h-24q-19 0 -30.5 -11.5t-19 -28t-11 -35t-5.5 -31.5q-5 -28 -12.5 -69.5t-19.5 -88t-29.5 -93.5t-40.5 -84.5t-53.5 -61t-69.5 -23.5q-29 0 -43 14.5t-19.5 36t-4 46.5t3.5 46 q5 42 8 83.5t6 83.5q4 54 5 108t6 108h-117l-4 -36h66q-20 -93 -38 -184.5t-28 -185.5q-3 -33 -2.5 -68t11 -63t34 -46t65.5 -18q32 0 66.5 15.5t66 41t56.5 59.5t38 72l-6 -59q-2 -20 -3 -41.5t4 -39.5t18 -30t39 -12q32 0 63 8t63 13zM426 685q0 3 -6.5 9.5t-14.5 19 t-13 32t-2 49.5q2 26 8.5 50.5t8.5 50.5q2 22 -5.5 40.5t-33.5 18.5q-14 0 -24 -6.5t-16.5 -16.5t-10 -22.5t-4.5 -23.5q-5 -44 10 -88t37 -79q3 -4 9 -13t13 -18t14.5 -16t12.5 -7q6 0 11 7.5t6 12.5zM619 48v1h-1v-1h1z" />
<glyph unicode="&#xfa;" horiz-adv-x="641" d="M619 48l-22 -4t-22 -2q-27 0 -33 18t-6 40q-1 51 2.5 101t8.5 101q8 72 17 142.5t17 142.5h-24q-19 0 -30.5 -11.5t-19 -28t-11 -35t-5.5 -31.5q-5 -28 -12.5 -69.5t-19.5 -88t-29.5 -93.5t-40.5 -84.5t-53.5 -61t-69.5 -23.5q-29 0 -43 14.5t-19.5 36t-4 46.5t3.5 46 q5 42 8 83.5t6 83.5q4 54 5 108t6 108h-117l-4 -36h66q-20 -93 -38 -184.5t-28 -185.5q-3 -33 -2.5 -68t11 -63t34 -46t65.5 -18q32 0 66.5 15.5t66 41t56.5 59.5t38 72l-6 -59q-2 -20 -3 -41.5t4 -39.5t18 -30t39 -12q32 0 63 8t63 13zM483 886q1 11 0 23.5t-5.5 22.5 t-13 16.5t-21.5 6.5q-26 0 -37.5 -19t-13.5 -41q-2 -25 -2 -50q0 -24 -2 -49q-4 -32 -13 -54t-35 -43h-1q-9 -5 -11 -14q-1 -6 2.5 -13t10.5 -7q2 0 6 2.5t5 3.5h1q22 17 44 42.5t40 55t30.5 60t15.5 57.5zM619 48v1h-1v-1h1z" />
<glyph unicode="&#xfb;" horiz-adv-x="641" d="M619 48v1h-1v-1l-22 -4t-21 -2q-27 0 -33 18t-6 40q-1 51 2.5 101t8.5 101q8 72 17 142.5t17 142.5h-24q-19 0 -30.5 -11.5t-19 -28t-11 -35t-5.5 -31.5q-5 -28 -12.5 -69.5t-19.5 -88t-29.5 -93.5t-40.5 -84.5t-53.5 -61t-69.5 -23.5q-29 0 -43 14.5t-19.5 36t-4 46.5 t3.5 46q5 42 8 83.5t6 83.5q4 54 5 108t6 108h-117l-4 -36h66q-20 -93 -38 -184.5t-28 -185.5q-3 -33 -2.5 -68t11 -63t34 -46t65.5 -18q32 0 66.5 15.5t66 41t56.5 59.5t38 72l-6 -59q-2 -20 -3 -41.5t4 -39.5t18 -30t39 -12q32 0 63 8t63 13zM544 704q0 3 -6 20t-15 41.5 t-20 52.5t-21.5 53.5t-18.5 44.5t-11 25q-2 3 -4.5 8.5t-7.5 5.5h-32q-6 -8 -22.5 -29t-37.5 -48.5t-43.5 -57.5t-41.5 -56t-31 -44.5t-13 -23.5q0 -7 8 -7h17q11 0 16 3.5t16 19.5l116 154h17l50 -149q5 -14 9 -21t20 -7h17q13 0 25.5 2.5t13.5 12.5z" />
<glyph unicode="&#xfc;" horiz-adv-x="641" d="M619 48l-22 -4t-22 -2q-27 0 -33 18t-6 40q-1 51 2.5 101t8.5 101q8 72 17 142.5t17 142.5h-24q-19 0 -30.5 -11.5t-19 -28t-11 -35t-5.5 -31.5q-5 -28 -12.5 -69.5t-19.5 -88t-29.5 -93.5t-40.5 -84.5t-53.5 -61t-69.5 -23.5q-29 0 -43 14.5t-19.5 36t-4 46.5t3.5 46 q5 42 8 83.5t6 83.5q4 54 5 108t6 108h-117l-4 -36h66q-20 -93 -38 -184.5t-28 -185.5q-3 -33 -2.5 -68t11 -63t34 -46t65.5 -18q32 0 66.5 15.5t66 41t56.5 59.5t38 72l-6 -59q-2 -20 -3 -41.5t4 -39.5t18 -30t39 -12q32 0 63 8t63 13zM517 867q1 10 0.5 23t-4.5 24.5 t-12 19t-21 7.5t-22.5 -8t-16 -19.5t-10 -24t-4.5 -22.5q-1 -11 -0.5 -23t4.5 -22t11.5 -16.5t21.5 -6.5q13 0 23 6.5t16 16.5t9.5 22t4.5 23zM352 867q1 10 0.5 23t-4 24t-11 19t-20.5 8t-22.5 -7.5t-16 -19t-10 -24.5t-4.5 -23q-1 -11 -0.5 -22.5t4 -22t11 -17t21.5 -6.5 q13 0 22.5 6.5t15.5 16.5t9.5 22t4.5 23zM619 48v1h-1v-1h1z" />
<glyph unicode="&#xfd;" horiz-adv-x="612" d="M525 -35q11 103 15 205t15 205q5 54 12.5 106t13.5 106h-24q-19 0 -30.5 -11.5t-19 -28t-11 -35t-5.5 -31.5q-5 -28 -12.5 -69.5t-19.5 -88t-29 -93.5t-40.5 -84.5t-53.5 -61t-69 -23.5q-30 0 -44 15.5t-18.5 38t-3.5 48.5t3 47q9 95 13.5 188.5t10.5 188.5h-117l-4 -36 h66q-20 -93 -38 -184.5t-28 -185.5q-3 -33 -2.5 -68t11 -63t34 -46t65.5 -18q33 0 69 15t67.5 40.5t54.5 60.5t31 75l3 -48q3 -64 1.5 -128t-8.5 -129q-10 -93 -60 -149t-148 -56q-44 0 -67.5 14t-36.5 53q-1 2 -2.5 7t-3.5 9.5t-4.5 8t-6.5 3.5q-12 0 -21 -8.5t-16 -20 t-10.5 -24.5t-4.5 -22q-3 -24 9 -39t31 -23.5t41.5 -11.5t40.5 -3q34 0 68 5.5t66.5 17t62.5 30t56 44.5q27 27 44.5 58t28 63.5t16 67t9.5 69.5zM465 886q1 11 0 23.5t-5.5 22.5t-13 16.5t-22.5 6.5q-26 0 -37.5 -19t-13.5 -41q-2 -25 -1.5 -49.5t-1.5 -49.5 q-4 -32 -13 -54t-35 -43h-1q-9 -5 -11 -14q-1 -6 2.5 -13t10.5 -7q2 0 6 2.5t5 3.5h1q22 17 44 42.5t40 55t30.5 60t15.5 57.5z" />
<glyph unicode="&#xfe;" horiz-adv-x="580" d="M550 305q6 60 -3.5 113t-36.5 92.5t-72.5 62.5t-110.5 23q-12 0 -25.5 -2t-30.5 -2l39 353q-23 -2 -37 -7.5t-22.5 -15t-13 -24.5t-7.5 -37q-2 -17 -6.5 -46.5t-10.5 -68.5t-12 -86.5t-12 -100.5q-44 -25 -77 -53t-68 -64l25 -28q24 26 52.5 47.5t65.5 40.5 q-17 -106 -32 -212t-26 -213q-12 -113 -24.5 -225t-24.5 -225q-1 -5 -1 -13q0 -9 8 -9q12 0 19.5 3.5t12.5 9.5t9.5 14.5t9.5 18.5q18 33 29 61t17.5 55t10.5 56t8 64q2 26 5 52t5 52h4q10 0 26 -3t27 -3q63 0 112.5 29.5t85 75.5t56 103t26.5 112zM448 266 q-3 -35 -11.5 -75.5t-26 -75t-47 -58t-74.5 -23.5q-19 0 -36.5 5t-33.5 16l51 487h4q8 0 17.5 1.5t18.5 1.5q49 0 78.5 -29.5t44 -72t17 -91t-1.5 -86.5z" />
<glyph unicode="&#xff;" horiz-adv-x="612" d="M525 -35q11 103 15 205t15 205q5 54 12.5 106t13.5 106h-24q-19 0 -30.5 -11.5t-19 -28t-11 -35t-5.5 -31.5q-5 -28 -12.5 -69.5t-19.5 -88t-29 -93.5t-40.5 -84.5t-53.5 -61t-69 -23.5q-30 0 -44 15.5t-18.5 38t-3.5 48.5t3 47q9 95 13.5 188.5t10.5 188.5h-117l-4 -36 h66q-20 -93 -38 -184.5t-28 -185.5q-3 -33 -2.5 -68t11 -63t34 -46t65.5 -18q33 0 69 15t67.5 40.5t54.5 60.5t31 75l3 -48q3 -64 1.5 -128t-8.5 -129q-10 -93 -60 -149t-148 -56q-44 0 -67.5 14t-36.5 53q-1 2 -2.5 7t-3.5 9.5t-4.5 8t-6.5 3.5q-12 0 -21 -8.5t-16 -20 t-10.5 -24.5t-4.5 -22q-3 -24 9 -39t31 -23.5t41.5 -11.5t40.5 -3q34 0 68 5.5t66.5 17t62.5 30t56 44.5q27 27 44.5 58t28 63.5t16 67t9.5 69.5zM520 867q1 10 0.5 23t-4.5 24t-12 19t-21 8t-22.5 -8t-16 -19.5t-10 -24t-4.5 -22.5q-1 -11 -0.5 -23t4.5 -22t11.5 -16.5 t21.5 -6.5q13 0 23 6.5t16 16.5t9.5 22t4.5 23zM355 867q1 10 0.5 23t-4.5 24t-11.5 19t-20.5 8t-22.5 -8t-16 -19t-10 -24t-4.5 -23q-1 -11 -0.5 -23t4.5 -22t11.5 -16.5t21.5 -6.5q13 0 22.5 6.5t15.5 16.5t9.5 22t4.5 23z" />
<glyph unicode="&#x152;" horiz-adv-x="1075" d="M1014 149q0 1 0.5 6.5t0.5 11.5t-1 10.5t-4 4.5q-25 0 -37.5 -9.5t-20 -24.5t-13 -31.5t-16.5 -31.5t-31.5 -24.5t-56.5 -9.5q-6 0 -16 -0.5t-22 -0.5q-14 0 -29.5 1t-29.5 3.5t-24 7t-14 12.5t-4 17q0 10 1 20l1 9q6 57 11 112t10 112l3 23h181q16 0 24.5 5.5t10.5 22.5 l3 32h-213q5 69 9.5 136.5t10.5 136.5h2q5 0 18 1t27.5 1.5t27.5 1.5t19 1h61q17 0 28.5 -2t19 -7.5t12 -16t6.5 -28.5q1 -8 0.5 -19.5t1.5 -22t8 -18t18 -7.5h9q8 0 16 1.5t8 6.5l16 151q1 8 -0.5 10.5t-12.5 2.5l-348 1l-12 -94l-7 18q-32 43 -81 66.5t-106 23.5 q-54 0 -101.5 -19t-88 -52t-73 -76t-56.5 -91.5t-38.5 -99t-19.5 -97.5q-8 -71 2.5 -135t42 -113.5t84.5 -78.5t131 -29q37 0 67.5 8.5t57 24.5t51.5 37t52 47l11 18q-2 -24 -4.5 -57.5t-2.5 -57.5q96 0 162.5 0.5t109.5 1t66 1.5t34 2t13 2.5t3 3.5q8 32 18 68.5t14 69.5z M629 354q-5 -49 -19.5 -104t-42.5 -102t-70.5 -78t-103.5 -31q-44 0 -76.5 17t-54.5 46t-35.5 66t-19.5 77.5t-6.5 81t3.5 75.5q5 49 19.5 104t42 101.5t70 77.5t103.5 31q45 0 78 -17t55 -45.5t35 -65.5t19 -77t6.5 -80.5t-3.5 -76.5z" />
<glyph unicode="&#x153;" horiz-adv-x="879" d="M868 447q8 67 -24.5 110.5t-102.5 43.5q-54 0 -98 -26.5t-81 -67.5q-15 22 -31 40t-34 31t-39.5 20t-48.5 7q-71 0 -128 -37t-99 -93.5t-67 -124t-31 -128.5q-5 -46 1 -89t25 -76t53.5 -53t86.5 -20q67 0 115 25t94 78q13 -24 25 -43t27 -31.5t35 -19.5t49 -7 q53 0 103.5 23.5t85.5 65.5q0 1 4.5 5.5t9.5 10.5t9.5 13t5.5 13q1 7 -6.5 16t-14.5 9q-5 0 -6 -4q-20 -33 -56 -55t-73 -22q-29 0 -47.5 10.5t-28.5 28.5t-13.5 41t-2.5 48q57 0 109 18t93 51.5t68 81.5t33 107zM475 300q-4 -34 -13.5 -76.5t-28.5 -80t-49 -63t-75 -25.5 t-70 24.5t-36.5 61t-12.5 78t2 76.5q4 37 14 80.5t30.5 81t52 63t79.5 25.5q43 0 66 -26.5t33.5 -64.5t10.5 -80t-3 -74zM781 427q-4 -37 -19.5 -71.5t-41 -61t-59 -42.5t-72.5 -16q-17 0 -20.5 10.5t-1.5 24.5q2 19 5.5 47t10 59.5t17 63t25.5 56.5t35.5 41t47.5 16 q24 0 39.5 -12.5t23.5 -31t10 -41t0 -42.5z" />
<glyph unicode="&#x178;" horiz-adv-x="625" d="M704 716l5 40h-183l-5 -40h18q17 0 30.5 -5t11.5 -25q-1 -10 -14 -32.5t-32 -52.5t-42.5 -63.5t-45 -63.5t-39.5 -53.5t-27 -33.5l-11 -12q-37 97 -81 196t-99 185h-106l-5 -40h47q30 -105 69.5 -204.5t86.5 -196.5h1q-3 -29 -8 -58t-8 -58q-4 -40 -7 -79.5t-6 -79.5h-69 l-4 -40h241l4 40h-68q4 37 9 73.5t9 73.5q4 32 5.5 64t4.5 64h1l280 401h37zM530 911q1 9 0 20.5t-4 21t-10 16.5t-18 7t-19.5 -7t-13.5 -16.5t-8 -20.5t-4 -20t-1 -20t2.5 -20t9.5 -15t19 -6t20.5 5.5t14 14.5t8.5 19.5t4 20.5zM340 912q1 8 0.5 19t-3.5 21t-9.5 17 t-17.5 7q-12 0 -20.5 -6.5t-14 -16.5t-8.5 -21t-4 -20t-0.5 -19.5t3.5 -20t9.5 -15.5t18.5 -6t20.5 6t13.5 15t8 19.5t4 20.5z" />
<glyph unicode="&#x2c6;" horiz-adv-x="704" d="M558 854q0 4 -5.5 20t-12.5 34.5t-14 35t-10 23.5q-2 3 -8.5 20t-14.5 36.5t-15.5 35t-10.5 15.5h-13t-13 -1q-5 -5 -19.5 -23t-33 -42t-38.5 -51t-37 -50.5t-28.5 -40.5t-11.5 -20q-1 -6 6 -6h6q8 0 12.5 0.5t8 2.5t6.5 6l9 12l103 134h16l45 -130q3 -8 4.5 -13t4 -8 t7 -4t12.5 -1h8q11 0 23 2t14 13z" />
<glyph unicode="&#x2dc;" horiz-adv-x="704" d="M586 779l-20 19q-17 -11 -30 -21t-35 -10q-20 0 -37.5 6t-35 13t-35.5 13t-37 6q-17 0 -33 -9t-30.5 -22.5t-27 -28.5l-22.5 -27h-1l21 -16q15 16 28.5 24.5t35.5 8.5q17 0 32 -5t30 -11.5t30 -11.5t32 -5q21 0 39.5 6.5t35 17.5t31.5 24.5t29 28.5z" />
<glyph unicode="&#x2000;" horiz-adv-x="562" />
<glyph unicode="&#x2001;" horiz-adv-x="1124" />
<glyph unicode="&#x2002;" horiz-adv-x="562" />
<glyph unicode="&#x2003;" horiz-adv-x="1124" />
<glyph unicode="&#x2004;" horiz-adv-x="374" />
<glyph unicode="&#x2005;" horiz-adv-x="281" />
<glyph unicode="&#x2006;" horiz-adv-x="187" />
<glyph unicode="&#x2007;" horiz-adv-x="187" />
<glyph unicode="&#x2008;" horiz-adv-x="140" />
<glyph unicode="&#x2009;" horiz-adv-x="224" />
<glyph unicode="&#x200a;" horiz-adv-x="62" />
<glyph unicode="&#x2010;" horiz-adv-x="449" d="M389 271l7 68h-282l-7 -68h282z" />
<glyph unicode="&#x2011;" horiz-adv-x="449" d="M389 271l7 68h-282l-7 -68h282z" />
<glyph unicode="&#x2012;" horiz-adv-x="449" d="M389 271l7 68h-282l-7 -68h282z" />
<glyph unicode="&#x2013;" horiz-adv-x="479" d="M389 271l7 68h-282l-7 -68h282z" />
<glyph unicode="&#x2014;" horiz-adv-x="762" d="M673 271l7 68h-566l-7 -68h566z" />
<glyph unicode="&#x2018;" horiz-adv-x="196" d="M289 935q1 5 0 13t-8 8t-13.5 -4.5t-11.5 -9.5h-1q-28 -19 -54 -47.5t-47 -62t-35 -68.5t-17 -67q-1 -12 0 -25t6 -23.5t14 -17t24 -6.5t26 7t18.5 17.5t11.5 24t6 25.5q2 23 0 45.5t0 45.5q2 16 8 34.5t15 36.5t21 33.5t26 26.5q3 3 7 6t4 8z" />
<glyph unicode="&#x2019;" horiz-adv-x="227" d="M258 881q1 12 0 25.5t-5.5 24t-13.5 17.5t-24 7t-26 -7t-18.5 -17.5t-11.5 -23.5t-5 -25q-3 -23 -1 -45.5t0 -45.5q-4 -35 -23 -72t-48 -60v-1q0 -1 -1 0q-10 -7 -10 -16q-1 -5 1.5 -11.5t7.5 -6.5q6 0 14 4.5t13 8.5q28 19 54 47.5t46 61t33.5 67.5t17.5 68z" />
<glyph unicode="&#x201a;" horiz-adv-x="199" d="M174 82q1 12 0.5 25.5t-5 24t-14 17.5t-24.5 7q-14 0 -25 -7t-19 -18t-12.5 -24t-5.5 -25q-2 -23 0.5 -45.5t0.5 -45.5q-5 -43 -27.5 -76.5t-54.5 -72.5q-1 -5 1.5 -11.5t7.5 -6.5q3 0 10 4.5t11 6.5q29 16 55.5 45t48 63.5t35.5 71t17 67.5z" />
<glyph unicode="&#x201c;" horiz-adv-x="412" d="M504 937q1 4 -1 12t-7 8q-4 0 -11 -4.5t-11 -6.5h-1q-27 -16 -54 -45.5t-48.5 -64t-36 -71t-17.5 -66.5q-2 -13 -1 -26t5.5 -23.5t14 -17.5t24.5 -7t26 7t18.5 17.5t11.5 24t6 25.5q2 23 0 45t0 45q4 36 23 71t47 61l0.5 0.5t1.5 0.5q4 2 7 6t3 9zM289 935q1 5 0 13t-8 8 t-13.5 -4.5t-11.5 -9.5h-1q-28 -19 -54 -47.5t-47 -62t-35 -68.5t-17 -67q-1 -12 0 -25t6 -23.5t14 -17t24 -6.5t26 7t18.5 17.5t11.5 24t6 25.5q2 23 0 45.5t0 45.5q2 16 8 34.5t15 36.5t21 33.5t26 26.5q3 3 7 6t4 8z" />
<glyph unicode="&#x201d;" horiz-adv-x="412" d="M258 881q1 12 0 25.5t-5.5 24t-13.5 17.5t-24 7t-26 -7t-18.5 -17.5t-11.5 -23.5t-5 -25q-3 -23 -1 -45.5t0 -45.5q-4 -35 -23 -72t-48 -60v-1q0 -1 -1 0q-10 -7 -10 -16q-1 -5 1.5 -11.5t7.5 -6.5q6 0 14 4.5t13 8.5q28 19 54 47.5t46 61t33.5 67.5t17.5 68zM472 881 q1 12 0 25t-5.5 24t-13.5 18t-24 7q-14 0 -25 -7t-18.5 -17.5t-12 -23.5t-5.5 -25q-3 -23 -1 -46t0 -46q-3 -32 -16 -57.5t-27.5 -44.5t-26 -30t-11.5 -13q-1 -5 0 -13t8 -8q6 0 13.5 5t12.5 8q28 19 54 47.5t46.5 61t34 67.5t17.5 68z" />
<glyph unicode="&#x201e;" horiz-adv-x="412" d="M174 83q1 12 0.5 25.5t-5 24t-13.5 17.5t-24 7t-26 -7t-18.5 -17.5t-12 -23.5t-5.5 -25q-2 -23 0 -45.5t0 -45.5q-4 -35 -23 -72t-47 -60v-1q0 -1 -1 0q-9 -5 -11 -16q0 -5 2 -11.5t7 -6.5t13.5 4.5t13.5 8.5q28 19 53.5 47.5t46 61t34 67.5t16.5 68zM388 83q1 12 0.5 25 t-5 24t-13.5 18t-24 7q-14 0 -25 -7t-18.5 -17.5t-12.5 -23.5t-6 -25q-2 -23 0 -46t0 -46q-3 -32 -16.5 -57.5t-27.5 -44.5t-25.5 -30t-11.5 -13q-1 -5 -0.5 -13t7.5 -8q6 0 14 5t13 8q28 19 54 47.5t46.5 61t34 67.5t16.5 68z" />
<glyph unicode="&#x2022;" horiz-adv-x="419" d="M400 299q3 33 -5.5 64t-27.5 55t-47 38.5t-62 14.5q-35 0 -65.5 -14.5t-54.5 -38.5t-39 -55t-18 -64q-4 -33 4.5 -64.5t27.5 -55.5t46.5 -38.5t62.5 -14.5t65.5 14.5t54.5 38.5t39 55.5t19 64.5z" />
<glyph unicode="&#x2026;" horiz-adv-x="726" d="M632 74q1 11 0.5 26t-4 28t-12 22t-23.5 9q-16 0 -27 -9.5t-18 -23t-10.5 -29.5t-4.5 -28q-2 -13 -1.5 -27.5t4 -27t12.5 -20.5t26 -8q15 0 25.5 9.5t17.5 23t10.5 28.5t4.5 27zM201 74q1 11 0.5 26t-4 28t-12 22t-23.5 9q-16 0 -27 -9.5t-18 -23t-10.5 -29.5t-4.5 -28 q-2 -12 -1.5 -26.5t4.5 -27t13 -21t25 -8.5q15 0 25.5 9.5t17.5 23t10.5 28.5t4.5 27zM416 74q1 11 1 26t-4 28t-12 22t-23 9q-17 0 -28 -9.5t-17.5 -23t-10 -29.5t-4.5 -28q-2 -12 -1.5 -26.5t4 -27t12.5 -21t25 -8.5t26.5 9.5t17 23t10 28.5t4.5 27z" />
<glyph unicode="&#x202f;" horiz-adv-x="224" />
<glyph unicode="&#x2039;" horiz-adv-x="255" d="M367 562q0 3 -3 8.5t-8 11t-10 10t-8 4.5l-1 -1l-120 -126q-38 -39 -75 -79t-77 -76l-15 -15t-11 -17q-1 -5 9 -23t25 -43t33.5 -54.5t35.5 -56t30.5 -48t18.5 -31.5q8 -14 15 -20t25 -6h63q4 0 8.5 1t4.5 5q1 3 -1.5 7t-2.5 7q-51 69 -99 139t-90 145q8 8 30 29.5 t50 48.5t58 56.5t55.5 55.5t42.5 44.5t17 23.5z" />
<glyph unicode="&#x203a;" horiz-adv-x="255" d="M275 305q2 9 -1.5 14t-7.5 11l-11 18t-27.5 45.5t-35.5 59t-37 60t-31.5 49t-17.5 24.5q-8 1 -15 1h-14h-52q-2 0 -9.5 -0.5t-8.5 -5.5q0 -3 7 -15t18 -28t24 -35t25.5 -36t22 -30t13.5 -18q23 -32 43.5 -66t39.5 -69q-8 -9 -29.5 -30t-49 -48t-58 -56.5t-55.5 -55.5 t-42 -45t-17 -24q0 -4 3.5 -9.5t8.5 -11t10.5 -9t9.5 -4.5q64 72 131 142.5t137 137.5q6 6 15.5 16t10.5 18z" />
<glyph unicode="&#x205f;" horiz-adv-x="281" />
<glyph unicode="&#x20ac;" horiz-adv-x="639" d="M407 225l8 80h-214q0 23 1.5 45.5t3.5 44.5l1 12h232l8 79h-227q10 45 26.5 87.5t43.5 76.5t65.5 54.5t91.5 20.5q33 0 58 -4.5t42 -16t26 -32.5t12 -54q1 -8 1.5 -17t3.5 -17t8.5 -13t16.5 -5q3 0 7 -0.5t9 -0.5q6 0 10.5 2t5.5 9l14 141q2 11 1 17.5t-10 12.5 q-10 7 -32.5 12.5t-48 10t-49.5 7t-37 2.5q-68 0 -124 -24t-100 -64t-76.5 -93.5t-53.5 -111.5h-51l-8 -79h36q-5 -20 -7.5 -39t-4.5 -38l-3 -25h-63l-8 -80h71q4 -52 19 -96t44.5 -76t74.5 -50t109 -18q61 0 120 21t108 64q5 4 13 12t16.5 17t14.5 18t6 15q1 6 -6.5 15.5 t-14.5 9.5q-1 0 -1 -1h-1q-23 -21 -45 -40t-45.5 -33t-50 -22.5t-57.5 -8.5q-45 0 -78 13.5t-55.5 37t-36 55t-19.5 67.5h199z" />
<glyph unicode="&#x2122;" horiz-adv-x="1130" d="M1161 356l3 34h-8q-18 0 -27.5 2.5t-14.5 8.5t-6.5 16.5t-3.5 26.5q-2 15 -4.5 36t-5 46t-5.5 51l-6 52q-3 25 -5.5 48.5t-4.5 41.5t-3.5 29.5t-1.5 13.5q-1 11 -4.5 37.5t-7 55t-7 52t-4.5 27.5h-112l-3 -34h70q-26 -60 -53.5 -120t-53.5 -115q-31 -66 -48 -102.5 t-26 -54t-11.5 -21t-4.5 -3.5l-4 1l-1 1v2q-9 29 -15.5 58t-11.5 58q-4 17 -7 33t-6 33v1q-11 61 -24 125.5t-36 137.5h-97l-3 -34h55l-139 -445q-8 -28 -22 -46.5t-46 -18.5l-3 -34h145l3 34h-47l-4 6l119 420q16 -119 34 -234.5t46 -208.5q5 -17 12 -19.5t26 -2.5 q12 0 18 3t13 18l181 428l37 -404l-6 -6h-42l-3 -34h186zM175 359h180l4 34h-50l-5 5q8 46 16 93t13 94q6 60 9 115t5 112q1 19 1.5 38.5t2.5 39.5l39 5q27 0 54 -2.5t37 -16.5l1 -1q2 -5 3.5 -14.5t0.5 -17.5q2 -20 9.5 -36t30.5 -16q10 0 13 11q2 16 2 32t-1 33 q-1 16 -0.5 32t2.5 33q1 9 -6 9q-55 0 -107 -3q-27 -1 -53.5 -2t-52.5 -1q-23 0 -48 0.5t-51 1.5q-23 1 -47 1h-44q-6 0 -7.5 -3.5t-2.5 -8.5q-1 -8 -4.5 -20.5t-6.5 -20.5q-7 -23 -12.5 -44t-7.5 -41q-1 -6 4.5 -7t11.5 -1q21 0 29 12.5t10 28.5q2 10 5.5 21t11 20 t20.5 14.5t35 5.5l74 -6q-16 -77 -29 -153.5t-21 -154.5q-5 -45 -7.5 -91t-3.5 -91l-5 -5h-48z" />
<glyph unicode="&#xe000;" horiz-adv-x="585" d="M0 585h585v-585h-585v585z" />
</font>
</defs>
</svg>
