<?xml version="1.0" standalone="no"?>
<!DOCTYPE svg PUBLIC "-//W3C//DTD SVG 1.1//EN" "http://www.w3.org/Graphics/SVG/1.1/DTD/svg11.dtd" >
<svg xmlns="http://www.w3.org/2000/svg">
<metadata></metadata>
<defs>
<font id="liquidismregular" horiz-adv-x="570" >
<font-face units-per-em="1000" ascent="800" descent="-200" />
<missing-glyph horiz-adv-x="308" />
<glyph horiz-adv-x="1000" />
<glyph horiz-adv-x="1000" />
<glyph unicode="&#xd;" horiz-adv-x="1000" />
<glyph unicode=" "  horiz-adv-x="308" />
<glyph unicode="&#x09;" horiz-adv-x="308" />
<glyph unicode="&#xa0;" horiz-adv-x="308" />
<glyph unicode="!" horiz-adv-x="397" d="M155 486q0 7 9.5 37.5t9.5 37.5v56q0 65 42 81l21 8q0 -6 11 -6q2 0 12 3t12 3q10 0 31.5 -11.5t24.5 -18.5q6 -10 14 -37q12 -120 10 -148l-18 -201q-1 -9 -22 -22q-22 -15 -28 -21q-3 -9 -7 -27q-6 -14 -22 -14q-39 0 -38 58q1 46 -6 71q-7 11 -15 35q0 21 -8 71 q-1 5 -18 25zM181 83q0 24 24 49t47 25q4 0 14 -5l11 -6q26 -5 35.5 -16t18.5 -40q7 -21 7 -33q0 -51 -58 -58q-9 -26 -13 -30q-9 -15 -26 -15q-21 0 -27 18q0 23 -5 63q-10 10 -21 19q-7 6 -7 29z" />
<glyph unicode="&#x22;" horiz-adv-x="497" d="M36 714q0 17 22.5 40t39.5 23q19 0 34 -7q64 -27 64 -122q0 -26 -24 -68l-24 -28v-42q-4 -39 -27 -39q-21 0 -30 57q-2 0 -7.5 -1.5t-7.5 -1.5q-34 0 -34 35q0 7 11 21q23 28 23 54q0 17 -20 43t-20 36zM233 700q0 14 13 35.5t23 25.5q17 7 33 7q114 0 114 -87 q0 -55 -21 -81q-5 -4 -27 -21q-18 -13 -23 -24l2 -33q0 -42 -35 -42h-15q-12 18 -12 40q0 6 2 20q-48 20 -48 37q0 3 20 29q20 28 20 31q0 8 -19 18q-8 4 -17.5 20t-9.5 25z" />
<glyph unicode="#" horiz-adv-x="761" d="M39 231q0 8 5.5 22t13 26.5t13.5 18.5l28 14q16 10 19 22q9 35 9 63v13q-2 2 -7 2q-2 0 -14.5 -8.5t-15.5 -8.5q-40 0 -40 34q0 19 12.5 53t22.5 38q28 2 78 13q13 4 36 32q-17 22 -17 30q0 4 4 11q1 2 1 32q0 22 10 31q32 29 73 29q39 0 55 -12.5t16 -47.5q0 -8 -1 -15 v-16q0 -29 4 -46q19 3 26.5 4.5t18 6t15.5 12t8 19.5l7 54q1 14 21 33t34 19q50 0 50 -51q0 -27 -7 -73l-7 -40q0 -11 3.5 -18t8.5 -11t14 -8q37 -19 37 -87q0 -23 -8.5 -43t-24.5 -20q-8 0 -16 14t-12 14q-12 0 -27 -5q-6 -39 -6 -67q0 -11 23 -23q22 -10 24 -14 q10 -21 10 -73q0 -18 -13.5 -45t-26.5 -27h-9q-9 0 -18 15l-9 14q-1 0 -21 -14q0 -5 -0.5 -13t-0.5 -11.5t-0.5 -9.5t-1.5 -8.5t-2 -7t-2.5 -7.5t-3.5 -6.5t-5 -7.5q-8 -7 -24 -29l-3 -43q-7 -37 -33 -37q-14 0 -20 22q-7 27 -9 29q-14 -11 -30 -11q-22 0 -22 78q0 7 5.5 28 t5.5 28q0 17 -3.5 21t-19.5 4q-17 0 -22.5 -5.5t-8.5 -24.5q-5 -25 -7 -29q-18 -37 -50 -54q0 -78 -32 -78q-31 0 -31 40q0 7 3 15q-48 18 -48 37l3 21l4 29q1 48 0 73q-42 26 -42 41zM259 336q0 -32 51 -32q43 0 43 68q0 20 -5 23q-19 11 -42 11q-47 0 -47 -70z" />
<glyph unicode="%" horiz-adv-x="636" d="M0 579q0 42 27 87q33 56 86 56q3 0 6 -6.5t6 -6.5t3 1q2 2 4 2q49 0 80 -28t31 -75q0 -26 -21 -98l-21 -31q-12 -15 -53 -22q-9 -6 -26 -29q-14 -18 -24 -18q-16 0 -36 32q0 20 -3.5 28.5t-16.5 18.5l-17 13q-25 34 -25 76zM74 -51q0 24 40 103q9 24 9 46q0 6 -2.5 28 t-2.5 29q0 22 46 80q19 30 34 79l29 90q13 14 39 50q8 19 19.5 64t16.5 61q25 73 101 224q7 -7 14 -7q4 0 17 3.5t17 3.5q33 0 56 -26.5t23 -62.5q0 -29 -22 -72l-38 -67q-8 -14 -22 -73l-17 -76l-30 -78q-22 -56 -22 -96q0 -8 0.5 -16.5t0.5 -13t-1 -13t-4 -21.5 q-10 -43 -36 -43q-10 0 -23 13q-19 -21 -34 -171q-3 -20 -34 -54q-6 -2 -21 -14q-4 -33 -20 -90q-14 -26 -40 -26q-30 0 -37 43l-9 53q-21 13 -46 37q-1 3 -1 13zM405 124q0 52 32 108q38 65 92 65q37 0 70 -40q33 -41 33 -77q0 -19 -13.5 -61.5t-22.5 -56.5q-10 -9 -28 -28 l-21 -48q-19 -34 -45 -34q-22 0 -22 37v17.5t0.5 11t1.5 3.5q-3 6 -20 14l-25 13q-32 30 -32 76z" />
<glyph unicode="&#x26;" horiz-adv-x="779" d="M77 81q0 9 6.5 49.5l6.5 40.5q1 13 0 40l-3 34q0 29 25 63q2 4 46 54q1 2 42 31q28 19 28 38q0 25 -28 35q-39 14 -43 18q0 1 2 7.5t5 18t6 24.5q4 25 5.5 36t6.5 25.5t13 24.5q23 29 100 85q20 15 60 25.5t69 10.5q23 0 58.5 -12t46.5 -23q12 -12 23 -69q6 -9 18 -34 l15 -52q0 -2 -11 -23.5t-11 -22.5q-2 -2 0 -44q1 -63 -39 -63q-12 0 -26 26l-42 -22q-5 -26 31 -69q37 -43 63 -43q1 0 35 40t57 40q27 0 51 -43q21 -37 21 -59q0 -18 -10.5 -39.5t-23.5 -21.5t-16 14q-13 -17 -13 -39q0 -9 28 -46q29 -38 29 -61q0 -20 -13.5 -36.5 t-32.5 -17.5q-2 -31 -4 -44.5t-11 -27.5t-26 -14q-18 0 -30 35q-5 29 -22 77l-31 -12q-14 0 -17 17l-9 46l-37 -11q-21 -6 -33 -18q-61 -61 -120 -56q0 -26 -13 -52t-32 -26q-7 0 -12 1t-8.5 4t-6 5t-4.5 7.5t-2.5 9t-1 11t-0.5 11.5v13.5v13.5q-5 9 -10 12q-4 0 -9.5 1 t-13.5 3t-14 3q-14 4 -43 34l-20 -14q-16 -12 -29 -12q-26 0 -26 43zM254 220q0 -14 19 -36l15 -27q6 -7 23 -7q11 0 25 13.5t23 31t9 29.5t-9 26q-19 -6 -28 -6q-3 0 -23 18q-18 19 -21 19q-13 0 -24 -29q-9 -24 -9 -32zM337 538q0 -10 16 -22t27 -12q12 0 30 20t18 32.5 t-13 24.5q1 -16 -11 -32.5t-26 -16.5q-16 0 -17 19q-3 25 -9 33l-9 -13q-6 -13 -6 -33z" />
<glyph unicode="'" horiz-adv-x="233" d="M59 726q0 18 22 40.5t39 22.5q20 0 35 -7q64 -27 64 -122q0 -26 -24 -67q-16 -19 -24 -29v-7q0 -18 -0.5 -27t-3 -22t-8.5 -19t-16 -6q-24 0 -30 57q-1 0 -7 -1t-7 -1q-35 0 -35 34q0 7 11 21q24 29 24 55q0 16 -20 42t-20 36z" />
<glyph unicode="(" horiz-adv-x="377" d="M0 87q0 1 20 98q6 30 7 111q2 67 6.5 99.5t19.5 67.5q14 31 53 81q69 86 158 210q37 49 95 49q18 0 31.5 -16.5t13.5 -37.5q0 -39 -90 -182q0 -59 -1 -83q-2 -74 -41 -74q-12 0 -34 18q-2 2 -10 34q-3 -2 -9.5 -7.5t-9 -7.5t-8 -7t-8 -8.5t-6 -8t-5.5 -9.5 q-18 -38 -18 -147q0 -88 24.5 -143t78.5 -113q36 -38 36 -59q0 -28 -21 -44q-2 -2 -44 -27q8 -78 -50 -78q-36 0 -40 49l-6 60q-8 14 -16 23q-28 21 -35 28q-16 16 -21 28q-2 10 -5 34q-1 13 -9 22q-2 1 -7 2q-18 4 -26.5 7t-15.5 10.5t-7 20.5z" />
<glyph unicode=")" horiz-adv-x="386" d="M22 718q0 16 11 30t26 14q39 0 67 -27q10 -8 46 -59q40 -55 57 -75q66 -72 86 -131q7 -22 11 -48.5t5.5 -46.5t3 -58.5t2.5 -61.5l16 -80q0 -19 -28 -26q-16 -5 -20 -9q-5 -44 -27 -65q-38 -37 -42 -43q-3 -53 -4 -56q-7 -34 -33 -34q-11 0 -25 9q-12 8 -14 16t-2 39 q-3 7 -30 14q-7 2 -15 16.5t-8 27.5q0 19 15 34q61 61 82 113q17 43 17 111q0 140 -53 160q0 -18 -11.5 -30.5t-24.5 -12.5q-33 0 -34 61q-1 23 -1 69q-73 115 -73 149z" />
<glyph unicode="*" horiz-adv-x="427" d="M50 211q0 13 8 25t19 12q3 0 14 -3.5t13 -3.5q10 0 18 8q-4 15 -15 15q-2 0 -10 -1.5t-11 -1.5q-17 0 -17 20q0 8 18 38q4 13 16 35q6 7 16 7q13 0 21 -26l4 -27q0 -2 7 -17q1 10 1 21q0 6 -2.5 25t-2.5 24q0 22 38 22q28 0 37 -27q-2 -14 3 -45l22 32q10 13 29 13 q2 0 15 -6l14 -7q24 -43 24 -64q0 -7 -8.5 -16t-15.5 -10q-10 -1 -41 -7q-6 -2 -6 -8q0 -1 60 -21q19 -11 20 -21q6 -34 6 -39q0 -11 -12 -18q-1 0 -3 -0.5t-6 -1t-8 -0.5q-10 -25 -45 -25q-7 0 -11.5 2t-8 6.5t-5 7.5t-4 10t-3.5 10q-1 4 -19 30h-11q0 -1 -1 -1v-3 q0 -2 3.5 -13t3.5 -13q0 -36 -45 -40q-1 -1 -4 -10t-8.5 -16.5t-14.5 -7.5q-16 0 -19 21q-3 22 -4 23l-10 6q-5 2 -5 9q0 5 16 25l21 25q1 1 -0.5 2t-4.5 1q-2 0 -21 -12q-19 -11 -30 -11q-35 0 -35 48z" />
<glyph unicode="+" horiz-adv-x="580" d="M85 352q0 28 24.5 43.5t58.5 15.5q2 0 13 -1.5t13 -1.5q11 0 11 17q0 11 -10 21l-14 12q-10 11 -10 27q0 9 11.5 19t20.5 10q3 0 14 -1.5t14 -1.5q5 0 27 6t25 6q31 0 45 -20.5t22 -60.5q6 -28 15 -28q1 0 5 1.5t5 1.5q4 0 23.5 -7.5t23.5 -7.5q3 0 2.5 3t1.5 3 q57 0 84 -47q11 -20 11 -38q0 -34 -24 -46q-7 -3 -25 -9.5t-28 -10.5q-1 -11 -1 -31q-5 -9 -35 -9q-25 0 -30.5 7t-7.5 35q-1 0 -13 16q-9 15 -10 15q-3 0 -7 -10q0 -9 1 -32q3 -50 3 -54q0 -133 -60 -133q-21 0 -31 5q-16 8 -32 39q-3 5 0 30q2 20 -5 31l-22 26 q-11 14 -11 25q0 19 28 44v10q-4 0 -15 -2t-13 -2q-43 0 -70.5 22.5t-27.5 62.5z" />
<glyph unicode="," horiz-adv-x="276" d="M101 62q0 18 22 40.5t39 22.5q20 0 35 -7q64 -27 64 -122q0 -27 -25 -67q-3 -4 -24 -29v-42q0 -39 -27 -39q-24 0 -30 57q-1 0 -7 -1t-7 -1q-35 0 -35 34q0 7 11 21q24 29 24 55q0 16 -20 42q-20 28 -20 36z" />
<glyph unicode="-" horiz-adv-x="591" d="M65 283q0 17 16 42.5t29 29.5q34 12 49 12q3 0 3 -3t2 -3q4 0 23 7.5t24 7.5q1 0 5 -1.5t5 -1.5q17 0 28 11l7 -6l4 1l4 1q0 2 -2 4q76 -17 109 -17q6 0 23 1.5t22 1.5q33 0 58 -16t25 -43q0 -21 -9.5 -41.5t-22.5 -27.5q-33 -15 -67 -15q-6 0 -28 1t-28 1q-5 0 -21.5 -5 t-20.5 -5q-8 0 -35 5.5t-35 5.5q-18 0 -20 -23l-4 -47q-8 -24 -39 -24t-31 35q0 1 1 12t2 21.5t0 12.5q-4 7 -47 14q-29 14 -29 52z" />
<glyph unicode="." horiz-adv-x="323" d="M88 45q0 36 19 62.5t50 26.5q36 0 71 -23t35 -54q0 -24 -27.5 -50.5t-52.5 -26.5q-28 0 -59 19q-36 21 -36 46z" />
<glyph unicode="/" horiz-adv-x="523" d="M74 -51q0 24 40 103q9 24 9 46q0 6 -2.5 28t-2.5 29q0 22 46 80q19 30 34 79l29 90q13 14 39 50q8 19 19.5 64t16.5 61q25 73 101 224q7 -7 14 -7q4 0 17 3.5t17 3.5q33 0 56 -26.5t23 -62.5q0 -29 -22 -72l-38 -67q-8 -14 -22 -73l-17 -76l-30 -78q-22 -56 -22 -96 q0 -8 0.5 -16.5t0.5 -13t-1 -13t-4 -21.5q-10 -43 -36 -43q-10 0 -23 13q-19 -21 -34 -171q-3 -20 -34 -54q-6 -2 -21 -14q-4 -33 -20 -90q-14 -26 -40 -26q-30 0 -37 43l-9 53q-21 13 -46 37q-1 3 -1 13z" />
<glyph unicode="0" horiz-adv-x="541" d="M35 337q0 13 9 32l22 37v103q0 55 33 116q36 64 80 85q4 0 32 2l61 16q6 0 13 -4l24 -12q52 -9 72 -17q11 -5 19 -10.5t15 -16t10 -15.5t8 -22.5t6.5 -23t6.5 -29.5q1 -8 38 -62q13 -22 13 -56l7 -86q0 -4 5 -16t5 -15q0 -4 -8 -20l-9 -18q-9 -42 -8 -68q2 -56 -11 -95 q-6 -19 -37 -49l-30 -38q-16 -21 -33 -23q-14 -3 -71 -10q-3 -3 -20 -64q-14 -47 -40 -47q-27 0 -34 54l-7 62q-6 11 -21 11h-10q-5 -1 -11 -1q-32 0 -43 36l-12 63q-20 35 -24 76q-4 52 -11 70q-39 33 -39 55zM190 387q0 -27 16 -142q5 -34 16 -72q17 -35 68 -35q22 0 38 8 t25 21t14.5 35t7 43.5t1.5 53.5l-1 -8q-2 2 -10 70q-9 95 -11 122l-3 52q-3 44 -24 44q-6 0 -20 -20t-27 -20q-20 0 -25 15v32q-2 14 -8 25h-11q-46 -82 -46 -224z" />
<glyph unicode="1" horiz-adv-x="354" d="M38 483q0 29 33 100l44 63q10 13 10 40l27 9q21 9 25 9q23 0 58 -18q15 -8 23 -23q24 -44 24 -109q0 -12 -3 -69t-3 -69q1 -3 14 -51q4 -13 4 -88l-1 9q0 -2 -1 -20q-1 -22 -1 -75q-2 -50 -1 -53q4 -56 -18 -84q-17 -10 -44 -43l-8 -41q-10 -34 -34 -34t-28 39l-6 45 q-16 16 -36 57q3 17 3 43q0 22 -1 35q-17 25 -17 42q0 9 5 27q8 21 9 28.5t1 40.5q0 113 -7 137q0 1 -16.5 8t-34 15.5t-19.5 13.5q-1 1 -1 16z" />
<glyph unicode="2" horiz-adv-x="567" d="M28 121q0 47 35 119q7 15 54 53l110 110l49 44q5 4 22 45q16 39 16 49q0 25 -19.5 46t-44.5 21h-16q-31 -29 -63 -68l-12 -57q-17 -53 -44 -53q-8 0 -17 5.5t-14.5 14t-5.5 16.5q2 34 -14 62q-16 29 -16 40q0 103 64 148q31 22 52 23q19 -1 97 -1q4 0 15.5 2.5t14.5 2.5 q53 0 68 -7q25 -10 69 -52q42 -40 49 -65q10 -33 10 -75q0 -39 -14 -65q-31 -59 -45 -88q-18 -21 -41 -60l-4 -51q-4 -42 -37 -42q-12 0 -36 38q-64 -45 -64 -79q0 -9 11 -17t23 -8q8 0 33.5 1.5t32.5 1.5q45 0 73 -5.5t75 -21.5q24 -7 24 -88q0 -61 -4 -76q-11 -41 -50 -41 q-20 0 -34 39q-14 38 -17 38t-13 -2.5t-12 -2.5q-4 0 -22.5 5.5t-22.5 5.5q-3 0 -30 -18.5t-30 -18.5q-10 0 -22 25q-12 26 -21 26q-42 0 -61 -9q-8 -14 -25 -42q-24 -43 -39 -43q-28 0 -33 47q-5 56 -9 62l-28 15q-17 13 -17 51z" />
<glyph unicode="3" horiz-adv-x="541" d="M32 114q0 22 22 50.5t42 28.5q37 0 60 -24l30 -43q21 -25 42 -25q58 0 84 23q9 8 14 34q1 7 2.5 13.5t2.5 11t1.5 7.5t1 5l0.5 2l13 37q0 14 -12 19q-29 -29 -35 -29q-20 0 -28 62q-2 11 -7 23q-3 1 -18 1q-2 0 -6.5 -1t-9 -1.5t-6.5 -0.5q-10 0 -22.5 6t-21.5 15.5 t-9 19.5q0 7 7 24.5t12 23.5q41 20 56 29q3 2 16 22.5t17 22.5q11 3 30 17q11 19 11 46q0 21 -6 30q-14 20 -72 23q-5 1 -16 -10.5t-30 -35.5q-13 -7 -27 -19l-13 -72q-8 -41 -36 -41q-18 0 -22 27l-6 41q-38 9 -38 39q0 2 3.5 13.5t3.5 15.5l2 45q2 18 9.5 32t15.5 22.5 t26.5 17t28.5 12t35 11.5q37 21 86 44q12 4 64 4q26 0 71 -30q12 -8 28 -51q15 -23 44 -81q2 -3 1.5 -26.5t0.5 -27.5l14 -79q0 -29 -25 -29q-2 0 -7.5 1.5t-7.5 1.5q-13 0 -21 -20l-8 -22q8 -5 34 -23q9 -9 14 -21.5t7 -20.5t5 -32t4 -33q8 -53 8 -58q0 -17 -14 -53 q-19 -45 -20 -55q-1 -6 0 -21l2 -28q3 -41 -34 -41q-3 0 -16 3t-16 3q-13 0 -38 -34q-26 -35 -35 -35q-19 0 -34 26q-14 26 -28 26q-6 0 -26.5 -6t-26.5 -6q-26 0 -57 17l-32 18q-6 -8 -18 -23q-17 -23 -30 -23q-15 0 -23.5 7.5t-9.5 23t1 30t6 38.5q3 16 3 26q0 8 -7 24z " />
<glyph unicode="4" d="M31 255q0 33 36 80l40 52q12 33 28 68q5 11 27 29q25 20 37 32q15 39 48 86l98 114q4 5 20.5 11.5t23.5 6.5q3 0 53 -15q40 -37 48 -58q7 -18 1 -103q5 -32 9 -186q2 -8 0.5 -47t-1.5 -48l39 -33q20 -20 20 -45t-13.5 -46t-34.5 -21q-12 0 -16 4l-12 16q-1 -1 0 -64 q0 -4 -19 -64q-11 -13 -19 -27q-1 -3 -1 -32q0 -46 -45 -46q-21 0 -27 25l-6 42q-1 4 -26 15q-13 16 -14 72q1 10 2 32q2 32 -12 42.5t-47 5.5q-24 -4 -63 2q-5 -6 -19 -40q-9 -23 -32 -23q-24 0 -31 25l-4 39q-34 10 -49 19.5t-25 33.5q-14 28 -14 46zM217 276 q2 0 9.5 -1.5t9.5 -1.5t28 10t28 10t11.5 -3t12.5 -3q28 0 22 105l-2 38q-2 50 -2 58q-14 -14 -22.5 -38t-4.5 -42q8 -27 3 -44t-27 -17q-2 0 -9 3t-10 3q-11 0 -29 -28q-18 -29 -18 -40v-9z" />
<glyph unicode="5" horiz-adv-x="579" d="M37 116q4 6 5 9.5t-1 17.5l-3 18q0 32 31 51t72 19q23 0 44 -18l34 -36q21 -22 41 -27l5 -5l30 6q40 8 43 62l4 43q0 4 5 16.5t5 15.5q0 15 -9 18q-7 0 -20 1q-22 1 -22 26q0 6 2.5 19t1 21t-8.5 13q-12 -6 -54 -22q-12 0 -46 -8q-5 -5 -18 -50q-4 -9 -18.5 -17.5 t-24.5 -8.5q-15 0 -21 22l-3 24q-54 20 -54 71q0 5 20 108q13 28 19 46q1 12 4 34t4 29t3 21.5t5 22.5t7 19t10 24q7 16 69 22q9 1 86.5 8.5t100.5 7.5q33 0 46 -4q25 -17 32 -22l23 -10q32 -21 32 -86q0 -19 -10.5 -46t-22.5 -27q-15 0 -26 15t-9 31q-16 -3 -33 -3 q-3 0 -45 11q-10 0 -27 -35q-5 -11 -17 -22q-32 2 -40 16q-4 19 -5 26q-5 12 -21 12q-15 0 -27 -39q-9 -30 -9 -44q0 -20 10 -20q32 0 34 1q29 6 35 6q3 0 14 3.5t14 3.5q7 0 31 -4t30 -4h8q22 0 54 -13q18 -8 58 -68q14 -22 23 -93q7 -52 7 -96q0 -52 -31 -89 q-71 -85 -88 -110q-3 -6 -20.5 -11t-28.5 -5q-2 0 -6 1.5t-5 1.5q-2 0 -14 -10t-13 -12q-2 -17 -7 -40q-4 -9 -19.5 -22.5t-24.5 -13.5q-23 0 -31 30l-12 44q-36 4 -69 10q-1 0 -13 10.5t-25 20t-17 9.5q-6 -3 -18 -10q-17 -10 -30 -10q-24 0 -26 12l-8 38q0 5 3 29 q1 6 -4 15z" />
<glyph unicode="6" horiz-adv-x="605" d="M39 293q0 4 5 24t11 40t6 22q1 30 8 83q1 14 28 47l39 45l47 75q26 41 64 57q45 20 83 30q6 11 10 11q64 0 126 -43q70 -46 70 -107q0 -31 -12.5 -44t-45.5 -27l-9 -27q-7 -16 -21 -16h-9q-16 0 -24 35l-10 48q-11 29 -37 29q-23 0 -41 -46t-37 -46q-14 0 -28 29 q-7 -7 -20 -46t-13 -54q0 -9 5 -9q2 0 34 15q16 9 26.5 13t22.5 7t24.5 4t33.5 1q19 0 51 -12q6 -3 26 -10.5t32 -12.5q30 -16 47 -40q3 -3 11 -72l9 -92q1 -4 10 -30.5t9 -31.5q0 -16 -4 -25l-27 -19q-10 -7 -24 -43q-7 -18 -12 -28t-9 -13q-8 -1 -18 -12q-5 -31 -5 -34 q-14 -50 -43 -50q-21 0 -25 13q-8 24 -13 30q-1 0 -11 -3.5t-21.5 -7t-22 -6.5t-13.5 -3q-2 0 -6.5 1.5t-5.5 1.5t-16 -33q-14 -33 -35 -33q-25 0 -29 24l-9 37q-6 12 -26 18q-24 8 -26 11q-40 47 -57 95l-6 44q-5 27 -13 41q-2 3 -21 12t-20 9q-8 7 -4 55q1 12 -4 43z M220 197q0 -16 7.5 -32.5t8.5 -21.5q1 -17 11 -46q35 -1 60 -26q6 -6 15 -6q15 0 36 27l28 35l53 30q2 2 7.5 19t5.5 22q0 19 -36 62q-35 45 -52 45h-9q-2 -10 -2 -45q0 -49 -23 -49q-26 0 -54 63q-56 -38 -56 -77z" />
<glyph unicode="7" horiz-adv-x="550" d="M38 621q0 19 21 40.5t39 22.5l56 5q2 0 9.5 4t9.5 4q3 0 15 -4.5t14 -4.5q8 0 37 8.5t37 8.5q33 0 59 -10l5 -3q5 -4 8 -4q4 0 16 3t15 3q1 0 5 1.5t6 1.5q87 0 87 -58q0 -4 -3 -36t-2 -40q0 -5 7 -29t7 -31q0 -33 -30 -33q-2 0 -6 1.5t-6 1.5q-14 0 -18 -16 q-3 -25 -13 -61q-25 -28 -39 -49q-51 -70 -54 -154q0 -11 -18 -23t-18 -24t4 -27q0 -1 -8 -12l-8 -58q-13 -46 -49 -46h-11l-7 -34q-8 -38 -39 -38q-32 0 -34 38l-3 55q-3 3 -21 25q-4 7 -4 21q0 13 33 115q11 22 27 58q3 31 16 74q3 3 16 17t22 24q3 19 13 45l44 68 q36 55 36 67v12h-71q-16 0 -68 -11q-6 0 -25.5 5.5t-25.5 5.5q-2 0 -17 -24t-31 -24q-25 0 -28 29q1 16 1 49z" />
<glyph unicode="8" d="M31 249q0 34 10 51q1 3 41 46q35 38 35 48q0 13 -15 13q-3 0 -7 -2.5t-6 -2.5q-33 0 -29 45q2 30 2 36q0 2 -6.5 16t-6.5 17q0 49 41.5 103t85.5 80q35 21 37.5 21t3 -1.5t2.5 -1.5t15.5 9.5t15.5 9.5q36 10 55 10q3 0 15.5 -4t16.5 -4q79 3 117 -50q13 -17 13 -41v-21 t-0.5 -13t-1.5 -4q16 -42 29 -82q13 -38 13 -64q0 -13 -30 -37q-30 -22 -30 -33q0 -4 18 -29q23 -18 38 -35q6 -7 22.5 -44t16.5 -46q-2 -2 -14 -32l-8 -22q-8 -63 -10 -70q-9 -26 -46 -57q-16 -7 -40 -24q-10 -10 -17 -27q-10 -23 -13 -26q-4 -6 -18 -13.5t-21 -7.5t-30 10 q-21 10 -37 10q-6 0 -26 -4.5t-26 -4.5q-24 0 -68 26q-6 0 -23 -13t-28 -13h-12q-18 9 -17 55q0 22 -3 35q-13 17 -30 58q3 39 -15 97q-9 28 -9 33zM195 267q0 -6 4 -25.5t4 -25.5q1 -1 -0.5 -9t-2.5 -17l-2 -9q0 -11 30.5 -30t45.5 -19h21q7 2 17 8q63 33 63 85q0 14 -7 35 q-11 33 -23 33q-1 0 -18 -12q-17 -11 -26 -11q-2 0 -10 1t-10 1q0 -37 -20 -37q-31 0 -33 36l-3 56q-8 -4 -19 -26t-11 -34zM212 538q0 -34 18 -47q24 -11 43 -21q32 -28 37 -28q10 0 24 9q9 6 31 43t22 48q0 14 -14 28.5t-28 14.5q-1 0 -10 -17t-24 -17q-14 0 -32 21 q-16 22 -27 22q-2 0 -14 -6.5t-16 -6.5q-10 -36 -10 -43z" />
<glyph unicode="9" horiz-adv-x="594" d="M24 460q0 8 10 39t14 38q33 58 45 77q30 45 68.5 79t79.5 38q27 0 51 2l74 8q23 0 55.5 -22.5t51.5 -43.5q16 -19 43 -107q25 -77 28 -109l-5 -23q-1 -12 -3 -27q-8 -74 -8 -77l3 -48q1 -31 -3 -47q-28 -43 -33 -88q-1 -7 0.5 -25.5t3 -37.5t0.5 -26q-1 -9 -14.5 -18 t-25.5 -9q-9 0 -12 5q-15 -11 -35 -39q2 -16 1 -34q-6 -44 -46 -44t-40 39q-3 9 -9 14q-60 4 -62 6q-32 6 -59 26q-10 9 -22 9l-16 -10q-16 -10 -30 -10q-17 0 -29.5 11.5t-12.5 27.5q0 50 17.5 94.5t50.5 44.5q6 0 59 -29q52 -28 77 -28t56.5 20t40.5 39q21 45 21 66v28 q-2 2 -7 2q-25 0 -44.5 -36t-33.5 -36q-15 0 -21 23t-8 23t-7 -1.5t-6 -1.5l-19 7l-19 7q-3 0 -11.5 -1t-10.5 -1q-13 0 -33 11l-15 -20q-15 -20 -33 -20q-17 0 -23 16.5t-6.5 42.5t-4.5 36q-18 12 -37 36q1 12 -4 48q-2 5 -23 26q-19 19 -19 30zM182 471q0 -17 7 -24 q13 -7 33 -24q5 -6 11.5 -25.5l7.5 -22.5l24 -10q59 32 72 32q1 0 6.5 -1.5t7.5 -1.5q18 0 35.5 20.5t17.5 38.5q0 5 1 23t1 23q0 39 -1 42q-3 16 -20 40.5t-29 24.5q-6 0 -15 -35q-7 -34 -30 -34l-14 -1q-5 1 -19 23q-1 0 -19 7q-10 12 -21 23l-22 -19q-13 -13 -16 -22 q-18 -50 -18 -77zM544 459v-8v8z" />
<glyph unicode=":" horiz-adv-x="340" d="M97 447q0 35 19 61.5t50 26.5q35 0 68 -21q37 -22 37 -56q0 -26 -27 -51.5t-53 -25.5q-30 0 -60 18q-34 19 -34 48zM106 244q0 27 21 49t47 22q4 0 20.5 -6.5t21.5 -6.5q22 -5 37.5 -24t15.5 -41q0 -19 -18 -49q-23 -36 -47 -36q-7 0 -29 14q-26 6 -46 13q-9 2 -16 25.5 t-7 39.5z" />
<glyph unicode=";" horiz-adv-x="343" d="M127 260q0 23 16.5 46t37.5 23q3 0 10.5 -4.5t9.5 -4.5q3 0 3 1.5t3 1.5q39 0 72.5 -31t33.5 -69q0 -27 -13 -50q-18 -34 -21 -43v-47q-4 -40 -36 -40h-9q-15 0 -25 61q-15 3 -45 20q1 4 9 32.5t8 36.5q0 9 -3 14q-23 17 -50 43q-1 2 -1 10zM127 467q0 13 16 41 q20 35 43 35q37 0 72 -25q40 -27 40 -61q0 -28 -26 -52.5t-54 -24.5q-33 0 -62 27.5t-29 59.5z" />
<glyph unicode="=" horiz-adv-x="620" d="M95 266q0 17 16 42.5t29 29.5q35 12 49 12q3 0 3 -3t2 -3q4 0 23 7.5t24 7.5q1 0 4.5 -1.5t5.5 -1.5q17 0 28 11l7 -6q0 1 4 1t4 1q0 2 -2 4q76 -17 109 -17q5 0 22 1.5t23 1.5q33 0 58 -16t25 -43q0 -21 -9.5 -41.5t-22.5 -27.5q-33 -15 -67 -15q-6 0 -28 1t-28 1 q-5 0 -21.5 -5t-20.5 -5q-8 0 -35 5.5t-35 5.5q-18 0 -20 -23l-4 -47q-8 -24 -39 -24t-31 35q0 1 1 12t2 21.5t0 12.5q-4 7 -47 14q-29 14 -29 52zM98 484q0 31 23 48q24 14 158 47l6 -5q7 0 38.5 -4t38.5 -4q196 -4 196 -80q0 -25 -20.5 -46t-45.5 -21q-2 0 -10.5 2.5 t-10.5 2.5q-8 0 -34 -20q-25 -20 -35 -20q-9 0 -22 11q-18 16 -26 18h-35q-1 0 -30.5 -11.5t-30.5 -11.5q-5 0 -32 8.5t-31 8.5q-7 0 -27 -17t-33 -17q-11 0 -19.5 9.5t-8.5 20.5l1 25q1 26 0 26q0 3 -5 15.5t-5 14.5z" />
<glyph unicode="?" horiz-adv-x="661" d="M66 595q0 45 30 56q4 2 31 16l46 71q21 26 65 26q5 0 26.5 -7t25.5 -7l50 25q20 6 74 6q47 0 96 -28q58 -33 58 -75q0 -5 -8.5 -34t-8.5 -35q0 -13 36 -78q21 -66 21 -84q0 -55 -37.5 -100t-88.5 -45q-6 0 -28 6t-29 6q-18 0 -18 -33q0 -13 3 -33l3 -19l-7 -17 q-26 -13 -32 -13q-21 0 -44 18q-22 19 -25 19q-4 0 -25 -9q-6 -2 -23 -53q-6 -17 -23.5 -32t-32.5 -15q-34 0 -34 51q0 6 1.5 25t1.5 25q0 7 -3 10q-1 3 -27 23q-20 15 -20 31q0 44 39 67l49 13q2 3 11 12q65 41 86 44q31 -2 83 4q28 7 28 48q0 5 -8.5 36t-8.5 34 q0 4 3.5 21t3.5 22q-22 19 -43 19q-23 0 -32 -56q0 -3 -1 -7l-1 -5q-9 -24 -36 -24q-17 0 -28 18l-17 31q-4 -5 -27 -53q-13 -30 -45 -30q-17 0 -52 15q-37 16 -43 29q-15 32 -15 65zM198 17q0 18 7 33t19 26t28.5 19t35 11.5t38.5 3.5q31 0 63 -22q33 -22 33 -51 q0 -18 -25 -44l-10 -10t-8 -8.5t-5.5 -6.5t-4 -4.5l-1.5 -1.5q-4 -9 -5 -54q-1 -23 -25 -42.5t-50 -19.5q-41 0 -47 51l-7 65q-7 14 -24 27q-12 9 -12 28z" />
<glyph unicode="A" horiz-adv-x="707" d="M19 170q0 9 18 48l51 87q49 85 59 122q15 31 22 49t10 25.5t9 33.5t12 46l22 85q0 36 -14 44q3 12 18 33q19 12 48 12q7 0 33 -5.5t34 -5.5t39.5 8.5t39.5 8.5q23 0 59 -51q34 -47 35 -62q8 -56 22 -112q2 -8 44 -82q36 -62 39 -93q5 -39 52 -100q12 -15 19 -49 q8 0 8 -10l-7 -19q-2 -11 -1 -26l-17 -5q5 -7 5 -15q0 -18 -12 -32.5t-27 -14.5h-14q-2 0 -11.5 8.5t-12.5 8.5q-5 0 -22 -45q-17 -44 -36 -44q-8 0 -13.5 7t-7 21.5t-2 25t-0.5 30.5v3v3v3l-11 48q-8 30 -18 46q-17 19 -36 47q-5 19 -19 19q-18 0 -40 -25q-22 -24 -26 -24 q-13 0 -25 20l-16 26q-7 -2 -28 -7q-19 -7 -27 -21l-14 -62q-12 -36 -31 -53q-13 -4 -33 -13l-21 -47q-20 -44 -40 -44q-18 0 -24 15q-5 31 -22 78q-6 9 -23 12q-26 4 -26 5q-4 1 -12.5 17t-8.5 22zM305 394q1 -1 4 -10q12 -5 38 -33q2 11 30 26q29 17 29 26q0 28 -19 62 l-21 9q-20 9 -22 23q-39 -84 -39 -103z" />
<glyph unicode="B" horiz-adv-x="590" d="M7 520q0 14 21 59q22 44 22 65q0 6 -2 29t-2 29q0 32 7 53q3 8 31.5 21.5t39.5 13.5q15 0 41 -14q28 -14 36 -14q16 0 82 11t82 11q3 0 19 -5.5t20 -5.5q20 0 48 -17q51 -19 71.5 -45.5t20.5 -84.5q0 -27 -17 -61l-43 -70q56 -53 67 -70q24 -36 24 -91q0 -46 -4 -57 l-21 -51q-1 -16 -13 -58q-3 -6 -22 -6q-8 0 -44 17q-21 0 -62 -30q-29 -50 -49 -50q-17 0 -40 20t-26 20l-21 -9q-21 -8 -22 -8q-4 0 -18.5 1.5t-18.5 1.5q-2 0 -36 -63t-42 -63q-7 0 -19 9t-12 15q-2 58 -12 87q-8 18 -28 28q-20 12 -20 13q-6 14 -8.5 29.5t-2.5 26t2 34 t2 39.5l3 166q-1 10 -9 33q-25 31 -25 41zM210 552q0 -2 1.5 -9.5t1.5 -9.5h10q15 12 45 13l25.5 1.5t18.5 3t14.5 7t8 12t3.5 19.5q0 30 -38 30q-3 0 -10.5 -3t-9.5 -3q-13 -1 -22 0l-19 2q-8 0 -18.5 -25.5t-10.5 -37.5zM215 304q0 -14 23 -14q4 0 18 3t18 3q6 0 25 -6 t25 -6q77 0 77 56q0 23 -11.5 42.5t-29.5 19.5q-11 0 -32 -29q-20 -29 -27 -29q-10 0 -26 31q-15 32 -27 32q-8 0 -12 -7q5 -23 -1 -33q-20 -32 -20 -63z" />
<glyph unicode="C" horiz-adv-x="592" d="M20 455q0 25 25 90q4 26 13 63q11 23 83 70q24 25 71 63q13 4 43 6q7 0 14.5 0.5t11 0.5h8.5h6.5t5.5 1t4.5 1t5.5 1.5t6.5 2t8.5 3t11 4.5q30 11 33 11q17 0 89 -31q22 -3 60 -16q30 -16 27 -66q-1 -7 2 -29.5t3 -26.5q0 -19 -7 -42t-18 -23q-1 0 -24 17t-32 17 q-2 0 -17 -30t-26 -30q-15 0 -33 47t-28 47q-4 0 -16 -4t-14 -4q-50 0 -53 -1q-24 -5 -41 -35q10 -19 5 -69q-1 -8 -14.5 -38t-9.5 -50q5 -23 5 -27t-4 -18t-4 -17q0 -33 26 -57t61 -32l33 -11q4 0 18 3t18 3q2 0 12.5 4.5t12.5 4.5q4 0 25 -7.5t25 -7.5q12 0 55 29l41 28 q24 0 38.5 -20t14.5 -48q0 -34 -4.5 -47t-23.5 -36q-21 -26 -32 -26q-2 0 -12 6t-12 6l-25.5 -11.5t-26.5 -11.5q-5 0 -20.5 4.5t-19.5 4.5q-6 0 -38 -16t-48 -16q-6 0 -48 20q-11 -10 -13 -43v-5l-1.5 -24t-2.5 -18.5t-6 -15t-11.5 -8t-18.5 -3.5t-20.5 12t-10.5 24l1 44 q1 43 -61 78q-23 13 -32 13q-1 0 -26 -14t-29 -14q-25 0 -27 21q4 41 4 126q-6 14 -12 37q-1 12 0 34q5 64 1 83l-5 20v-1z" />
<glyph unicode="D" horiz-adv-x="676" d="M7 442q0 6 3.5 22.5l7 33t4.5 20.5q3 28 3 97q0 10 6 28q0 42 12 83t34 41q4 0 17.5 -2.5t17.5 -2.5q3 0 15.5 4t16.5 4q11 0 58.5 -8.5t58.5 -8.5q6 0 30.5 3t31.5 3q24 0 44 -14q37 -25 47.5 -29t66.5 -16q18 -4 38 -12.5t38 -19.5t32 -25t20 -28q11 -21 18 -60 q9 -43 15 -60q11 -31 11 -76q-7 -40 -11 -65q-9 -78 -65 -134q-9 -9 -79 -39q-7 -9 -43 -38q-12 -3 -51 -19q-18 -10 -18 -39q0 -6 2.5 -28t2.5 -28q0 -41 -44 -41q-21 0 -28 9q-3 45 -10 83q-4 25 -32 25q-4 0 -16.5 -3t-16.5 -3q-2 0 -12 3t-12 3q-18 0 -56 -62 q-37 -61 -51 -61q-18 0 -27 50l-11 62q-4 8 -22 30q-15 19 -17.5 38t2.5 55q5 55 5 63q1 89 -14 114q-22 35 -22 48zM213 279q0 -8 7 -14q24 11 35 11h8q8 0 23.5 -7.5t31 -16.5t17.5 -10q10 6 10 46q5 8 33 26q29 20 36 28q8 9 15 81q4 32 4 53q0 31 -20 73q-27 56 -72 56 q-11 0 -28 -29t-19 -29l-20 9t-21 9q-7 0 -16 -6.5t-10 -13.5q-1 -5 -1 -50q0 -6 -6.5 -24t-6.5 -22q0 -8 5.5 -36t5.5 -36q0 -9 -5.5 -49t-5.5 -49z" />
<glyph unicode="E" horiz-adv-x="518" d="M9 384q0 8 12.5 73t12.5 67q3 25 -2 67q-7 52 -7 63q0 31 10 55q6 16 49 29q2 1 21 1q4 0 16 -1.5t14 -1.5q4 0 11.5 -2.5t9.5 -2.5t9.5 2.5t10.5 2.5l6 -5q9 15 40 16q2 0 7.5 2t11 3.5t8.5 1.5q4 0 20 -3t21 -3l133 14q21 0 25 -4q9 -9 22 -38t13 -45q0 -14 -33 -55 q-1 -1 -14 -1q-5 0 -20 4.5t-19 4.5q-14 0 -42 -23q-26 -23 -28 -23l-44 29q-4 0 -14.5 -3t-12.5 -3h-8q-36 0 -36 -31q0 -43 35 -43q2 0 3 1.5t3 1.5q33 5 38 3q5 5 9 5q2 0 9 -1.5t9 -1.5t13.5 -2.5t15.5 -2.5q5 0 23 1.5t23 1.5q39 0 44 -1q43 -6 43 -98 q0 -20 -11.5 -36.5t-28.5 -16.5q-4 0 -16 4.5t-14 4.5q-8 0 -24 -45q-17 -44 -36 -44q-12 0 -22 34q-11 35 -16 35q-4 0 -14 -1.5t-13 -1.5q-10 0 -32 8q-21 9 -23 9q-17 0 -29 -36q-9 -27 -9 -43q0 -70 43 -70q11 0 65 26q10 0 44 -14t48 -14q6 0 26.5 2.5t26.5 2.5 q24 0 40 -40q12 -28 12 -53q0 -12 -10 -31q-9 -19 -9 -23q-1 -4 0 -17t2 -24.5t1 -12.5q0 -33 -36 -33q-33 0 -43 30l-12 58q-6 29 -25 29q-6 0 -41.5 -11.5t-41.5 -11.5q-2 0 -10 -1t-10 -1t-13 1t-13 1q-11 0 -40 -41t-43 -41q-13 0 -18 3q-10 9 -15 41q-4 38 -9 45 l-50 15q-25 11 -29 39q-2 7 0 66q1 39 -1 72l-12 48q-3 2 -4.5 8t-3 14.5t-2.5 12.5z" />
<glyph unicode="F" horiz-adv-x="532" d="M25 503q0 5 18 51q19 48 20 62q1 6 -2.5 39.5t-2.5 43.5q1 16 18.5 30t34.5 14q42 0 63 -1l63 -2q58 23 90 23q4 0 31 -8.5t33 -8.5q2 0 11.5 3t12.5 3l15 1q2 0 6.5 0.5t11.5 1t13 0.5l44 2q6 0 15 -9t15 -20t6 -18v-12q-1 -6 -1 -13q0 -3 2.5 -13t2.5 -12 q0 -54 -31 -54q-6 0 -28 4.5t-29 4.5q-12 0 -36 -25q-24 -24 -30 -24q-11 0 -26 27t-26 27q-7 0 -36 -8q-32 -10 -43 -21q-9 -11 -9 -43q0 -39 28 -39q3 0 16 5t14 5q13 1 35 1q8 0 34 -7t34 -7q3 0 13 3t12 3q54 0 54 -76q0 -42 -21 -57q-56 -12 -62 -15q-31 -14 -27 -48 q3 -22 0 -40l-2.5 -5t-5 -11.5t-2.5 -9.5q-11 -7 -23 -7q-11 0 -24 40q-12 37 -16 41l-22 3l-12 28q-4 11 -16 23q-19 -7 -19 -36q0 -11 11 -57q4 -24 4 -66q0 -62 -7 -80q-12 -15 -24 -46q-3 -18 -6 -51l3 -26q2 -21 -8.5 -38.5t-27.5 -17.5q-28 0 -39 45l-9 68 q-4 19 -18 19q-3 0 -12 -3t-11 -3q-27 0 -27 36v94q0 4 -4 21t-4 21q0 12 10 69t10 69q0 22 -10 48q-45 30 -45 59z" />
<glyph unicode="G" horiz-adv-x="682" d="M25 361q0 8 14 73q-1 7 -1 29l6 31q0 41 2 55q4 28 26 48q28 21 75 69q1 0 4 0.5t8 1t10 0.5q7 4 9 9q20 15 37 26q7 4 39 4q2 0 2.5 -1.5t3.5 -1.5q-1 0 8 5.5t32 19.5q57 24 72 24q17 0 44 -13t45 -13q11 0 28 5q14 0 29 -1l22 -1q46 -1 84 -52q5 -8 5 -44q0 -1 -1 -12 t-2 -22.5t0 -16.5l11 -53q0 -7 -6 -16.5t-14.5 -16.5t-15.5 -7q-28 0 -40 28q-3 12 -5.5 24t-4 17t-1.5 6q-11 33 -26 33q-5 0 -20.5 -2.5t-19.5 -2.5q-9 0 -43.5 8.5t-42.5 8.5q-13 0 -41 -7t-32 -19q-6 -12 -15 -39l-19 -2q-17 0 -23 -8q-18 -24 -22 -53l-9 -59 q0 -17 9 -35l21 -42q3 -26 19 -71q7 -12 45 -28q42 -17 53 -27l11 -15q4 -9 16 -9q11 0 26 24q13 4 36 15q4 5 4 28q0 40 -8 56q-7 -1 -28 -19q-17 -16 -29 -16q-8 0 -21 9q-12 8 -14.5 14.5t-3.5 23.5q-25 24 -25 43q0 30 18 62q19 37 48 37q8 0 35 -6t35 -6q1 0 6 1.5 t7 1.5t12 -3t13 -3q8 0 40 7.5t39 7.5q21 0 34 -19.5t13 -45.5q-4 -25 -13 -85q-7 -46 -7 -90q0 -11 8.5 -60.5t8.5 -59.5q0 -18 -12.5 -33.5t-27.5 -15.5q-21 0 -39 38q-6 -1 -41 -11t-45 -10q-4 0 -19 3t-20 3q-7 0 -18.5 -5t-13.5 -11q-5 -29 -9 -38t-19 -27 q-13 -20 -52 -25q-17 19 -26 71q-9 53 -17 63q-16 5 -29 10l-19 15q-18 16 -20 16q-6 0 -29 -23t-36 -23q-24 0 -40 37q-5 12 -17 55q-15 17 -33 43q-38 84 -38 116z" />
<glyph unicode="H" horiz-adv-x="676" d="M17 511l25 81q-2 51 5 114q1 9 13 20.5t21 13.5q63 16 91 16q8 0 19 -8.5t19 -18t12 -17.5q0 -4 2 -20q7 -16 5 -48l-4 -53q-1 -10 1 -45q2 -8 26 -31q23 -22 31 -22q10 0 39 20q31 20 47 20q4 0 27 -7t27 -7q30 0 33 27v110q8 80 53 80q3 0 13 -1.5t12 -1.5q5 0 24 11 q18 12 28 12q20 0 27 -24q13 -38 13 -50q0 -9 -5 -22l3 -3q0 -10 5.5 -84.5t4.5 -82.5l-14 -186q-1 -14 6.5 -67.5t7.5 -62.5q0 -43 -18 -58q-21 -9 -21 -37q0 -5 2 -21t2 -20q0 -16 -9 -22q-31 -20 -46 -20q-14 0 -25 48q-10 49 -14 50q-12 3 -36 11q-2 10 9 59l12 48 q4 44 4 122q0 39 -15 39q-3 0 -12 -1.5t-11 -1.5q-4 0 -23 5.5t-23 5.5q-10 0 -36 -39q-26 -38 -33 -38q-9 0 -22 33t-23 33q-4 0 -22.5 -7t-23.5 -7t-22 11q-12 -30 -10 -85l3 -88q2 -71 -16 -89q-5 -5 -34 -7q-12 -20 -12 -84q-1 -9 -14 -19.5t-23 -10.5q-24 0 -27 68 q-2 31 -13 44q-11 6 -32 20q-2 4 -2 35q0 2 2 40l2 28q-1 11 -4 50q-10 39 -10 51q0 8 4.5 43.5t4.5 42.5q0 21 -17 69z" />
<glyph unicode="I" horiz-adv-x="470" d="M36 100q0 1 1 4t1.5 6t1.5 5.5t1 3.5q-2 49 2 60q8 27 39 36l55 12q19 12 19 63q0 50 -6 120q-5 15 -5 30q0 13 10 72.5t10 72.5q0 17 -10 18q-9 -9 -24 -35q-10 -19 -25 -19q-22 0 -23 34q1 16 1 50q-1 3 -19 21q-17 17 -17 26q0 17 13.5 41.5t27.5 24.5q2 0 10.5 -3 t11.5 -3t13.5 1.5t12.5 1.5t19 7t19 7q1 0 26 -10t26 -10q2 0 6 -1.5t5 -1.5q13 0 68 14.5t67 14.5q75 0 75 -60q0 -5 -3 -18t-7 -26t-4 -15q2 -13 4 -51q-1 -11 -9.5 -24.5t-16.5 -13.5q-16 0 -27 8l-30 25q-8 -3 -26 9q-7 -10 -7 -28q0 17 6 -16q4 -26 12 -85 q2 -12 11 -33q11 -25 11 -26q0 -10 -17 -41t-17 -36q0 -46 10.5 -64t44.5 -25q37 -7 41 -13q12 -16 12 -84q0 -19 -10 -38q-6 -6 -15 -21q-3 -48 -13 -54q-26 -18 -32 -18q-12 0 -31 37t-29 37q-4 0 -21 -5.5t-22 -5.5q-2 0 -12.5 2.5t-14.5 2.5q-12 0 -25 -30 q-11 -25 -11 -31q0 -88 -35 -88q-37 0 -38 69q1 1 1 3v36q0 40 -16 41l-20 -11q-22 -12 -33 -12q-9 0 -16 13.5t-7 26.5zM127 5v-1v-1v2z" />
<glyph unicode="J" horiz-adv-x="498" d="M26 180q0 13 15.5 27t28.5 14q7 0 37 -7t36 -7q5 0 22 7t21 7t21.5 -7t21.5 -7q9 0 24 9q14 8 18 15.5t8 28.5q4 73 4 110q0 8 -3 27.5t-6 40t-4 25.5q4 86 4 97q-1 7 -9 14t-15 7t-29 -34t-32 -34q-13 0 -27 75q-1 8 -21 27q-18 21 -18 31q0 45 19 60q11 9 73 23 q53 12 61 12q10 0 48.5 -11t48.5 -11q1 0 35 -5l34 -5q6 -4 10 -37q5 -46 -4 -129q-1 -6 -1 -23q0 -12 12.5 -58.5t12.5 -57.5q0 -12 -10 -33l-15 -34q-9 -24 -12 -73l1 -2q1 -5 1 -24l1 -42q3 -112 -39 -112q-2 0 -6 1.5t-9.5 3.5t-8.5 3q0 -2 -4 -4.5t-10 -5t-13 -5 t-14.5 -5l-13.5 -4.5l-9 -3l-4 -1q-2 0 -7.5 1.5t-7.5 1.5q-5 0 -10 -2t-8.5 -5.5t-6.5 -9t-5 -10t-4 -12.5t-3.5 -13t-3.5 -13.5t-3 -13.5q-20 -41 -32 -41h-8q-13 0 -31 39q-17 38 -24 38l-15 -7l-28 -14l-15 -7q-24 0 -39 16t-15 40q0 1 2.5 28t1.5 34q0 1 -9.5 31.5 t-9.5 34.5z" />
<glyph unicode="K" horiz-adv-x="620" d="M15 386q0 9 28 140q3 27 3 49q0 8 -3.5 40t-3.5 40q-1 90 52 90q4 0 18.5 -4.5t19.5 -4.5q9 0 22 12q2 -3 4 -12q12 -3 13 -3q2 0 12.5 4.5t14.5 4.5q15 0 26 -27t11 -50q0 -8 -5.5 -44.5t-5.5 -45.5q0 -43 18 -50q15 3 71 74q120 152 129 152q7 0 33 -3t33 -3q5 0 23 3 t23 3q16 0 33 -12.5t17 -26.5q0 -24 -5.5 -35.5t-24.5 -33.5q-40 -44 -56 -68l-10 -64q-7 -49 -29 -49q-5 0 -19 23l-15 26q-17 -14 -35 -37t-18 -38q1 -1 4 -12l49 -43q5 -12 16 -31q5 -6 56 -71q14 -22 38 -47q1 -1 7 -6.5t7.5 -7.5t6.5 -7l7.5 -7.5t6 -7t5.5 -8t4 -8 t3 -9t1 -8.5q0 -3 1.5 -13t1.5 -12q0 -6 -23 -29q-16 1 -46 -8q-9 -5 -19 -62q-9 -48 -39 -48q-18 0 -28 58l-8 74q-3 12 -59 65q-29 45 -31 49q-33 -20 -45 -26q-13 0 -15 12q-7 73 -8 80q-2 6 -29 26q-16 12 -20 13q-12 0 -12 -26l20 -158q0 -16 -21 -58q-20 -42 -21 -63 q0 -13 -2 -39q-4 -13 -17 -28.5t-24 -15.5q-21 0 -36 118q-5 9 -19 14q-20 7 -22 9l-11 51q-9 20 -21 60q0 11 1 46q0 -4 1 1q0 3 1 18l2 16v10.5t0.5 8t-0.5 7.5t-1 6t-2 5.5t-2.5 5t-3.5 5.5t-4 5.5t-5 6.5t-6 7q-13 16 -13 32z" />
<glyph unicode="L" d="M39 550q0 -8 30 87v4q1 4 1 21q2 66 4 90q6 0 12 -6q5 18 10 22t20 4q3 0 16.5 -3t17.5 -3q6 0 23 5.5t23 5.5q34 0 41 -52l2 -69q-2 -19 1 -51q12 -41 12 -74q0 -5 -2.5 -45t-1.5 -50q0 -4 2 -23t2 -25q-8 -42 -8 -66q0 -56 30 -56q2 0 18.5 6.5t20.5 7.5h76 q1 0 3.5 -2.5t4.5 -2.5q19 0 60 15q39 16 60 16q41 0 46 -33q-1 -7 -1 -23q0 -24 3 -53l12.5 -29.5l12.5 -29.5q0 -13 -12 -43q-44 6 -68 6q-3 0 -17 -6t-16 -6q-3 0 -17 6t-16 6q-10 0 -35 -46t-40 -46q-21 0 -31 64q-4 22 -18 42q-3 -1 -47 -4q-33 -1 -41 -8 q-18 -12 -46 -67q-21 -40 -49 -39q-13 18 -17 50q-4 38 -11 51q-1 4 -23 21q-20 17 -21 23q5 76 6 168q0 8 -4.5 38.5t-4.5 39.5q0 68 1 90q-4 28 -13 47q-11 22 -11 25z" />
<glyph unicode="M" horiz-adv-x="758" d="M34 351q0 8 7 28q9 25 10 30.5t1 17.5q0 5 -0.5 11t-1.5 12.5t-2.5 20.5t-3.5 31q5 38 6 112q1 1 1 2.5v4t0.5 6t0.5 7t0.5 9t1 10.5t1 12t0.5 14q1 13 18.5 40t28.5 27h31q11 0 34 18q1 0 7 -6t9 -6q2 0 9 1.5t9 1.5q29 0 49 -21q11 -23 22 -45q10 -7 27 -24 q16 -21 28 -39q13 -43 49 -120h14q28 61 75 158q59 111 109 111q71 0 88 -7q47 -18 47 -127l-2 -76l7 -90q1 -8 -2 -44t-6 -74.5t-3 -48.5q0 -12 8.5 -61.5t8.5 -61.5q0 -33 -29 -47q-17 -8 -25 -17q-3 -3 -10 -54q-7 -43 -32 -43q-21 0 -28 43l-8 46q-5 5 -32 12 q-21 6 -27 20v274q0 16 22 129l-4 4q-17 -21 -19 -29l-19 -61l-4 -46q-5 -21 -24 -40q-18 -10 -37 -31q-16 -93 -51 -93q-7 0 -25 20l-18 20q-2 0 -14 -4t-16 -4q-5 0 -9 5.5t-6.5 16.5t-4 20.5t-4 24.5t-3.5 22q-9 7 -32 37l-7 35q-6 20 -18 30q-5 -15 -5 -28l20 -188 q0 -7 -5.5 -39.5t-5.5 -40.5q0 -7 5.5 -33t5.5 -34q0 -44 -19.5 -81t-50.5 -30q-9 16 -23 103q-5 26 -18 26q-4 0 -19 -6t-19 -6l-20 -1q-20 5 -20 63q0 10 4 52.5t4 52.5q1 9 -12 22l-17 17q-7 10 -7 27z" />
<glyph unicode="N" horiz-adv-x="692" d="M13 446q0 2 4.5 14t9.5 25.5t9.5 25l4.5 11.5q6 23 6 43q0 18 -7 84t-7 71q32 23 37 23q3 0 12 -1.5t11.5 -1.5t13.5 3t13 3q4 0 18 -1.5t18 -1.5q5 0 20 3t19 3q43 0 68 -31l43 -67q8 -12 70 -77q37 -38 50 -83q2 -17 10 -37q9 -9 33 -23l28 -33q10 19 10 37l-14 30 q-12 26 -14 34t0 38l4 39q5 38 -21 137q0 12 26 29q22 13 29 13q6 0 23.5 -4.5t22.5 -4.5q4 0 20 5.5t19 5.5q15 0 27.5 -8t19.5 -21t7 -28q0 -10 -8.5 -59.5t-8.5 -60.5q0 -75 17 -121q11 -30 11 -40q0 -14 -12 -34l-7 -10.5t-5.5 -9t-4 -7t-4 -7.5t-2.5 -7.5t-2 -9 t-1 -9.5t-1 -12.5v-15.5q0 -44 -2 -58q0 -2 -4.5 -6.5t-9 -9.5t-4.5 -7q-3 -50 -5 -66q0 -2 -3 -6t-6 -7t-6.5 -5.5t-5.5 -2.5q-4 0 -4 1v1q-1 1 -4 1q-12 0 -29 -45q-17 -44 -33 -44q-11 0 -18.5 3.5t-12 11t-6.5 17t-3 23.5q0 25 -3 32q-10 31 -34 71q-28 21 -48 72 q-9 16 -21 16q-1 0 -19.5 -8.5t-20.5 -8.5q-25 0 -31 54q0 37 -1 55l-34 40q-7 10 -43 62q-10 -7 -10 -28q0 -22 7 -51l9 -51q4 -33 4 -78q0 -21 -1.5 -38.5t-3.5 -27t-6.5 -29t-7.5 -33.5q-2 -11 0 -32l3 -27q0 -22 -13 -44q-14 -18 -32 -18q-19 0 -31 42q-14 49 -20 54 q-6 9 -52 20q-6 20 -9 56q-4 63 -6 69q5 33 3 101q0 25 -10 36q-28 34 -28 42z" />
<glyph unicode="O" horiz-adv-x="724" d="M14 334q0 21 18 70q19 48 19 70l-11 23q-1 1 -1 20q0 36 43 97q8 12 14.5 19t10 9.5t15 8.5t19.5 11q25 10 85 44q14 20 23 20q3 0 5.5 -3t4.5 -3q1 0 24.5 10t24.5 10q6 0 22 -6l6 -6q4 0 17.5 -1t17.5 -1q6 0 35.5 8.5t35.5 8.5q27 0 50 -14l44 -28q16 -7 47 -25 q12 -9 48 -74q19 -23 44 -66v-49q0 -14 12 -70.5t12 -70.5q0 -24 -21 -45q-22 -22 -23 -30q0 -2 -1 -9t-2 -22.5t-2 -29.5q-1 -31 -7 -46q-7 -19 -30 -46q-32 -38 -39 -49l-14 -56q-11 -44 -35 -44q-13 0 -36 29l-32 41q-14 8 -54 8q-37 0 -47.5 2t-30.5 13q-14 10 -20 10 q-10 -13 -31 -40q-31 -40 -53 -40q-27 0 -31 34q-4 28 -10 99q-5 40 -56 68q-25 14 -29 22q-2 9 -11 49q-2 9 -33 22q-19 9 -27.5 18.5t-9 14t-0.5 15.5zM225 373q0 -86 41 -118l23 -5q17 -4 18 -12q13 -52 48 -52q7 0 36 7.5t33 10.5q74 53 74 165q0 11 -0.5 26.5t-0.5 27 t2 26.5l3 25q0 15 -7.5 35t-16.5 20q-2 0 -3 -1.5t-3 -1.5q-33 0 -56 29q-7 9 -15 17l-24 -42q-21 -36 -32 -36q-24 0 -31 28q-10 40 -16 47l-23 -7l-8 -20q-14 -16 -35 -57q1 -13 1 -52q-8 -59 -8 -60z" />
<glyph unicode="P" horiz-adv-x="604" d="M26 481q0 20 16 61t16 61q0 8 -7.5 34.5t-7.5 34.5q0 13 11 31.5t22 22.5q51 19 107 19q5 0 37 -11.5t38 -11.5q5 0 21 3t20 3q61 0 63 -1l33 -18l33 -18q7 0 30.5 4t29.5 4q30 0 43 -10q26 -20 47 -73q22 -51 22 -88q0 -72 -28 -116q-25 -40 -90 -78q-25 -15 -97 -24 q-25 -42 -45 -42q-4 0 -30 14t-30 14q-22 0 -28 -10q-8 -15 -1 -85q0 -67 -3 -80q-9 -38 -47 -61q0 -30 -11.5 -61t-30.5 -31q-25 0 -28 48q0 12 -3 53q-8 19 -24 26l-26 8q-8 16 -5 45l4 44q-5 -2 -5 4l4 5q0 2 -0.5 6.5t-0.5 8.5t-0.5 11.5t-0.5 13.5q-1 21 4 88l5 46 q0 25 -9 51q-1 5 -25 27q-23 21 -23 28zM255 462l4 2q4 1 6 1q4 0 8 -13q7 -4 16 -4q45 0 58 7q20 11 38 45q21 40 21 63q0 7 -6 18.5t-12 11.5q-17 0 -34 -17t-26 -17q-19 0 -31 16l-18 33q-24 -18 -24 -31v-115z" />
<glyph unicode="Q" horiz-adv-x="733" d="M10 439q0 32 27 89q28 57 30 83q10 18 38 51l52 20q9 3 44 29t37 26t4.5 -1l2.5 -1q10 7 32 13.5t32 6.5q4 0 18 -6t17 -6q10 0 48 11.5t47 11.5l21 -4q2 -2 14 -10q25 -3 60 -16q25 -15 71 -59q2 -6 16 -34q36 -33 49 -51q25 -31 25 -63l-7 -38q-7 -35 -7 -68 q0 -15 11.5 -74t11.5 -73q0 -31 -21 -43q-24 -2 -37 -5q-8 -3 -25 -30q-19 -31 -25 -37l-58 -52l30 -35q31 -39 35 -48q6 -14 10 -57q5 -47 5 -57q0 -11 -3.5 -24t-9.5 -25t-14.5 -20t-17.5 -8q-6 0 -12 3q-4 4 -12 28.5t-10 28.5q-21 -12 -37 -12q-39 0 -46 58q-2 18 -9 21 t-48 22q-29 26 -26 51q-3 -1 -9 -1q-7 0 -18.5 11.5t-12.5 11.5q-66 21 -85 46q-16 -3 -22 -30q-3 -12 -5.5 -24t-4 -16.5t-1.5 -5.5q-11 -24 -37 -24q-27 0 -31 16q-3 12 5 90q0 27 -12 55l-24 21q-6 11 -28 44l-24 -9q-9 0 -20.5 9t-13.5 17q-1 5 -1 83q0 50 -16 78 q-3 7 -3 32zM218 325q10 -57 55 -63l4 -4h9q3 6 3 18q0 9 -12 36t-13 30l40 40q21 21 43 21q19 0 38 -28q5 -7 22.5 -20t18.5 -14l15 -21q8 -11 18 -11q3 0 15 7l10 94q-7 24 -20 75q1 9 1 29q0 23 -15 38q-20 -83 -46 -83q-8 0 -15.5 8t-7.5 16v89q0 16 -20 16 q-3 0 -15.5 -7.5t-14.5 -7.5q-9 0 -18 17q4 -16 4 -33q0 -55 -38 -55q-6 0 -28 14q-15 -29 -25 -55q-1 -9 -8 -35q3 -3 3 -31q0 -27 -3 -80z" />
<glyph unicode="R" horiz-adv-x="623" d="M15 465q0 3 15 46t15 44q5 28 3 54l-6 72q-3 30 32 48q18 8 22 8q3 0 6.5 -3t5.5 -3q8 0 34.5 3t33.5 3q5 0 22 -3t21 -3q10 0 34 11l9 -8q9 3 20 3q24 0 63 -13q6 -2 26 -15q22 -12 25 -12q-1 0 0 0.5l4 2t7 3t11 4.5q1 1 42 1q12 0 56 -36q44 -35 54 -50 q2 -4 6.5 -18.5t8.5 -30t4 -21.5q0 -1 -5 -23l-6 -23q-10 -41 -22 -55q-79 -55 -79 -73q0 -5 15 -18q16 -13 19 -21q3 -27 18 -71l45 -58q24 -38 21 -72q-1 -7 -1 -28q0 -8 4.5 -35t4.5 -35q0 -32 -30 -32q-12 0 -24.5 12.5t-14.5 25.5v18q0 11 -6 16q-11 13 -66 28 q-32 -45 -45 -45q-21 0 -31 54q-4 26 -7 70q-2 12 -17 27l-16 16q-2 3 -7.5 21.5t-10.5 22.5q-9 8 -36.5 22.5t-38.5 14.5q-10 0 -15.5 -21t-1.5 -34l7 -23q-1 -35 -1 -80q0 -28 1 -29q-3 -33 -19 -40q-21 -8 -29 -15q-6 -4 -11 -30q-3 -23 -8 -28q-14 -11 -24 -11 q-20 0 -27 39l-8 44q-13 19 -28 19q-3 0 -3 -1t-3 -1q-29 0 -24 75q3 59 -2 77q-8 29 -7 58q0 8 4 36t4 37q0 10 -5 23q-38 41 -38 59zM240 530q0 -5 3.5 -21.5t3.5 -20.5l7 3q2 -2 11 -21q6 -13 24 -13h10q17 0 91 44q7 13 7 27q-1 9 -9 17l-43 -34q-8 0 -13.5 4.5 t-8.5 9.5t-5 15.5t-2.5 16t-1.5 17.5q-8 -9 -27 -22q-14 -5 -40 -4q-7 -13 -7 -18z" />
<glyph unicode="S" horiz-adv-x="609" d="M28 505q0 19 35 81q57 100 89 114q7 3 38 5q29 1 39 9q17 19 27 29q17 16 35 16q7 0 37.5 -8.5t38.5 -8.5q12 0 33 1l32 1q23 2 70 -12q49 -12 65 -24q18 -10 18 -55q0 -6 -3 -20.5t-6.5 -30.5t-3.5 -19q2 -29 -2 -74q-6 -27 -28 -27q-14 0 -35 52l-24 51q-7 1 -15 -13 q-13 -22 -24 -33q-31 0 -36 30q-8 52 -11 56q-9 0 -22.5 -1t-33.5 -3t-34 -3q-10 -10 -26 -18q-36 -20 -36 -38q0 -9 12 -19.5t26.5 -17t24.5 -6.5q3 0 4 1.5t3 1.5q10 0 32.5 -30t24.5 -30q3 0 27 10t38 10q10 0 47 -27l37 -27q34 -27 38 -84q-1 -33 -1 -98q0 -6 9 -59 l7 -41q0 -47 -22 -47q-8 0 -30 11q-18 11 -27 20l-39 -28q-32 -23 -38 -23q-2 0 -4 1.5t-4 1.5q-15 0 -29 -33l-14 -48q-13 -28 -40 -28q-25 0 -32 28q-10 45 -14 51q-16 27 -67 27q-2 0 -10.5 -1.5t-11.5 -1.5q-2 0 -2.5 -1.5t-2.5 -1.5q-9 0 -59 26q-8 0 -26 -20t-32 -20 q-33 0 -33 37q0 5 3 24.5t3 25.5q-1 60 0 120q0 5 6 13t13.5 14t12.5 6q2 0 16.5 -7t15.5 -7q26 -3 63 -16q7 -5 37 -36q23 -23 41 -23q5 0 32 10t32 10q3 0 14.5 -4t13.5 -4q14 0 32.5 17t18.5 30q0 19 -16 26l-92 32q-24 9 -54 16q-1 1 -7 5t-11 7.5t-12 6.5t-11 3 q-1 0 -23 -9t-23 -9q-26 0 -33 13l-8 28q-5 16 -23 26l-29 17q-5 6 -13 34t-8 40z" />
<glyph unicode="T" horiz-adv-x="557" d="M16 673q0 66 48 66q2 0 10 -3t11 -3t15 -3t16 -3q8 0 33 7.5t33 7.5q4 0 31 -7.5t33 -7.5q18 0 56 21q38 22 40 22q8 0 45.5 -10.5t43.5 -11.5l72 -3q42 -6 54 -37q8 -21 8 -36q0 -55 -38 -78q-1 0 -23 -2q-19 -67 -42 -67q-7 0 -21 35q-13 36 -25 36q-32 0 -33 -22 q-5 -55 1 -73q3 -11 3 -16t-8 -13l4 -3q2 -14 2 -46l-1 -3l-2 -6t-1 -5q0 -23 10.5 -123.5t10.5 -122.5q0 -56 -24 -78q-13 -8 -30 -25q1 -8 -1 -37q-21 -75 -49 -75q-15 0 -27 67t-19 67q-2 0 -8.5 -1.5t-8.5 -1.5h-12q-6 3 -12 18q-3 9 -2 40l1 49q-2 29 -7 60l-7 41 q0 5 11.5 39t11.5 39q0 3 -9.5 21t-9.5 20q-5 22 -8 137q1 7 1 22q0 13 -10 16q-51 15 -68 15q-2 0 -16 -29q-13 -28 -27 -28q-12 0 -28 12.5t-21 25.5q-3 7 -3 43q0 6 -2 26.5t-2 26.5z" />
<glyph unicode="U" horiz-adv-x="666" d="M30 473q0 6 9 34q12 37 12 57q0 8 -2 42t-2 41q0 19 14 77q8 16 19 23q1 0 5.5 -4t7.5 -4h22q5 0 25 7t25 7q30 0 58 -22l15 -106q9 -65 9 -69q0 -9 -4 -46.5t-4 -46.5v-106q0 -38 25 -75q27 -43 62 -43q13 0 60 16q15 0 39 10q16 12 25 75q-1 1 -1 26q0 42 1 74 q-2 9 -11 20l-15 21q-2 6 -2 31l8 36q8 38 8 55q0 7 -1.5 30t-1.5 30q0 46 22 74q77 16 108 16q2 0 9 -3t9 -3q16 0 29 -15.5t13 -33.5v-90q-2 -12 -2 -39q0 -34 -3 -121l-4 -62q0 -9 7 -46t7 -46q0 -10 -9 -42l-13 -46q-4 -12 -4 -43q0 -5 1 -23t1 -24q0 -34 -14 -57 q-22 0 -45 26l-21 25l-7 -6l-14 -10l-7 -6q-22 -9 -42 -9q-4 0 -18.5 3t-18.5 3q-2 0 -10.5 -3t-11.5 -3q-2 0 -12.5 3t-14.5 3q-24 0 -38 -68q-22 -45 -46 -58q-7 9 -32 81q-12 53 -29 61l-50 8q-46 7 -67 61q-4 6 -25 96q-8 35 -8 123q0 6 -1 13v12q0 8 -22 29t-22 30z " />
<glyph unicode="V" horiz-adv-x="665" d="M3 685q0 23 18 42q8 8 40 8l10 8q3 0 12 -4t11 -4q1 0 23 8.5t23 8.5q65 0 73 -68q4 -41 13 -60l44 -52q30 -36 30 -57q0 -7 -22 -42q-7 -11 -7 -25q0 -2 9 -23l43 -105q6 -14 20 -14q19 0 41 99q18 48 32 92q4 12 4 49t3 50q13 61 52 144q2 4 13.5 10.5t15.5 6.5 q8 0 43 -4t43 -4q2 0 5.5 3t5.5 3q3 0 13 2.5t13 2.5l41 -12q0 -4 3 -17.5t3 -17.5q0 -21 -26 -62q-26 -40 -29 -48q0 -3 -5.5 -20t-5.5 -20q0 -13 7.5 -67t7.5 -67q0 -26 -35 -26q-17 0 -32 40q-3 -3 -13 -16l-21 -91l-20 -54q-14 -34 -15 -57q-5 -43 -40 -90 q-18 -13 -55 -43q-14 -45 -17 -53q-17 -50 -41 -50q-10 0 -30 45q-20 47 -23 48q-14 -1 -41 8l-21 51q-14 18 -50 80l-21 69q-45 101 -57 183q-7 13 -17 13l-17 -8.5t-18 -8.5q-18 0 -20 29q1 -3 3 35q3 51 3 57q0 40 -14 73q-8 19 -8 22zM19 504v-6v6z" />
<glyph unicode="W" horiz-adv-x="964" d="M34 600q-1 33 7 45q43 58 49 64q33 39 62 48q-3 6 4 6q2 0 4 -3t4 -3q1 0 5.5 1.5t6.5 1.5q12 0 29 -44q-1 -16 2 -57q7 -25 11 -46q-2 -23 3 -63q9 -7 32 -37q8 -20 12 -82q5 -54 19 -68q31 22 29 87l-1 34q12 22 30 63q16 70 47 172q5 10 32 20q28 12 40 12q4 0 20 -13 t22 -13q4 0 26 9t25 9q32 0 38 -40v-44q45 -60 45 -99q0 -6 -5.5 -27t-5.5 -25q0 -7 12 -39.5t12 -35.5l16 -91q1 -7 29 -14q18 16 21 51q0 7 1.5 21.5t4 39.5t4.5 47q6 71 24 129q0 26 8 88q3 12 20 26.5t29 14.5q5 0 24 -2.5t24.5 -2.5t27.5 5.5t28 5.5t15 -10t15.5 -22 t6.5 -18q0 -9 -8.5 -47t-8.5 -47q0 -6 6 -36t6 -37q0 -48 -25 -48q-2 0 -6 1t-5 1q-4 0 -10 -4.5t-11 -10t-6 -9.5q-10 -70 -25 -116l-32 -90q-6 -51 -21 -140q-4 -14 -18.5 -41.5t-22.5 -27.5q-3 0 -13 9l-18 16q-14 -8 -15 -48q-1 -50 -8 -68q-11 -29 -37 -29 q-24 0 -32 38q0 7 -1 22t-1 22.5t-1 20t-2.5 19t-4 13.5t-6 10t-8.5 3q-53 -23 -54 -23q-16 0 -17 24q2 28 4 106q-11 16 -24 54q2 29 0 86l-34 60q-5 14 -8 38q-2 26 -6 38q-3 0 -9 -8q-9 -34 -31 -103v-19q0 -7 -12 -46l-22 -74q-28 -97 -68 -115q-10 -4 -31 -8 q-10 -1 -13 -9l-7 -43q-4 -13 -18 -24t-28 -11q-24 0 -30 15q-1 34 -16 106q-2 8 -19 36t-19 35q-6 22 -18 111l-68 20q0 9 7 44t7 44q0 16 -13 104q0 5 -7.5 31t-7.5 32q0 5 2 11z" />
<glyph unicode="X" horiz-adv-x="669" d="M39 131q0 23 62 93q6 8 6 20q0 4 -1 15t-1 14q0 16 9 25q20 9 54 30q3 2 23 48q6 7 24 34q18 36 18 55t-64 84q-61 62 -78 71q-10 6 -22.5 20t-12.5 23q0 30 43 55q31 18 58 23l29 -1q4 0 14.5 2.5t12.5 2.5q16 0 35.5 -7.5t23.5 -16.5q-2 -20 5 -48q3 -6 55 -52 q2 -3 17 -39h14q5 6 13.5 26.5t11.5 24.5q24 22 59 63l21 45q1 3 22.5 12t26.5 9q6 0 26 -4.5t26 -4.5t27 6t27 6q44 0 44 -42q0 7 -2 7q-3 0 -15 -38q-17 -54 -19 -66q-1 -7 -1 -50q-4 -40 -24 -40h-9q-16 0 -28 13.5t-12 29.5q-17 -14 -23 -36q-8 -29 -12 -35l-20 -28 q-20 -48 -20 -62q1 1 4 1l-2 -1q2 -2 1 -3q28 -32 81 -82q8 -8 11 -28l3 -21q1 -2 23 -23q44 -39 44 -75q0 -15 -12 -45q-1 -2 -21 -9t-24 -7q-2 0 -10 1.5t-11 1.5q-10 0 -21 -8q-3 -87 -51 -96q-13 6 -21 65l-7 77l-18 22q-1 2 -3 7q-5 11 -7.5 15.5t-6.5 11t-8 10.5 t-11 10q-18 15 -21 21q-6 10 -15 82h-6q-17 -53 -38 -82q-20 -21 -47 -63q-5 -28 -22 -72l-39 -21l-59 -24l-8 -43q-9 -26 -37 -26q-15 0 -23 39l-7 44q-13 13 -36 14q-18 1 -18 20z" />
<glyph unicode="Y" horiz-adv-x="626" d="M10 658q0 48 50 59q1 0 11 6.5t12 6.5q3 0 12 -3t18 -5.5t12 -2.5q8 0 32 5.5t31 5.5q21 0 46 -58l28 -65q5 -5 36.5 -29.5t36.5 -24.5q6 0 18.5 5.5t12.5 8.5q3 11 17 46q26 44 42 97q3 10 35 45q18 0 63 5l17 11q17 11 25 11q14 0 28 -4.5t24 -13.5t10 -21 q0 -11 -4 -24l-6 -24q-2 -14 -2 -70t-1 -65q-1 -15 -19 -15q-16 0 -30 15q-13 16 -16 16q-25 -25 -31 -42q-10 -28 -56 -77q-7 -21 -16 -40l-26 -34q-17 -24 -20 -37v-94l1 -143q-15 -15 -30 -37v-80q0 -11 -17 -27.5t-29 -16.5q-25 0 -32 46l-4 49q-2 8 -7 12.5t-18 8.5 t-16 5q-15 12 -23 40v19q0 8 7 45t7 45q0 7 -7 26.5t-7 21.5q0 8 7 37t7 38q0 39 -24 76q-40 37 -47 43q-11 26 -36 65q-8 12 -23 17q-5 -4 -23 -28q-9 -12 -24 -12q-24 0 -28 15q0 31 -7 77q-17 46 -17 64z" />
<glyph unicode="Z" horiz-adv-x="604" d="M32 683q0 62 127 62q24 -12 94 -12q12 0 114 9q3 0 12.5 4t11.5 4q7 0 32 -4t33 -4t42 10t41 10q32 0 32 -47q0 -14 -2 -30l-3 -18v-78q0 -6 5.5 -26.5t5.5 -26.5q0 -13 -11 -28t-23 -15q-11 0 -27 15l-17 14q-14 0 -27 -22q-10 -26 -39 -72q-11 -12 -30 -27 q-22 -15 -32 -25l-52 -68q-42 -39 -39 -58q18 -8 33 -8q2 0 24 13q23 13 39 13q8 0 32 -6t31 -6q8 0 39 10t39 10l22 -4l15 -3q6 -6 12 -23q5 -130 5 -151q0 -64 -35 -64q-18 0 -38 29l-18 28q-3 0 -13.5 -3t-12.5 -3q-5 0 -25.5 7t-24.5 7q-17 0 -20 -28q-1 -14 -2.5 -20.5 t-6 -12.5t-13.5 -6q-39 0 -61 85h-68q-4 -1 -12 -17q-8 -26 -14 -41q-15 -40 -34 -40q-27 0 -34 48q-7 43 -7 45q-6 15 -34 15q-38 1 -57 27q-7 10 -7 42q0 42 18 74q7 12 34 34q30 24 36 32l94 120l11 27q4 10 53 58q15 18 12 42q-1 1 -27 6t-29 5l-18 -8q-15 -7 -21 -7 l-12 1l-21 1q-5 0 -9.5 -1.5t-8.5 -5t-6.5 -6t-5.5 -8t-4.5 -8.5t-5 -11t-5.5 -11q-17 -38 -41 -33q-19 30 -40 77q1 0 1 11.5v43.5q0 15 -3 33zM38 572v-1v1z" />
<glyph unicode="[" horiz-adv-x="630" d="M314 358q0 1 10 27.5t10 27.5v148q0 67 25 83q11 8 100 27q2 -4 6 -8q32 8 62 8q5 0 13.5 -3t16 -7t14 -8.5t8.5 -7.5q10 -14 10 -49q14 -67 14 -78q0 -17 -9.5 -33.5t-22.5 -16.5t-20 21q-12 30 -13 31q-17 -17 -25 -17t-16 14q-6 14 -13 14q-13 0 -13 -13v-20 q0 12 2 -1q0 -6 2 -20q3 -25 3.5 -51.5t1 -52.5t3.5 -50l10 -84q-2 -15 -1 -29q10 -30 16 -30q3 0 14.5 3t15.5 3q38 0 47 -35q3 -12 3 -68q0 -86 -45 -86q-20 0 -23 29l-2 2q-2 1 -5 1q-5 0 -24 -36q-18 -36 -33 -36q-35 0 -35 38q0 23 -9 27q-13 1 -20 2t-17 3.5t-15 6 t-9 9t-5 13.5q-8 99 -3 171q5 70 4 71q-15 17 -29 37q-4 7 -4 23z" />
<glyph unicode="\" horiz-adv-x="495" d="M74 714q0 36 23.5 62.5t56.5 26.5q4 0 16.5 -3.5t16.5 -3.5q8 0 14 7q71 -141 102 -224q3 -8 16.5 -61.5t19.5 -63.5q5 -8 19 -25q15 -15 19 -25l30 -90q16 -48 33 -79l29 -37q18 -23 18 -43q0 -7 -3 -28.5t-3 -28.5q0 -24 13 -51l23 -47q13 -27 13 -51q0 -10 -1 -13 q-27 -25 -45 -37l-9 -53q-7 -43 -38 -43q-24 0 -34.5 18.5t-15.5 54.5t-9 43q-15 12 -22 14q-33 36 -34 54l-10 90q-9 65 -23 81q-13 -13 -24 -13q-26 0 -36 43q-8 34 -5 46q2 14 2 18q0 40 -22 96l-30 78l-17 76q-11 50 -23 73l-37 68q-23 44 -23 71z" />
<glyph unicode="]" horiz-adv-x="796" d="M477 518q0 27 13 78q0 1 2 22q2 29 33 44q18 9 28 9q7 0 31 -4t32 -4q2 0 2.5 4t2.5 4q10 0 32.5 -5t43 -11.5t27.5 -10.5q23 -14 23 -71q0 -1 -0.5 -9t-1 -23.5t-0.5 -32.5q-2 -44 -1 -71t12 -52q10 -20 10 -27q0 -16 -14 -33q-17 -21 -20 -27q-4 -10 4 -71q4 -26 1 -55 l-5 -42q3 -30 1 -74q-2 -23 -64 -36q-3 -1 -5 -1q-3 -4 -6 -29q-2 -19 -9.5 -26t-24.5 -7q-18 0 -34 36t-23 36q-1 0 -11 -16q-9 -16 -19 -16q-46 0 -46 86q0 55 4 68q9 35 46 35q3 0 15 -3t15 -3q12 0 15 23v33q0 10 10 90q7 58 4 95q-1 6 4 47l4 30v23q-1 10 -12 10 q-8 0 -14 -14q-5 -14 -15 -14q-7 0 -26 17q-16 -52 -33 -52q-31 0 -31 50z" />
<glyph unicode="a" horiz-adv-x="533" d="M8 227q0 25 18 68q12 17 26 40q3 20 5 28q9 27 31.5 47t46.5 20q4 0 19 -4t19 -4q7 0 25 15q18 16 23 18q5 4 44 8q57 7 51 45q-26 14 -33 14q-5 0 -24 -6t-24 -6q-9 0 -12 3l-5 -6q-4 1 -11.5 -7t-19.5 -25q-23 -33 -34 -33q-31 0 -35 54q-4 0 -18.5 -4.5t-17.5 -4.5 q-29 0 -29 57q0 42 17 57.5t62 29.5l34 11q7 0 24 -3t34.5 -6t21.5 -4q35 2 94 -3q89 -8 108 -43q8 -13 9 -51q2 -42 9 -58q15 -35 26 -65q10 -24 10 -43q0 -12 -11 -26l-17 -23q-4 -7 -4 -37q0 -11 9 -60.5t9 -60.5q0 -49 -32 -49q-21 0 -67 40q-4 0 -36.5 -17t-36.5 -17 q-6 0 -25 5.5t-25 5.5q-2 0 -11 -8t-11 -8q-8 -4 -24 -4h-31q-3 0 -2 -2.5t-1 -2.5q-1 0 -32 12l-32 13l-24 -28q-26 -29 -33 -29q-27 0 -27 29q0 7 4 29t4 29q0 19 -26 45q-12 12 -12 25zM202 245q14 -6 23 -6q3 0 13 1.5t12 1.5q5 0 20.5 -11.5t21.5 -11.5q8 0 27 15 t24 22q5 5 5 30q0 11 -17 26q0 13 -14 32q-10 -26 -15 -34q-11 -19 -25 -26h-8q-9 5 -15 11l-9 18q-11 17 -17 17q-21 0 -25 -40q0 -30 -1 -45z" />
<glyph unicode="b" horiz-adv-x="593" d="M16 532q0 18 16 49q12 25 11 103q-1 61 8 86q2 4 23 25q4 4 14 4q5 0 23 -4t24 -4t28.5 5.5t29.5 5.5q10 0 18.5 -4.5t13.5 -12.5t5 -18q0 -7 -7 -32.5t-7 -33.5q0 -10 10 -86v-26q0 -19 6 -27q9 1 32 15t28 14h8q2 0 16 -6t17 -6q2 0 13 4t23 9t23 9t13 4q21 0 31 -13 q10 -15 37 -44q20 -7 62 -29q0 -21 11 -24q7 -19 9 -40q0 -28 4 -68q17 -57 17 -68q0 -13 -9 -32t-18 -19q-23 0 -25 -1q-5 -1 -9 -3.5t-7 -4.5t-6 -6.5t-4.5 -7t-3 -8.5t-2.5 -9t-2 -10.5t-1.5 -10.5t-1.5 -12t-1 -12q-1 -10 -17 -13q-2 -6 -5 -10q-21 -6 -63 -30 q-16 -13 -15 -44q-29 -35 -43 -35q-5 0 -18.5 30t-25.5 30q-4 0 -32.5 -11.5t-33.5 -11.5q-2 0 -4 1.5t-4 1.5q-30 0 -39 -31q-11 -89 -33 -89q-18 0 -34 60q-15 60 -24 60q-3 0 -12 -3t-11 -3q-14 0 -27 16q0 1 3 52l2 31q-1 -1 -4 33.5t-5 74.5t-1 52l8 88q0 31 -7 42 q-25 44 -25 58zM219 419q0 -4 10 -30t10 -30q0 -8 -8.5 -43.5t-8.5 -44.5q0 -2 1.5 -8.5t1.5 -8.5q35 5 37 5q9 0 24 -21t19 -21q5 0 20 36q15 37 27 40q4 1 13 3t11.5 2.5t8.5 2.5t7 4t4 5.5t3.5 7.5t1.5 10t1 14q0 25 -20 67q-26 53 -65 53q-7 0 -17 -6q4 -39 4 -57 q-11 -8 -21 -8q-22 0 -42 62q-5 1 -15 -4q-7 -13 -7 -30z" />
<glyph unicode="c" d="M14 289q0 1 10.5 21l10.5 20q15 46 49 126q5 26 22 74q8 13 28 24t36 16t47 13l13 11q14 11 21 11q3 0 15 -3t16 -3q6 0 32 10t31 10l99 -27q19 -6 51 -23q9 -5 19 -15t17.5 -22t7.5 -20q0 -4 -9.5 -31.5t-4.5 -34.5q0 -16 -9 -35.5t-21 -19.5q-1 0 -6 -1.5t-6 -1.5 q-15 0 -19 19q-7 29 -14 39q-2 3 -38 25q-9 -7 -14 -56v-5q-2 -19 -3.5 -28t-5 -20t-10.5 -15.5t-18 -4.5q-21 0 -24 49q-1 44 -4 57q-26 26 -42 26q-36 0 -64 -85q-22 -63 -22 -95q0 -7 5.5 -25.5t8.5 -20.5q10 -8 33 -19q94 -15 119 -15q15 0 47 30t43 30q30 0 50 -27 t20 -62q0 -17 -10.5 -38.5t-22.5 -21.5q-10 0 -15 5l-20 24l-46 -53q-25 -25 -55 -25q-10 0 -43 8.5t-38 9.5q-28 -55 -40 -55q-2 0 -9 -1t-9 -1q-21 0 -31 18q-10 33 -18 49q-16 30 -34 37q-34 14 -36 16q-18 10 -23.5 22t-12.5 40q-1 7 -2 10q-3 15 -37 28q-15 11 -15 32z " />
<glyph unicode="d" horiz-adv-x="577" d="M23 330q0 42 39 109l20 34l15 47q24 63 77 63q9 0 45 -6t44 -6q5 0 21 4.5t20.5 4.5t23 -7t22.5 -7h13q8 30 8 40q0 16 -4 16q-2 0 -3 -1q-10 90 -10 102q0 37 49 37q2 0 10 -1.5t10 -1.5q3 0 13.5 1.5t14.5 1.5t21 4t23 4q37 0 37 -52q0 -7 -4.5 -41t-4.5 -42 q0 -51 6 -129q0 -5 7 -30.5t7 -34.5q0 -15 -7 -30l-16 -39q-3 -7 -3 -23q0 -14 3 -31l-3 -3q-3 -3 -3 -6t4 -18.5t3 -21.5q-3 -31 6 -87q10 -59 10 -86q0 -68 -24 -68q-19 0 -28 15l-21 33q-37 -22 -44 -22q-21 0 -51 37q-11 -8 -28 -14q-49 -9 -104 -9q-5 0 -24 7t-23 7 q-9 0 -16 -34q-3 -13 -6 -22t-6.5 -15t-6.5 -8q-24 -18 -32 -18q-5 0 -17 6l-10 112q-1 11 -9 19q-20 -20 -27 -20q-9 0 -20.5 15.5t-11.5 27.5q0 8 6 40t6 40q0 10 -8.5 53.5t-8.5 53.5zM188 280q0 -46 58 -52q4 -10 23 -45h16q12 40 56 40q1 0 6 -1.5t7 -1.5 q8 0 18.5 45.5t10.5 61.5q0 6 -3 28t-3 28q0 12 5 19h-23q-2 35 -24 35q-5 0 -16 -42q-11 -41 -24 -41q-7 0 -27 27q-19 28 -34 28q-11 0 -19 -4.5t-13 -15t-8 -20.5t-4 -28t-1.5 -29t-0.5 -32z" />
<glyph unicode="e" d="M23 230q0 51 32 171q28 104 43 126q27 37 52 46q12 3 62 21q18 6 22 11q2 0 9 -1.5t9 -1.5q4 0 16 4t14 4q6 0 26.5 -5.5t26.5 -5.5q5 0 20 1.5t19 1.5q29 0 91 -51q29 -15 48 -69q18 -48 18 -86q0 -81 -21 -90q-15 -7 -45 -7q-4 0 -16.5 1.5t-16.5 1.5q-8 0 -18 -27 q-11 -28 -12 -29q-8 -5 -41 -9l-12 15q0 56 -18 56q-1 0 -21 -9t-22 -9q-9 0 -25 10t-21 10q-17 0 -17 -27q0 -31 22 -38q21 -6 28 -10l9 -19q9 -20 17 -20q5 0 31 10t30 10q5 0 23.5 -7t22.5 -7q10 0 48 21q38 22 46 22q13 0 22.5 -11.5t9.5 -25.5q0 -66 -10 -122 q-3 -18 -20 -18q-14 0 -32 15q-16 16 -25 16q-12 0 -61.5 -8.5t-61.5 -8.5q-13 0 -43 11l-18 -39l-11 -51q-10 -30 -34 -30q-15 0 -22 7.5t-8 15.5t-2 31q-2 51 -8.5 71.5t-34.5 33.5q-41 0 -51 16q-4 17 -5 28q-8 26 -23 26q-1 0 -6.5 -1.5t-7.5 -1.5q-17 0 -22 6t-5 25z M231 429q0 -16 13 -16q10 0 31 10q23 10 26 10q6 0 28 -4t28 -4h19q15 1 15 17q0 11 -13.5 29.5t-22.5 18.5q-4 0 -23 -17q-17 -17 -28 -17q-14 0 -20 20l-6 32q-47 -61 -47 -79z" />
<glyph unicode="f" horiz-adv-x="424" d="M11 497q0 6 4 13.5t9.5 13.5t13 10t13.5 4q18 -3 29 -8q14 0 14 17t-4 26q0 1 -5 10t-5 12q0 22 65 93q45 50 109 50q6 0 33.5 -8.5t33.5 -8.5q3 0 19 5.5t20 5.5q22 0 44 -39q21 -34 21 -59q0 -13 -4 -18q-12 -9 -35 -32q-2 -1 -9 -21q-4 -13 -17 -13q-14 0 -22 23 l-12 34q-7 -3 -39 -8q-19 -13 -19 -47v-12q2 -5 10 -5q87 0 87 -48q0 -4 -3.5 -19.5t-3.5 -19.5q1 -26 -2 -66q-4 -24 -29 -24q-12 0 -17 16.5t-9 49.5q-1 6 -1 9q-10 3 -22.5 -1t-12.5 -12v-89q0 -28 2 -146q0 -4 3.5 -37.5t2.5 -42.5q-1 -4 -8 -18.5l-14 -29t-8 -16.5 q-2 -10 -2 -36v-26q0 -69 -31 -69q-27 0 -27 45q0 1 1 10.5t1 15.5t-1 9q-2 28 -15 48q-3 -4 -20 -31q-18 -29 -31 -29q-24 0 -24 36q0 8 5.5 33t5.5 33q0 15 -13 40q-12 26 -12 30t10 31t10 31q0 1 -8.5 21t-8.5 21q-2 62 -5 91q-1 8 1 30t2 24q0 29 -16 39q-6 -14 -29 -14 q-4 0 -21 9q0 7 -2 32t-2 32z" />
<glyph unicode="g" horiz-adv-x="585" d="M-2 244q0 3 11 36l14 41q3 78 5 98q7 55 37 88q12 12 35 24l39 20q7 11 24 24q41 24 58 24q19 0 71 -24q13 -13 23 -13q1 0 4 1.5t5 1.5l19 -14q20 -14 25 -15q15 35 33 35q2 0 12 -4.5t12 -4.5t15.5 6.5t15.5 6.5q24 7 58 7q6 0 11 -7.5t7.5 -17.5t2.5 -18q0 -11 -7 -55 t-7 -55q0 -6 2.5 -19.5t4.5 -27.5t2 -20q3 -3 10 -15q7 -27 7 -53q0 -10 -16 -32q-18 -25 -21 -36q-1 -30 -10 -168q-5 -10 -13 -34q0 -4 -0.5 -22t-2 -60.5t-2.5 -83.5q-2 -30 -27 -30q-28 0 -39 47q-8 36 -14 45q-2 0 -14 -6t-14 -8q-28 -12 -50 -12q-2 0 -12 -1.5 t-12 -1.5q-11 0 -17 5q1 -3 1 -10q-14 0 -52 -5q-11 -3 -15 -16l-9 -25q-6 -14 -31 -43q-27 -2 -33 28q-1 15 -2 50q-2 36 -17 36l-25 -11l-25 -12q-20 0 -20 37q0 5 4.5 23t4.5 24q-3 24 -2 61q2 9 16 22t23 13q8 0 19 -11q38 -17 80 -18l80 -2q24 -1 44.5 21t17.5 47 l-10 -5q-9 -6 -12 -6t-3 2l-3 1q-2 0 -7 -5.5t-7 -5.5l-106 -24q-31 0 -83 24q-26 12 -37 38l-21 48q-1 11 -14 38q-12 2 -26 8q-15 10 -15 26zM193 319q0 -14 33 -73q1 -9 7 -31q3 -10 12 -10q2 0 18 16t27 16q4 0 15 -3t15 -3q34 0 34 200q-4 -60 -32 -60q-24 0 -32 33 q-4 31 -7 49h-10q-12 -8 -26 -23t-26 -33t-20 -39t-8 -39z" />
<glyph unicode="h" horiz-adv-x="599" d="M16 436q0 7 4 14q1 16 16 74q13 45 13 75q0 6 -2 10v94q0 62 56 62q9 0 33 -18q25 -17 27 -17q5 0 23 4.5t24 4.5q31 0 31 -33l-8 -32q-12 -56 -12 -123q0 -13 7.5 -25.5t18.5 -12.5q1 0 41 31q41 32 63 32q3 0 17 -4t17 -4t14 2.5t15 2.5t18 4.5t18 4.5q14 0 36 -12 q22 -10 25 -23q6 -20 11 -83q4 -49 9 -67t23 -50q10 -17 10 -38q0 -15 -10 -36t-10 -25q0 -2 8 -13t8 -14q10 -90 10 -119q0 -53 -55 -52l-13 -30q0 -4 -7 -32q-8 -29 -24 -29q-11 0 -22.5 14.5t-12.5 27.5q2 24 -4 65q-16 10 -41 40q2 31 -1 71q-11 39 -11 86q0 7 1 42 t1 42q0 45 -13 67h-8q0 -1 -7 -16l-6 -54q-7 -51 -29 -51q-16 0 -20 48l-6 56q-7 3 -25 15q-5 12 -16 27q-15 -2 -18 -19q-7 -38 -7 -148q0 -12 2 -65.5t2 -60.5v-25l-2 -26q-2 -29 -31 -46q-7 -1 -21 -9q-10 -10 -11 -77q-7 -52 -31 -52q-9 0 -15 6l-9 72q-9 41 -54 60 q2 49 -2 100q-1 6 -11 44.5t-10 48.5q0 11 5.5 58.5t5.5 57.5q0 27 -4 35q-2 5 -21 30q-3 5 -3 13z" />
<glyph unicode="i" horiz-adv-x="292" d="M14 254q0 3 11 33.5t11 31.5q6 32 7 76q6 116 55 116q4 0 20 -5.5t19 -5.5l26 7q-3 11 -15 30q-11 11 -35 11q-4 0 -18 -4t-18 -4q-40 0 -40 36q0 21 9 88q2 5 15 23q7 9 31 10q26 2 27 3q0 -10 2 -12q1 7 19 10l24 2q24 11 32 11q23 0 44 -49q17 -40 17 -59 q0 -17 -48 -65q-5 -15 -10 -26q-2 -1 -19 -16q2 -1 39 -12q6 -2 11.5 -9t9.5 -16.5t6 -19.5t2 -19q0 -12 -10 -68t-10 -69q0 -17 10 -91t10 -92q0 -9 -7.5 -28t-13.5 -25q-11 -6 -27 -21q-6 -10 -12 -49q-7 -46 -38 -46q-24 0 -31 51l-6 49q-5 18 -30 30q-37 16 -37 59 q0 6 2 31t2 31q0 16 -5 24l-23 25q-8 10 -8 23z" />
<glyph unicode="j" horiz-adv-x="409" d="M7 -91q0 17 7 59l2 45q8 39 35 39q6 0 34 -16q29 -16 42 -16q14 0 20.5 9.5t7 24.5t-0.5 34l-4 51q-1 7 5 32t6 31q0 5 -5.5 21.5t-5.5 18.5q-6 40 -6 67q0 8 8.5 42.5t8.5 41.5q0 23 -19 35q-10 1 -26 10q-4 4 -4 28q0 -2 1 2q1 1 1 3q1 3 2 5q-1 10 -1 27q0 37 15 51.5 t52 14.5q5 0 27 -6t25 -6q6 0 37 11.5t36 11.5l26 -10h1l1 -1h1h1l1 -1h1h1l1 -1h1q13 -22 8 -85q-6 -73 1 -97q24 -91 24 -99q0 -16 -15 -34t-20 -26t-8 -23t-1 -38q4 -40 0 -55l-22 -66q-15 -40 -15 -65l-2 -114q0 -5 -7.5 -10.5t-13.5 -5.5q-3 0 -28.5 18.5t-26.5 18.5 q-3 1 -12 1.5t-18 0.5t-19 -0.5t-13 -0.5q-10 -12 -29 -54q-15 -33 -30 -33q-23 0 -23 40v15q0 43 -27 43q-1 0 -5 -1.5t-5 -1.5q-4 0 -15.5 7t-12.5 7zM175 655q0 7 9 30q10 23 10 34l-2.5 4.5t-2.5 6.5q2 9 12 22.5t16 13.5q25 -7 41 -9q7 0 28.5 11.5t27.5 11.5 q22 0 28 -11t1 -35q-5 -32 -5 -37q0 -6 8.5 -33t8.5 -32q0 -14 -11 -31.5t-22 -17.5q-5 0 -24 13t-23 13t-21 -3t-22 -3q-23 0 -31 3q-5 4 -15.5 22.5t-10.5 26.5z" />
<glyph unicode="k" horiz-adv-x="560" d="M6 541q0 5 13 37q12 31 14 46q1 7 -2.5 30.5t-3.5 27.5q0 49 49 49q3 0 16.5 -4.5t17.5 -4.5q2 0 5.5 4.5t5.5 4.5q3 0 13 -3t12 -3t6 3t6 3l13 9q13 8 25 8q32 0 32 -39q0 -11 -7 -57t-7 -57q0 -7 6 -41t6 -42q0 -9 -15 -27l-16 -19q-4 -9 -4 -27q0 -30 7 -43l17 -11 q21 29 60 70q16 5 41 21q5 10 14 26.5t13 24t11.5 19t16 21.5t19.5 22q14 11 27 37q12 26 23 35q4 4 33 4q8 0 47 -44q20 -23 20 -27l-10 -27q-11 -30 -15 -61q1 -23 1 -68q0 -27 -22 -27t-30 15l-6 22q-13 -11 -43 -53q-38 -53 -38 -69q0 -14 44 -79q10 -19 45 -65 q23 -15 64 -52q10 -11 10 -44q0 -44 -39 -44q-19 0 -72 15q-7 7 -22 14l-20 -48q-18 -44 -34 -44q-12 0 -20 44q-2 20 -7 61q-4 31 -18 45.5t-39 13.5l2 36q1 37 -15 57q-18 17 -35 35q-17 2 -17 -27q0 -7 4 -31.5t4 -30.5q0 -12 -5 -24q4 -4 3 -23q-2 -23 -11 -58 q-1 -2 -40 -10q-3 -6 -17 -44q-16 -72 -45 -72q-19 0 -25 59q-8 69 -13 76q-13 5 -41 20q0 6 -2 23t-2 23q0 10 8.5 50.5t8.5 49.5t-5.5 50.5t-5.5 51.5q0 11 10 59t10 59q0 18 -3 23.5t-17 19.5t-14 26z" />
<glyph unicode="l" horiz-adv-x="269" d="M14 456l11 49q1 4 2 7q9 44 9 95q0 8 -8.5 45.5t-8.5 45.5q0 20 14.5 39t31.5 19q3 0 19.5 -6t20.5 -6h41q1 0 27 12l26 11q14 0 24 -14.5t10 -31.5q-10 -42 -19 -93q1 -26 -4 -90t-5 -95q0 -11 13 -56t13 -56q-4 -9 -12 -26q-11 -27 -11 -41q0 -17 12.5 -82.5 t12.5 -81.5q0 -22 -9 -35q-13 -9 -24 -28q-1 -7 -1 -21q0 -5 2 -24.5t2 -25.5q0 -44 -38 -44q-17 0 -30 64q-12 64 -20 64q-3 0 -14 -3t-13 -3q-11 0 -20.5 16.5t-7.5 28.5q2 2 -6 134q0 7 -7 56q-4 32 -1 55q0 6 4.5 28t4.5 28q0 21 -35 41q-6 7 -6 25z" />
<glyph unicode="m" horiz-adv-x="874" d="M8 368q3 14 19 63q9 29 9 52q0 8 -7 40t-7 40l18 42q5 4 19 4q8 0 24 -6l2 11h17q3 1 4 0q0 1 8 -6q5 1 21 5q32 7 40 7q25 0 33.5 -8t8.5 -32q11 -14 18 -14l37 27q38 27 66 27q17 0 45 -22q2 0 11.5 10.5t10.5 10.5q3 1 36 1q2 0 24 -18l22 -18q32 -18 34 -18 q6 0 53 40t67 40q6 0 24.5 -5.5t23.5 -5.5q2 0 7 1.5t6 1.5q99 0 109 -133q11 -58 11 -69q0 -6 -5.5 -29.5t-5.5 -30.5q0 -27 22 -116v-44q0 -14 -12.5 -73t-12.5 -74q0 -8 5.5 -42t5.5 -41q0 -15 -18 -51h-9q-13 0 -21 6t-12 20t-5 26t-2 34q-1 35 -15 54q-4 -4 -21 -29 q-19 -28 -30 -28q-22 0 -22 42v57q0 15 -6 21q-36 26 -36 44q4 11 28 69q1 1 1 22q0 7 -6.5 41t-6.5 36q-2 21 1 123q0 10 -14 10q-1 0 -20 -7t-20 -7q-4 0 -17.5 3t-16.5 3q-11 0 -19.5 -13t-8.5 -26q0 -6 2 -27t2 -27q-8 -59 -8 -60v-92q0 -7 3 -31.5t3 -32.5 q0 -2 -3 -6.5t-3 -7.5q0 -6 4 -10q-15 -14 -35 -49q0 -3 3.5 -15t3.5 -16q1 -9 -6 -31q-9 -28 -23 -28q-29 0 -36 49l-5 49h-7q-1 0 -16.5 -9t-16.5 -9h-22q-6 11 -6 25q-1 3 2 85q-1 9 -15 26q-13 16 -13 21q0 7 11 37q11 31 11 46q0 49 -12 116q-1 12 -29 33 q-31 -40 -39 -40q-13 0 -28 37q-9 0 -28 -31q-12 -18 -12 -47q0 -7 3 -32.5t3 -33t-3 -31.5t-3 -32q0 11 -3 -3q-1 -6 -3 -17q-5 -38 -4 -40q3 -37 3 -54q-2 -19 -12 -35q-4 -7 -25 -7q-20 0 -37 9l-29 -76q-7 -7 -14 -7q-33 0 -33 72v30l2 17q-3 11 -9 19q-16 19 -16 52 q0 8 5.5 43.5t5.5 42.5q0 16 -8 26q-20 23 -20 34z" />
<glyph unicode="n" horiz-adv-x="616" d="M21 343q0 8 15 35l15 27q7 35 7 82q0 6 -8.5 35.5t-8.5 36.5q0 81 51 81q8 0 35 -13t34 -13q33 0 48 -7q13 -6 39 -30q16 22 59 59q12 1 43 13q23 20 38 20q16 0 36 -23l17 -19q4 3 19.5 8t28.5 8t15 3q5 0 20 -16t16 -20q7 -21 14 -60q2 -63 8 -128q1 -6 11.5 -42.5 t10.5 -45.5q0 -6 -17 -31q-4 -7 -12 -27.5t-8 -28.5q0 -5 3 -24t3 -25t-2 -14q3 -31 10 -104q0 -74 -79 -74q-39 0 -46 7q-21 17 -21 59q0 4 1 18.5t1 18.5q0 11 -3 15q-12 10 -24 22q-3 6 -3 37q0 20 8.5 104.5t8.5 103.5q0 50 -2 64q-9 44 -45 42q-27 -48 -43 -48t-22 21 q-8 26 -15 33q-25 -13 -23 -69l-6 -84q0 -4 -5 -22t-5 -22q0 -15 4.5 -75.5t4.5 -74.5q0 -4 4 -18t4 -17q0 -16 -10 -42.5t-20 -26.5l-8.5 5.5t-17.5 11l-9 5.5q-8 0 -22 -33t-17 -47h-16q-18 0 -28 21q-3 61 -5 76q-7 42 -37 62q-1 3 -2.5 28.5t0.5 41.5q3 19 3 25 q0 25 -32 68q-13 16 -13 27zM254 434v-4v4z" />
<glyph unicode="o" horiz-adv-x="625" d="M16 364q0 42 27 109q5 12 26 33q23 23 26 36q14 56 67 69l98 19q9 4 85 4q2 0 28.5 -10t28.5 -10q4 0 15 3t15 3q2 0 8.5 -4t8.5 -4q75 -4 97 -92l21 -138q21 -70 21 -93q0 -27 -16 -69q-23 -60 -24 -70q0 -4 2.5 -21t2.5 -22q0 -27 -24 -27q-26 0 -32 20q-5 -9 -18 -13 l-21 -8q-16 -9 -22 -77q2 -2 9 -2v-10q0 -29 -16.5 -48.5t-42.5 -18.5q-9 12 -17 57l-11 64q-10 39 -32 39q-4 0 -20 -1.5t-20 -1.5q-16 0 -74 40q-5 0 -26 -56q-21 -55 -38 -55q-27 0 -34 43l-2 52q-2 14 0 26l1 26q0 33 -9 48q-15 10 -35 34q-4 11 -4 36q1 20 -1 35 q-2 2 -39 16q-9 3 -9 39zM219 418q12 -2 12 -20v-28q7 -29 7 -40q0 -1 -2.5 -17.5t-1.5 -20.5q9 -27 31 -33q6 -2 36 -2q35 0 45 10q16 18 18 32l9 117q0 36 -23 64h-10q-4 -30 -13 -64q-18 -22 -28 -22q-23 0 -40 39l-15 44q-9 -5 -25 -35v-24z" />
<glyph unicode="p" horiz-adv-x="575" d="M8 175q0 14 7 35l9 36q5 38 8 131q0 7 3.5 34.5t3.5 35.5q0 9 -7 50t-7 50q0 77 52 77q7 0 18 -8l15 -14q41 -10 60 -13l24 -11q18 10 61 33q39 16 71 16q3 0 17 -10q14 -8 21 -10q25 -1 77 -5q50 -10 64 -58q14 -5 26 -58l20 -92q3 -8 3 -29q0 -32 -6 -51 q-10 -33 -21 -75l-8 -26v1v-100q0 -18 -10.5 -31t-27.5 -13q-13 0 -33 20l-19 20q-2 0 -8.5 -4t-8.5 -4q-44 -9 -61 -9q-8 0 -36.5 4t-36.5 4q-4 0 -19 -1t-20 -1q0 -3 5 -56l4 -38q0 -69 -37 -69q-2 0 -4.5 1l-2.5 1q-11 0 -18 -13q-5 -8 -9 -41q-3 -34 -10 -41q1 -1 1 -4 q0 -8 -11 -18.5t-19 -10.5q-25 0 -31 58l-3 36q-5 27 -12 31l-31 10q-10 19 -10 47q0 2 5 56t2 69q-1 4 -26 26q-24 23 -24 32zM214 285q0 -13 9 -37q3 -7 25 -18.5t32 -11.5h25q25 0 37.5 4t19.5 18l6 19q7 13 16.5 60.5t9.5 70.5q-12 68 -23 68q-8 0 -21 -19l3 -59 q-1 -9 -9.5 -22.5t-15.5 -13.5h-14q-26 0 -26 39q0 70 -1 72h-10q-4 -5 -28 -15q-4 -4 -14 -12.5t-15 -13.5q-1 1 -1 -3v-16v-15t1 -3q7 -6 7 -18q0 -9 -6.5 -37.5t-6.5 -36.5z" />
<glyph unicode="q" horiz-adv-x="647" d="M16 259q-2 18 9 44q14 32 15 43l14 109q4 5 6 14q3 82 84 124q59 31 139 31q8 0 46 -19q41 -18 57 -18h10q2 1 3 15l3 12q4 22 11 22q1 0 43 -3l42 -3q6 -1 27 5t26 6q45 0 45 -64q0 -9 -2.5 -39t-2.5 -39q0 -21 14 -69q11 -39 11 -48q0 -20 -25 -36l-26 -18l-12 -37 q-6 -70 -6 -154q0 -51 6 -76l10 -29q10 -21 10 -26q0 -54 -10 -81q-3 -9 -56 -45q0 -2 -6.5 -13.5t-6.5 -13.5q-14 -53 -34 -53h-17q-9 30 -9 47q0 83 -14 83q-4 0 -19 -2.5t-19 -2.5q-2 25 -7 52q-9 17 -19 43q-1 6 1 33t2 28q0 43 -21 43q-4 0 -20 -5.5t-19 -5.5 q-4 0 -15 -3t-13 -3q-5 0 -25 4.5t-25 4.5q-3 0 -26 -63t-42 -63q-6 0 -11.5 2t-9 6.5t-6 9t-4.5 12t-3 14t-1.5 16.5t-0.5 17t-0.5 18.5t-0.5 17.5q0 13 -7 31q-7 12 -17 19l-18 10q-7 11 -7 25v26q0 32 -29 37q-17 3 -22 8zM213 354q0 -18 12 -55q15 -46 35 -46q8 0 27 11 l19 12q10 0 26 -11l16 -12q14 0 18 27q21 136 21 156q0 26 -14 31q2 -18 -8 -37.5t-25 -19.5q-21 0 -34 37l-2 5q-1 4 -4.5 15.5t-7.5 22.5h-9q-17 -5 -24 -25l-13 -33q-33 -48 -33 -78z" />
<glyph unicode="r" horiz-adv-x="454" d="M13 309q0 14 11 74.5t11 74.5q0 7 -7 42t-7 42q0 15 19.5 36t34.5 21q1 0 19.5 -7t19.5 -7q2 0 12 5l11 5q19 3 28 5q1 1 6.5 4.5t11 7.5t11.5 7t8 3q17 0 23 -31l4 -46q98 40 126 40q34 0 77 -13q10 -28 12 -30q0 -6 -10 -33t-10 -33q0 -4 7 -25t7 -26q0 -12 -12.5 -23 t-25.5 -11q-2 0 -8.5 2.5t-9.5 2.5q-2 0 -11.5 10t-12.5 10q-19 0 -27 -62q-20 -31 -25 -41h-9q-5 0 -12 10q-5 41 -17 82q-33 -11 -41 -31q-3 -8 -3 -42q0 -4 1.5 -18.5t1.5 -18.5v-69q0 -8 4 -32t4 -31q0 -35 -9 -57q-2 -4 -19 -8t-18 -5q-14 -10 -16 -27q3 -13 2 -49 t-7 -46q-14 -23 -33 -23q-31 0 -35 74q0 9 -1 27v12q0 43 -4 47q-17 7 -41 21q-7 6 -7 26q0 8 5.5 41t5.5 40q0 44 -16 48q-29 9 -29 25z" />
<glyph unicode="s" horiz-adv-x="546" d="M26 218q0 70 26 75l23 4q-2 23 -10 53q-27 32 -27 52q0 3 4 17.5t3 19.5q-4 84 73 148q66 54 132 54q1 0 34 -13t34 -13q-2 0 35 25q9 4 45 4q8 0 39.5 -11t33.5 -16q7 -14 7 -35q0 -20 -25 -86q-5 2 -9 -8q2 -5 -4 -24h-10q-37 31 -51 31q-2 0 -13 -9l-4 -4q-6 -5 -9 -6 t-15 -1h-5q-19 0 -32 24q-12 25 -19 25q-10 0 -24.5 -13.5t-14.5 -23.5q0 -9 10 -19.5t20 -13.5q10 -7 38 -18q49 -4 60 -5q10 -5 31 -12q57 -22 64 -27q24 -19 24 -64v-51l15 -56q10 -33 10 -39q0 -37 -23 -66q-6 -7 -27 -7q-14 0 -37 23q-20 21 -24 23q0 -1 -25 -10 q-8 -5 -43 -8q-8 -2 -15 -13l-9 -42q-8 -24 -29 -24q-11 0 -13 1q-24 22 -27 59q-12 1 -83 14q-8 -14 -18 -48q-7 -24 -25 -49q-5 -1 -13 -1q-32 0 -35 46l-4 68q-17 14 -35 32q-4 4 -4 38zM95 286q7 -6 50 -25q42 -17 50 -17h21q32 0 64 12.5t32 32.5q0 12 -10 19 q-33 2 -97 11q-1 0 -22.5 8t-23.5 8q-10 0 -27 -23t-20 -23q-2 0 -8.5 -1.5t-8.5 -1.5z" />
<glyph unicode="t" horiz-adv-x="442" d="M22 460q0 12 16 59q2 15 11 32q15 9 29 9q2 0 10 -1t10 -1q30 0 28 63q-1 34 1 48q23 21 51 21q4 0 21 -3.5t22 -3.5h38q5 -5 11 -49q8 -45 20 -59l104 9q12 0 20 -30q0 -3 -12.5 -30.5t-12.5 -29.5v-29q0 -19 -0.5 -29.5t-3 -23.5t-9 -19t-17.5 -6q-17 0 -31 20l-22 34 h-7q-9 -20 -16 -56q2 -24 1 -48q0 -1 -8 -44t-8 -48q0 -16 14 -30t30 -14q9 0 31 20q23 20 32 20q6 0 18 -20t12 -27q0 -9 -8 -30t-8 -22q-5 -14 -9 -42q4 -25 7 -89l-6 -23q-12 -35 -40 -35q-10 0 -14 1q-12 16 -21 53q-10 40 -14 51q-5 -8 -20 -8q-1 0 -28 8 q-5 -5 -22 -65q-9 -35 -24 -35h-9q-7 0 -16 11t-10 19q-3 24 -5 80q0 19 -25 44l-33 33q-9 19 -8 75q0 14 -28 42q-27 28 -27 39q0 4 10 20q9 16 11 25q7 24 7 91q-43 13 -43 23z" />
<glyph unicode="u" horiz-adv-x="601" d="M17 353q0 6 7 24l9 27q4 15 20 99q0 21 6 63q0 17 7 41q9 15 38 15q4 0 15 -3t15 -3q6 0 42 11.5t42 11.5q13 0 30 -41q0 -3 -4.5 -20.5t-3.5 -22.5q1 -56 -20 -192q2 -11 4 -37q0 -4 -16 -43q1 -4 22 -9q20 -5 26 -14l14 -28q7 -10 25 -10q20 0 43 29q18 24 21 38 q9 44 9 80q0 10 -5.5 55.5t-5.5 56.5v117q25 18 30 18q6 0 29.5 -7t31.5 -7t34.5 4t34.5 4q20 0 27 -43q6 -35 0 -58q-3 -12 -3 -25q0 -11 8.5 -52.5t9.5 -48.5q0 -4 4.5 -17.5t4.5 -16.5l-17 -25q-18 -26 -19 -30q-38 -116 -38 -129q0 -15 8.5 -75t8.5 -74q0 -5 -5 -13 t-9 -8h-12q-21 0 -51 60q-28 61 -34 61q-5 0 -20.5 -4t-19.5 -4q-6 0 -25 4t-24 4q-8 0 -34 -7t-33 -7q-4 0 -16 3t-15 3q-9 0 -10 -3q-21 -43 -23 -56q-8 -44 -36 -44q-36 0 -32 73q2 44 -10 68q-27 18 -44 51q-1 1 -4 73q-1 34 -28 56q-9 6 -9 27z" />
<glyph unicode="v" horiz-adv-x="592" d="M14 382q0 28 18 100q-2 14 -2 26q0 16 1 26q8 26 34 53q11 12 36 18q26 6 39 10q11 11 14 11l16 -10q16 -9 17 -9q32 -12 43 -54l15 -65q9 -9 27 -37q1 -8 -2.5 -41t-3.5 -36q0 -34 17 -54q10 10 25 51l21 57q9 8 26 29q16 28 17 39l19 106q0 5 12.5 13t18.5 8q7 0 33 -7 t34 -7q1 0 18.5 7t19.5 7h54q4 -5 4 -17q0 -13 -11.5 -63.5t-12.5 -60.5l-1 -36q-4 -21 -16 -40q-12 -1 -24 10.5t-14 23.5q-10 -12 -21 -44l-16 -49q-66 -104 -75 -163q-1 -5 -1 -67q0 -27 -1 -36l-4 -6l4 -5h-17q-9 -1 -26 25q-10 -10 -27 -59q-14 -38 -24 -38 q-8 0 -16 41q-7 45 -22 55q-17 2 -40 10q-4 3 -18 32q-12 28 -12 36q-9 19 -17 29q-45 51 -61 149q-2 12 -29 50q-6 -4 -26 -34q-13 -22 -37 -25q-6 23 -6 41z" />
<glyph unicode="w" horiz-adv-x="831" d="M15 406l16 88q3 18 -7 65q-2 12 10 51q45 32 79 40q1 0 8.5 4t10.5 4q6 0 17 -5t13 -10t8 -38t8 -37q12 -21 27 -63l3 -76q5 -62 20 -83h8q9 23 11 67q25 17 60 129l1.5 3t1 2.5t0.5 2.5q16 45 20 79q1 0 13 6t14 6q13 0 42 -23h8q36 11 52 11q20 0 25 -6q14 -17 23 -73 q11 -68 18 -87q6 -17 7 -59q2 -39 12 -55q14 17 21 39l38 118q21 64 47 114q17 11 22 14l7 14q7 13 14 13q1 0 23 -10t23 -10l55 8q6 -15 5 -42l-1 -36q0 -16 10 -69l9 -48q0 -5 -9 -12t-14 -7q-21 0 -38 20q-17 -23 -26 -69q-20 -103 -44 -184l4 -83q0 -21 -9 -42.5 t-22 -21.5q-24 0 -34 64q-1 11 -10 30q-17 -5 -31 -5q-3 0 -18 5.5t-19 5.5q-7 0 -25 -44t-32 -44q-7 0 -18 8.5t-11 15.5q0 102 -5 134q-1 10 -11 26l-15 25q-5 24 -37 153q-10 -10 -15 -47q-6 -47 -8 -54l-18 -50q-12 -33 -12 -62q0 -8 7 -35.5t7 -35.5t-10.5 -22 t-17.5 -14q-2 0 -16 10t-16 10q-20 0 -37 -11q-4 -3 -10 -72q-5 -62 -32 -62q-28 0 -23 41q5 52 -1 108q-26 9 -58 26q-9 31 -38 100q0 4 -7 53q-4 38 -26 52q-13 -15 -25 -15q-22 0 -22 57z" />
<glyph unicode="x" horiz-adv-x="582" d="M13 142q1 28 35 78l47 69q2 5 33 47q22 29 22 35q0 3 -25 37q-27 38 -39 59q-5 8 -12 8l-13 -15q-13 -16 -23 -16q-11 0 -17 12q-4 49 -4 89q0 34 4 43q0 18 19.5 31t40.5 13q6 0 26.5 -2.5t26.5 -2.5q4 0 18 1.5t18 1.5q23 0 41 -22q11 -13 31 -54q19 -23 23 -28 q10 -22 29 -51l28 54q18 20 35 43q3 9 25 61q11 20 37 20q5 0 20 -1.5t20 -1.5q2 0 13 4t21 7t12 3q3 0 23 -9l22 -10q11 -5 11 -35q0 -28 -11 -39q-15 -13 -23 -35q-4 -9 -4 -76q0 -4 3 -19t3 -19q0 -15 -9 -28q-8 -7 -16 -7q-24 0 -50 54q-9 0 -25.5 -23.5t-16.5 -33.5 q0 -9 45 -66q3 -3 17 -28q17 -40 47 -60q23 -17 23 -50q0 -8 -4 -28l-7 -41q0 -4 1.5 -21.5t1.5 -22.5q0 -46 -34 -46q-12 0 -27 40t-24 40q-1 0 -7 -1.5t-7 -1.5q-11 0 -17 8q-12 14 -15 15q-15 -15 -17 -22q-14 -66 -27 -66q-9 0 -21 31t-10 42v107q-31 0 -31 28q0 7 1 12 v12q0 23 -20 28q-14 -13 -24 -48q-11 -37 -14 -54q-15 -13 -32 -38l-2 -26q-3 -19 -9 -23q-14 -11 -24 -11q-1 0 -5 1t-6 1q-5 0 -22 -50t-35 -50q-25 0 -25 41q0 6 2 29t2 29q0 36 -21 36q-2 0 -9 -1.5t-9 -1.5q-15 0 -34 15z" />
<glyph unicode="y" horiz-adv-x="560" d="M11 540q0 20 14.5 42.5t32.5 31.5l6 -6q4 0 17 -2.5t16 -2.5q2 0 6 2.5t6 2.5q1 0 21.5 10t21.5 10q26 0 39 -34q1 -8 15 -55q2 -5 20 -34q16 -25 16 -32q0 -2 -7 -17t-7 -17l18 -49q1 -4 13 -4q33 0 56 99q17 27 37 65q2 26 17 66q10 15 43 15q4 0 16 -2.5t16 -2.5 q2 0 13 2.5t15 2.5q3 0 23 7.5t23 7.5q4 0 8.5 -4t7.5 -9.5t3 -9.5q0 -9 -6 -37.5t-6 -36.5q0 -11 8.5 -53.5t8.5 -52.5q0 -40 -25 -40q-7 0 -16 11l-20 23q-11 -9 -15 -22l-22 -77q-20 -39 -55 -131q-11 -42 -11 -100q0 -3 1.5 -11t3 -16.5t1.5 -12.5q-6 -38 -33 -38 q-2 0 -8.5 1t-8.5 1q-16 0 -23 -49l-10 -61q-7 -18 -23 -18l-21.5 8.5t-22.5 8.5q-3 0 -5.5 -3t-4.5 -3q-9 0 -29 20q-11 -14 -21 -67q-9 -55 -18 -67q-14 3 -23 13.5t-9 26.5q0 8 3 36.5t3 36.5q0 30 -13 30q-4 0 -4 -1q0 -2 -4 -2q-13 0 -38 12q3 37 56 93 q11 12 34.5 56.5t23.5 61.5q0 21 -33 74q-12 -8 -23 -26q-8 -11 -22 -11q-23 0 -23 47q0 7 3.5 29t3.5 28q0 14 -10 33q-11 21 -12 30l-11 52q-4 19 -27 58q-20 34 -20 63z" />
<glyph unicode="z" horiz-adv-x="576" d="M26 117q0 4 1.5 13.5t3 19.5t1.5 15q-4 54 0 67q4 15 49 38q21 10 47 50l37 62q11 14 48 43q29 23 30 37q-5 5 -7 5q-4 0 -8 -4t-7.5 -4.5t-24.5 -0.5q-12 0 -33 8l-19 7q-17 0 -17 -42q0 -9 1 -12l-16 -20q-2 -2 -13.5 -5.5t-18.5 -3.5q-30 0 -30 22q0 2 1 10.5t1 11.5 v85q0 4 -3 17.5t-3 17.5q0 18 13.5 34t30.5 16q2 0 2.5 -1.5t3.5 -1.5q2 0 8 11q18 -5 52 -5q8 0 42 5.5t41 5.5q2 0 11 -1.5t12 -1.5t28 19t40 19q7 0 33 -23t36 -23q5 0 38.5 11.5t38.5 11.5q13 0 25 -9t12 -21q-3 -25 -1 -83q3 -12 10 -22q4 -4 4 -28q0 -54 -73 -54 q-1 0 -4 1t-5 1q-24 0 -24 -50v-27q0 -9 1 -16v-11q0 -50 -24 -50q-17 0 -36.5 30t-20.5 30q-6 0 -29 -26l-31 -36v-12q4 1 16 1q21 0 74 -8q2 0 14 -6.5t15 -6.5q11 0 65 26q1 0 9 7l16 14t10 7q8 0 18 -12t11 -21q1 -8 -1.5 -37t-2.5 -31q-1 -14 4.5 -65.5t5.5 -60.5 q0 -32 -9 -66q-1 -7 -14 -21h-13q-6 6 -31 49q-14 65 -40 65q-3 0 -16 -4t-17 -4q-2 0 -10 2.5t-11 2.5q-5 0 -27 -21q-21 -21 -34 -21q-16 0 -48 48q-10 -6 -27 -5q-11 1 -23 1q-4 -4 -16 -21l-7 -54q-6 -47 -37 -47q-14 0 -29 60t-23 60q-4 0 -15 -1t-14 -1q-47 0 -47 41z " />
<glyph unicode="&#xad;" horiz-adv-x="591" d="M65 283q0 17 16 42.5t29 29.5q34 12 49 12q3 0 3 -3t2 -3q4 0 23 7.5t24 7.5q1 0 5 -1.5t5 -1.5q17 0 28 11l7 -6l4 1l4 1q0 2 -2 4q76 -17 109 -17q6 0 23 1.5t22 1.5q33 0 58 -16t25 -43q0 -21 -9.5 -41.5t-22.5 -27.5q-33 -15 -67 -15q-6 0 -28 1t-28 1q-5 0 -21.5 -5 t-20.5 -5q-8 0 -35 5.5t-35 5.5q-18 0 -20 -23l-4 -47q-8 -24 -39 -24t-31 35q0 1 1 12t2 21.5t0 12.5q-4 7 -47 14q-29 14 -29 52z" />
<glyph unicode="&#x2000;" horiz-adv-x="401" />
<glyph unicode="&#x2001;" horiz-adv-x="803" />
<glyph unicode="&#x2002;" horiz-adv-x="401" />
<glyph unicode="&#x2003;" horiz-adv-x="803" />
<glyph unicode="&#x2004;" horiz-adv-x="267" />
<glyph unicode="&#x2005;" horiz-adv-x="200" />
<glyph unicode="&#x2006;" horiz-adv-x="133" />
<glyph unicode="&#x2007;" horiz-adv-x="133" />
<glyph unicode="&#x2008;" horiz-adv-x="100" />
<glyph unicode="&#x2009;" horiz-adv-x="160" />
<glyph unicode="&#x200a;" horiz-adv-x="44" />
<glyph unicode="&#x2010;" horiz-adv-x="591" d="M65 283q0 17 16 42.5t29 29.5q34 12 49 12q3 0 3 -3t2 -3q4 0 23 7.5t24 7.5q1 0 5 -1.5t5 -1.5q17 0 28 11l7 -6l4 1l4 1q0 2 -2 4q76 -17 109 -17q6 0 23 1.5t22 1.5q33 0 58 -16t25 -43q0 -21 -9.5 -41.5t-22.5 -27.5q-33 -15 -67 -15q-6 0 -28 1t-28 1q-5 0 -21.5 -5 t-20.5 -5q-8 0 -35 5.5t-35 5.5q-18 0 -20 -23l-4 -47q-8 -24 -39 -24t-31 35q0 1 1 12t2 21.5t0 12.5q-4 7 -47 14q-29 14 -29 52z" />
<glyph unicode="&#x2011;" horiz-adv-x="591" d="M65 283q0 17 16 42.5t29 29.5q34 12 49 12q3 0 3 -3t2 -3q4 0 23 7.5t24 7.5q1 0 5 -1.5t5 -1.5q17 0 28 11l7 -6l4 1l4 1q0 2 -2 4q76 -17 109 -17q6 0 23 1.5t22 1.5q33 0 58 -16t25 -43q0 -21 -9.5 -41.5t-22.5 -27.5q-33 -15 -67 -15q-6 0 -28 1t-28 1q-5 0 -21.5 -5 t-20.5 -5q-8 0 -35 5.5t-35 5.5q-18 0 -20 -23l-4 -47q-8 -24 -39 -24t-31 35q0 1 1 12t2 21.5t0 12.5q-4 7 -47 14q-29 14 -29 52z" />
<glyph unicode="&#x2012;" horiz-adv-x="591" d="M65 283q0 17 16 42.5t29 29.5q34 12 49 12q3 0 3 -3t2 -3q4 0 23 7.5t24 7.5q1 0 5 -1.5t5 -1.5q17 0 28 11l7 -6l4 1l4 1q0 2 -2 4q76 -17 109 -17q6 0 23 1.5t22 1.5q33 0 58 -16t25 -43q0 -21 -9.5 -41.5t-22.5 -27.5q-33 -15 -67 -15q-6 0 -28 1t-28 1q-5 0 -21.5 -5 t-20.5 -5q-8 0 -35 5.5t-35 5.5q-18 0 -20 -23l-4 -47q-8 -24 -39 -24t-31 35q0 1 1 12t2 21.5t0 12.5q-4 7 -47 14q-29 14 -29 52z" />
<glyph unicode="&#x2013;" horiz-adv-x="657" d="M65 283q0 17 18.5 42.5t33.5 29.5q39 12 56 12q4 0 4 -3t2 -3q5 0 26.5 7.5t27.5 7.5q1 0 6 -1.5t6 -1.5q19 0 32 11l8 -6l5 1l4 1q0 2 -2 4q88 -17 126 -17q6 0 26 1.5t25 1.5q38 0 67 -16t29 -43q0 -21 -11 -41.5t-26 -27.5q-38 -15 -77 -15q-7 0 -32.5 1t-32.5 1 q-5 0 -24 -5t-24 -5q-9 0 -40 5.5t-41 5.5q-20 0 -23 -23l-4 -47q-9 -24 -45 -24t-36 35q0 1 1 12t2.5 21.5t0.5 12.5q-5 7 -55 14q-33 14 -33 52z" />
<glyph unicode="&#x2014;" horiz-adv-x="1157" d="M65 283q0 17 37 42.5t67 29.5q78 12 113 12q7 0 7 -3t4 -3q9 0 53 7.5t55 7.5q3 0 12 -1.5t11 -1.5q40 0 65 11l16 -6l9 1l10 1q0 2 -5 4q175 -17 251 -17q14 0 53 1.5t51 1.5q76 0 133.5 -16t57.5 -43q0 -21 -22 -41.5t-52 -27.5q-76 -15 -154 -15q-14 0 -64.5 1 t-64.5 1q-12 0 -50 -5t-47 -5q-18 0 -80.5 5.5t-80.5 5.5q-42 0 -46 -23l-10 -47q-18 -24 -89 -24q-72 0 -72 35q0 1 2.5 12t4.5 21.5t0 12.5q-9 7 -108 14q-67 14 -67 52z" />
<glyph unicode="&#x202f;" horiz-adv-x="160" />
<glyph unicode="&#x205f;" horiz-adv-x="200" />
<glyph unicode="&#xe000;" horiz-adv-x="665" d="M0 0v665h665v-665h-665z" />
</font>
</defs>
</svg>
