<?xml version="1.0" standalone="no"?>
<!DOCTYPE svg PUBLIC "-//W3C//DTD SVG 1.1//EN" "http://www.w3.org/Graphics/SVG/1.1/DTD/svg11.dtd" >
<svg xmlns="http://www.w3.org/2000/svg">
<metadata></metadata>
<defs>
<font id="england_hand_dbregular" horiz-adv-x="858" >
<font-face units-per-em="2048" ascent="1638" descent="-410" />
<missing-glyph horiz-adv-x="489" />
<glyph horiz-adv-x="2048" />
<glyph horiz-adv-x="2048" />
<glyph unicode="&#xd;" horiz-adv-x="489" />
<glyph unicode=" "  horiz-adv-x="489" />
<glyph unicode="&#x09;" horiz-adv-x="489" />
<glyph unicode="&#xa0;" horiz-adv-x="489" />
<glyph unicode="!" horiz-adv-x="653" d="M266 86q0 52 42.5 90.5t94.5 38.5q91 0 91 -104q0 -48 -46 -84q-42 -35 -91 -35q-91 0 -91 94zM1110 1198q90 0 90 -89q0 -53 -104 -177l-150 -166q-143 -169 -430 -506l-33 25l359 577q47 80 94 161q73 120 98 140q44 35 76 35z" />
<glyph unicode="&#x22;" horiz-adv-x="811" d="M715 1163q0 15 -10.5 41.5t-10.5 41.5q0 55 42.5 96t98.5 41q83 0 83 -92q0 -118 -159 -220q-84 -54 -263 -127l-13 29q232 90 232 190zM1088 1160q0 10 -12.5 39t-12.5 47q0 54 42 95.5t96 41.5q86 0 86 -79q0 -123 -154 -231q-109 -76 -265 -129l-12 8l-4 17 q75 31 142 76q94 64 94 115z" />
<glyph unicode="#" horiz-adv-x="1135" d="M266 422h-198v137h219l53 395h-219v140h239l60 422h141l-59 -422h254l59 422h141l-59 -422h170v-138h-190l-56 -397h189v-137h-207l-60 -422h-141l60 422h-254l-60 -422h-141zM483 956l-55 -397h252l55 397h-252z" />
<glyph unicode="$" d="M195 14q-121 48 -121 181q0 63 41 118q45 60 107 60q63 0 63 -50q0 -51 -38 -62q-10 -3 -80 -3q-48 0 -48 -106q0 -40 100 -107l361 461q-68 118 -68 221q0 155 122 260q117 100 274 100q48 0 106 -12l127 160l22 -18l-110 -150q96 -71 96 -172q0 -50 -36 -92t-85 -42 q-57 0 -57 44q0 54 67 60t67 65q0 30 -23 58l-46 46l-323 -416q78 -135 78 -238q0 -160 -137 -279q-131 -113 -294 -113q-70 0 -127 10l-165 -201l-27 19zM333 16q126 0 218.5 87.5t92.5 211.5q0 52 -40 156q-74 -80 -177 -216q-140 -186 -169 -222q43 -17 75 -17zM993 1049 q-53 10 -80 10q-112 0 -181.5 -72.5t-69.5 -185.5q0 -67 32 -137q175 197 299 385z" />
<glyph unicode="%" horiz-adv-x="1305" d="M1403 1040l22 -30l-1228 -1010l-25 31zM256 504q0 163 191 357t354 194q82 0 82 -76q0 -148 -189 -371q-193 -229 -338 -229q-100 0 -100 125zM326 449q0 -14 16.5 -25.5t30.5 -11.5q101 0 288 226q183 223 183 329q0 53 -45 53q-96 0 -286 -238q-187 -233 -187 -333z M772 109q0 156 186 354.5t341 198.5q52 0 74 -18t22 -70q0 -145 -190 -364q-193 -225 -336 -225q-97 0 -97 124zM885 16q106 0 291 226q182 221 182 331q0 54 -43 54q-97 0 -286 -238q-186 -233 -186 -335q0 -38 42 -38z" />
<glyph unicode="&#x26;" horiz-adv-x="1182" d="M1055 1004q119 0 119 -128q0 -89 -135 -178q-91 -61 -216 -106q-45 -173 -57 -342q382 385 496 385q79 0 79 -105q0 -36 -31 -67t-67 -31q-22 0 -39.5 16t-17.5 37q0 40 58.5 45.5t58.5 34.5q0 35 -50 35q-74 0 -258 -169q-17 -15 -237 -236q-3 -24 -3 -37 q0 -120 62 -120q50 0 151 83q82 68 130 127l24 -19q-101 -116 -160 -161q-102 -78 -208 -78t-138 94q-149 -95 -286 -95q-99 0 -156 49q-61 53 -61 150q0 171 200 275q121 63 351 110q141 431 391 431zM649 530q-131 -64 -266 -185q-168 -151 -168 -257q0 -33 42 -53 q35 -17 71 -17q129 0 282 103q0 237 39 409zM1118 903q0 23 -9 54q-13 22 -65 22q-75 0 -142 -141q-48 -100 -71 -209q287 141 287 274z" />
<glyph unicode="'" horiz-adv-x="446" d="M860 1364q-75 -26 -145 -74q-92 -64 -92 -121q0 -4 11 -32.5t11 -45.5q0 -52 -41.5 -95.5t-93.5 -43.5q-86 0 -86 87q0 203 436 354v-29z" />
<glyph unicode="(" horiz-adv-x="1102" d="M1505 1454l13 -31q-348 -244 -789 -862q-413 -580 -590 -1022l-35 6q14 37 76 222q158 466 340 755q205 325 552 616q141 118 269 210q55 35 164 106z" />
<glyph unicode=")" horiz-adv-x="1102" d="M1087 1454l31 -12q-215 -702 -497 -1103q-320 -455 -904 -800l-14 27q357 253 798 863q424 588 586 1025z" />
<glyph unicode="*" horiz-adv-x="1061" d="M1104 1298q0 48 30 48q80 0 122 -91q28 -79 57 -157q18 52 18 153q0 47 27 89q31 46 76 46q39 0 39 -79q0 -55 -62 -111q-22 -20 -76 -102q20 6 104 49q67 35 102 35q25 0 62 -16q42 -20 42 -41q0 -27 -47 -52q-43 -22 -72 -22q-33 0 -97 14t-98 14q64 -42 128 -83 q69 -50 69 -128q0 -45 -23 -45q-80 0 -125 91q-30 78 -61 157q-14 -75 -14 -144q0 -53 -26 -96q-30 -51 -79 -51q-35 0 -35 93q0 46 61 105q68 66 79 101l-106 -52q-76 -36 -103 -36q-25 0 -63 15q-44 18 -44 38q0 28 47 55q41 23 72 23q33 0 98 -14.5t99 -13.5 q-64 42 -128 85q-73 54 -73 123z" />
<glyph unicode="+" horiz-adv-x="979" d="M274 616h392v385h82v-385h389v-79h-389v-390h-82v388h-392v81z" />
<glyph unicode="," horiz-adv-x="489" d="M-76 -195q232 96 232 193q0 9 -12.5 34.5t-12.5 44.5q0 54 43 96t96 42q90 0 90 -82q0 -114 -165 -227q-126 -86 -271 -131v30z" />
<glyph unicode="-" horiz-adv-x="610" d="M274 414h496l-90 -127h-504z" />
<glyph unicode="." horiz-adv-x="489" d="M176 88q0 52 46 87q43 32 96 32q40 0 64 -31q21 -29 21 -70q0 -44 -44.5 -79.5t-89.5 -35.5q-93 0 -93 97z" />
<glyph unicode="/" horiz-adv-x="1182" d="M1550 1386h170l-1448 -1380h-168q121 101 289 266q141 137 281 275q293 279 876 839z" />
<glyph unicode="0" d="M999 1069q119 0 119 -119q0 -143 -152 -379q-148 -228 -342 -397q-211 -184 -355 -184q-157 0 -157 170q0 178 148 398q142 211 346 357q215 154 393 154zM289 16q50 0 176 80q170 109 382 382q232 301 232 468q0 90 -84 90q-107 0 -305 -197q-180 -180 -328 -410 q-153 -238 -153 -347q0 -66 80 -66z" />
<glyph unicode="1" d="M1059 952q-297 -197 -742 -432l-12 27q566 323 844 512h33q-145 -186 -388 -525q-270 -377 -384 -528h-230q153 174 438 475q313 328 441 471z" />
<glyph unicode="2" d="M920 971q0 67 -68 67q-137 0 -306 -136q-175 -143 -175 -275q0 -66 53 -66q125 0 283 275l10 2q10 -2 14 -7q-18 -90 -115 -193q-104 -109 -190 -109q-37 0 -66.5 31.5t-29.5 68.5q0 159 177 303q169 137 332 137q78 0 121.5 -47t43.5 -125q0 -209 -188 -356 q-97 -77 -397 -217q-266 -126 -360 -226q162 57 221 57q44 0 127 -29.5t128 -29.5q57 0 143 129l27 -12q-39 -95 -120 -159q-88 -68 -186 -68q-56 0 -159.5 37.5t-159.5 37.5q-87 0 -178 -73l-17 22q108 88 332 254q83 56 248 170q145 106 276 242q179 187 179 295z" />
<glyph unicode="3" d="M356 477q0 10 4 12q15 11 79 42q70 32 202 112q89 71 163 156q100 116 100 190q0 47 -68 47q-89 0 -226 -88q-147 -94 -147 -176q0 -18 16.5 -38.5t34.5 -20.5q110 0 225 172l25 -15q-118 -188 -256 -188q-33 0 -56.5 23.5t-23.5 56.5q0 124 151 220q135 87 267 87 q69 0 114 -31q52 -36 52 -102q0 -127 -150 -228q-75 -51 -262 -128q61 -5 103 -33q51 -34 51 -90q0 -191 -243 -338q-216 -131 -420 -131q-140 0 -140 126q0 30 24.5 53.5t54.5 23.5q48 0 48 -68q0 -26 -38 -33.5t-38 -21.5q0 -48 69 -48q121 0 338 183q222 186 222 303 q0 27 -24 43q-8 2 -23 2q-34 0 -215 -82z" />
<glyph unicode="4" d="M909 1042h250q-19 -18 -67 -57q-172 -137 -465 -343q-366 -256 -471 -335q88 10 211 10q59 0 194 -12q144 124 295 275h41q-117 -136 -215 -289l37 -2q58 0 125 18v-33q-70 -22 -185 -16l-149 -250h-240l262 264q-96 15 -243 15q-121 0 -242 -51l-16 24q395 282 878 782z " />
<glyph unicode="5" d="M295 522l405 527q86 -29 172 -29q106 0 197 53l16 -24q-167 -146 -309 -146q-60 0 -125 17q-123 -146 -209 -271q145 99 239 99q70 0 121 -50.5t51 -120.5q0 -230 -249 -416q-232 -173 -470 -173q-140 0 -140 129q0 26 28 50t54 24q19 0 33 -24q12 -20 12 -40 q0 -26 -33 -35q-38 -11 -43 -20q6 -56 72 -56q200 0 434 277q59 69 115 168q69 121 69 184q0 68 -59 68q-149 0 -357 -207z" />
<glyph unicode="6" d="M760 669q57 0 97 -40.5t40 -98.5q0 -205 -206 -377q-197 -165 -406 -165q-66 0 -104 52q-34 46 -34 114q0 176 164 400q154 211 373 361q229 156 403 156q47 0 79 -28.5t32 -73.5q0 -34 -18 -61q-21 -30 -53 -30q-56 0 -56 60q0 25 39 31.5t39 23.5q0 45 -57 45 q-129 0 -337 -197q-161 -153 -268 -313q65 46 129 91q80 50 144 50zM293 16q102 0 306 236q202 233 202 340q0 47 -47 47q-131 0 -333 -217.5t-202 -349.5q0 -56 74 -56z" />
<glyph unicode="7" d="M1051 991q-163 -83 -241 -83q-48 0 -126 36.5t-104 36.5q-61 0 -129 -92h-39l221 268h45l-103 -135q86 35 180 35q41 0 118 -24t117 -24q46 0 90 31q38 31 75 62h4q9 0 19 -10q-428 -452 -1053 -1268h-234q340 384 787 811q125 117 373 356z" />
<glyph unicode="8" d="M528 675q0 151 130 273q128 119 280 119q166 0 166 -168q0 -99 -133 -188q-35 -24 -219 -115q41 -99 41 -147q0 -167 -175 -318q-168 -145 -337 -145q-84 0 -140 50.5t-56 133.5q0 134 171 254q123 86 295 143q-23 41 -23 108zM185 165q0 -63 37.5 -102t100.5 -39 q112 0 215 89q107 92 107 203q0 87 -82 221q-145 -48 -249 -134q-129 -109 -129 -238zM1022 913q0 53 -28.5 88t-80.5 35q-93 0 -170 -62q-82 -67 -82 -158q0 -77 68 -187q293 116 293 284z" />
<glyph unicode="9" d="M429 409q-142 0 -142 156q0 198 206 356q193 147 397 147q62 0 109.5 -41.5t47.5 -102.5q0 -176 -162 -404q-154 -216 -371 -369q-228 -161 -403 -161q-51 0 -86 23q-42 27 -42 75q0 90 72 90q20 0 38 -17.5t18 -37.5q0 -17 -21 -36t-40 -19q-5 0 -9 2l-4 -11 q-1 -39 51 -39q92 0 179 57q48 32 145 124q236 224 315 372q-197 -164 -298 -164zM377 483q0 -44 51 -44q119 0 333 205.5t214 322.5q0 73 -66 73q-112 0 -322 -222t-210 -335z" />
<glyph unicode=":" horiz-adv-x="571" d="M410 211q86 0 86 -92q0 -47 -43.5 -87t-90.5 -40q-39 0 -65.5 26.5t-26.5 65.5q0 56 42 91.5t98 35.5zM596 532q0 47 42.5 86.5t89.5 39.5q33 0 63 -27t30 -60q0 -51 -39 -92t-90 -41q-96 0 -96 94z" />
<glyph unicode=";" horiz-adv-x="571" d="M257 -10q0 15 -12 41t-12 41q0 56 41 99.5t96 43.5q89 0 89 -74q0 -126 -155 -234q-111 -78 -269 -128l-8 24q230 103 230 187zM696 657q89 0 89 -96q0 -48 -40 -86.5t-88 -38.5q-96 0 -96 90q0 53 41.5 92t93.5 39z" />
<glyph unicode="&#x3c;" horiz-adv-x="1241" d="M1135 913l-871 -395l871 -395v-139l-1041 471v127l1041 471v-140z" />
<glyph unicode="=" horiz-adv-x="979" d="M195 449h983v-82h-983v82zM193 797h985v-84h-985v84z" />
<glyph unicode="&#x3e;" horiz-adv-x="1241" d="M106 123l871 395l-871 395v140l1041 -471v-127l-1041 -471v139z" />
<glyph unicode="?" d="M387 216q96 0 96 -95q0 -54 -41 -92.5t-95 -38.5q-90 0 -90 92q0 52 39.5 93t90.5 41zM1167 1112q0 70 -61 70q-116 0 -269 -138q-156 -140 -156 -255q0 -62 54 -62q46 0 112 58q52 46 87 98l20 -19q-96 -170 -238 -170q-85 0 -85 107q0 133 176 274q168 135 305 135 q73 0 120 -59q42 -55 42 -130q0 -184 -138 -320q-95 -94 -300 -197q-169 -85 -320 -246l-27 23q96 98 293 288q385 343 385 543z" />
<glyph unicode="@" horiz-adv-x="2079" d="M1083 1024q-130 0 -224 -138q-85 -124 -85 -261q0 -83 44 -139q48 -60 128 -60q125 0 220 146q85 131 85 264q0 71 -47 128q-50 60 -121 60zM1356 1139h139q-50 -168 -147 -503q-37 -137 -37 -165q0 -59 43 -59q123 0 213 165q78 142 78 277q0 237 -169 386 q-162 142 -403 142q-271 0 -449 -193q-173 -189 -173 -462q0 -270 183.5 -454.5t452.5 -184.5q143 0 276 62t222 172h137q-99 -167 -271 -264t-368 -97q-327 0 -554.5 225.5t-227.5 552.5q0 318 227 544t545 226q284 0 489 -175q216 -184 216 -464q0 -206 -140 -391 q-150 -200 -350 -200q-57 0 -93.5 35.5t-37.5 93.5l-4 -2q-117 -127 -246 -127q-131 0 -218 99q-83 95 -83 228q0 214 127 382q139 183 346 183q164 0 236 -159z" />
<glyph unicode="A" horiz-adv-x="1389" d="M395 700q0 134 59 226q70 106 197 106q231 0 344 -336q338 359 405 422q304 286 463 286q8 0 38 -3l14 -8l-2 -9q-35 -36 -75 -98l-66 -104q-245 -358 -680 -1049q155 52 223 146l22 -21q-33 -62 -117 -110q-75 -43 -153 -54l-59 -88h-191l60 90q-115 46 -127 52 q-69 31 -117 69l-27 21q-285 -258 -512 -258q-54 0 -92 34q-41 35 -41 88q0 63 38 118q41 61 101 61q64 0 64 -64q0 -62 -62 -76q-7 1 -31.5 11t-27.5 10q-47 0 -47 -66q0 -36 40 -59q34 -21 72 -21q110 0 250 88q61 38 217 162q-180 218 -180 434zM965 662 q-26 122 -101 213q-87 106 -201 106q-106 0 -168 -98q-54 -84 -54 -196q0 -216 169 -392q215 202 355 367zM897 139q85 177 85 386q0 50 -9 87l-336 -346q83 -67 119 -85q44 -22 141 -42zM1853 1360l-6 8h-12q-115 0 -430 -300q-93 -90 -399 -413q6 -83 6 -153 q0 -40 -31 -242q285 396 678 862q45 52 134 158q23 26 60 80z" />
<glyph unicode="B" horiz-adv-x="1753" d="M1307 1391q-129 0 -256 -29q-248 -57 -463 -210q-264 -189 -264 -402v-17q0 -76 58 -124q54 -44 132 -44q169 0 351 142q151 117 261 286q58 89 113 248h29q-75 -226 -156 -351q-104 -160 -276.5 -260t-303.5 -100q-101 0 -171 46q-82 55 -82 151q0 241 265 442 q217 165 490 230q130 31 295 31q139 0 237 -29q91 -26 218 -98q88 50 201 90l8 -29q-111 -51 -176 -92q137 -99 137 -249q0 -159 -148 -255q-116 -76 -295 -100q171 -91 171 -223q0 -217 -214 -347q-182 -112 -413 -112q-121 0 -121 108q0 127 175 218q128 67 290 94v-29 q-131 -23 -259 -92q-165 -88 -165 -191q0 -70 95 -70q153 0 314 184q157 179 157 335q0 62 -56 116q-85 -6 -107 -6q-33 0 -57 17l-4 6l-2 10l4 8q24 17 39 17q29 0 119 -23q9 3 28 8q133 44 219.5 163t86.5 259q0 47 -46 131q-242 -179 -376 -377q-275 -405 -303 -441 q-169 -219 -348 -321q-218 -125 -523 -125q-110 0 -189 29q-114 42 -114 131q0 71 42.5 119.5t113.5 48.5q67 0 67 -59q0 -88 -82 -88q-13 0 -69 27h-11q-24 0 -24 -46q0 -62 93 -99q73 -29 148 -29q239 0 457 182q111 94 340 374q387 475 752 701q-111 68 -207 93 q-87 22 -225 22z" />
<glyph unicode="C" horiz-adv-x="1427" d="M1352 1405q-169 32 -259 32q-205 0 -410 -103q-245 -124 -245 -308q0 -128 96 -194q68 -46 214 -74q231 245 506 426q349 230 602 230q155 0 155 -109q0 -138 -231 -306q-300 -217 -850 -286q-302 -320 -302 -520q0 -181 216 -181q183 0 383 119q226 135 226 305 q0 51 -48 87q-44 34 -96 34q-305 0 -543 -426l-23 8q75 191 214 314q158 139 346 139q70 0 125 -44q59 -48 59 -116q0 -191 -246 -331q-214 -121 -422 -121q-139 0 -226 72q-92 77 -92 214q0 193 216 455q-136 21 -222 97q-97 86 -97 216q0 216 232 340q190 101 427 101 q167 0 305 -52zM1982 1292q0 93 -110 93q-194 0 -502 -236q-257 -195 -416 -399q501 54 795 266q233 168 233 276z" />
<glyph unicode="D" horiz-adv-x="1548" d="M1536 1106q-147 275 -539 275q-276 0 -520 -152q-279 -173 -279 -432q0 -105 92 -169q81 -57 190 -57q297 0 519 271q67 80 140 268h26l-14 -47q-72 -238 -237 -376q-175 -146 -417 -146q-147 0 -238 70q-102 78 -102 220q0 278 273 450q237 149 533 149q438 0 610 -302 q99 83 285 152v-27q-141 -61 -265 -186q29 -111 29 -182q0 -336 -228 -611q-240 -290 -569 -290q-152 0 -317 61q-217 -61 -356 -61q-250 0 -250 100q0 54 88 80q59 17 133 17t187 -27t182 -60q251 147 573 557q198 252 471 455zM112 148q-46 0 -95 -13q-66 -18 -66 -51 q0 -70 200 -70q132 0 304 60q-184 74 -343 74zM818 14q310 0 549 273q230 263 230 578q0 72 -26 177q-78 -90 -223 -278q-218 -317 -325 -422q-173 -171 -456 -276q121 -52 251 -52z" />
<glyph unicode="E" horiz-adv-x="1305" d="M946 879q-450 6 -450 266q0 158 154 254q132 82 300 82q111 0 258 -51l-10 -17q-106 28 -190 28q-150 0 -295 -72q-175 -87 -175 -222q0 -131 143 -192q104 -44 257 -44q-2 19 -2 54q0 187 290 333q249 125 460 125q141 0 141 -94q0 -110 -174 -231q-128 -89 -277 -144 q-118 -43 -364 -75v-21q0 -23 18 -41q35 4 72 4q56 0 82 -26l2 -11q-14 -28 -43 -28q-47 0 -131 26q-204 -77 -373 -243q-197 -192 -197 -381q0 -77 84 -115q63 -29 150 -29q203 0 403 101q240 121 240 303q0 50 -52 82q-44 26 -98 26q-279 0 -551 -331l-22 -11l-8 9v10 q0 32 106 135q91 89 142 123q149 102 309 102q89 0 146 -36q67 -43 67 -128q0 -125 -151 -242q-117 -90 -267 -139q-121 -39 -274 -39q-152 0 -243 77q-97 82 -97 231q0 389 667 524zM1792 1325q0 68 -92 68q-168 0 -382 -168q-177 -139 -298 -312q167 18 259 41 q120 31 243 99q92 51 166 114q104 91 104 158z" />
<glyph unicode="F" horiz-adv-x="1182" d="M518 449l-20 30q187 126 491 193q351 383 604 567l15 -27q-274 -228 -422 -499h24q53 0 88 20q10 9 29 28q104 98 145 95h5l12 -8v-6q0 -28 -74 -82q-66 -49 -102 -60q-52 -76 -76 -196l-70 -23q20 104 90 203l-90 -20q-379 -679 -957 -679q-282 0 -282 167q0 60 44 110 t104 50q80 0 80 -78q0 -29 -30 -49q-26 -17 -56 -17q-18 0 -42.5 12.5t-27.5 12.5q-33 0 -33 -52q0 -64 92 -97q66 -24 146 -24q253 0 481 273q180 215 272 344q-278 -83 -440 -188zM2095 1362q-170 -111 -375 -111q-185 0 -506 68q-213 45 -290 45q-184 0 -355 -117 q-189 -129 -189 -305q0 -185 221 -185q321 0 575 359q8 12 22 37h37q-97 -193 -256 -309q-173 -126 -376 -126q-117 0 -189 56q-78 62 -78 176q0 224 266 363q221 117 467 117q137 0 405.5 -46.5t405.5 -46.5q80 0 203 47z" />
<glyph unicode="G" horiz-adv-x="1264" d="M784 379q-233 0 -233 228q0 55 32 137q31 78 68 124q-276 70 -276 254q0 167 179 262q146 78 329 78q202 0 258 -55l-15 -16q-171 33 -210 33q-165 0 -316 -76q-183 -92 -183 -240q0 -166 261 -207q197 198 332 283q374 235 612 235q57 0 97 -25q48 -30 48 -83 q0 -127 -178 -247q-126 -84 -295 -140q-120 -41 -432 -72q-225 -243 -225 -336q0 -104 129 -104q144 0 289 75q91 47 249 168q37 30 107 66l10 -2l6 -4l5 -6l-2 -11q-65 -71 -108.5 -156.5t-84.5 -170.5q-99 -192 -322 -295q-198 -92 -434 -92q-307 0 -307 166q0 61 49 106 t111 45q67 0 67 -70q0 -27 -23.5 -48t-50.5 -21q-19 0 -44.5 13t-36.5 13q-38 0 -38 -47q0 -71 108 -104q72 -22 166 -22q150 0 300 96q115 73 250 219q107 120 213 241q-274 -192 -461 -192zM918 887q47 0 81 4q194 23 366 90q208 81 310 203q58 69 58 121q0 78 -115 78 q-268 0 -729 -496h29z" />
<glyph unicode="H" horiz-adv-x="1305" d="M1311 1266q-112 -52 -222 -52q-74 0 -176 70t-161 70q-81 0 -168 -72q-90 -74 -90 -154q0 -137 154 -137q160 0 315 174l18 -16q-45 -92 -137.5 -146.5t-196.5 -54.5q-190 0 -190 180q0 107 138 203q128 88 240 88q118 0 223 -70t162 -70q76 0 172 59l152 108l23 -23 q-163 -92 -366 -325q-167 -190 -298 -398q108 25 320 88q166 185 417 391q326 269 463 269q72 0 72 -53q0 -84 -154 -234q-196 -190 -583 -366q-115 -124 -298 -369q-225 -300 -225 -372q0 -14 39 -23q75 9 213 110q1 0 197 156l22 -27q-311 -276 -436 -276q-67 0 -92 34 q-20 29 -20 99q0 135 114 323q93 152 217 277l-317 -88q-123 -198 -366 -408q-283 -245 -466 -245q-77 0 -77 84q0 137 279 326q188 127 409 225q325 356 680 645zM-17 64q0 -46 37 -46q178 0 568 543q-158 -60 -359 -204q-246 -177 -246 -293zM2125 1388q0 27 -40 27 q-77 0 -314 -239q-167 -168 -290 -320q276 94 497 318q147 147 147 214z" />
<glyph unicode="I" horiz-adv-x="1305" d="M938 975q0 366 649 399q121 3 299 23q128 37 148 37q1 -1 8 -2l6 -9v-4q-15 -22 -66 -33q-38 -6 -77 -12q-113 -20 -304 -252q-146 -178 -239 -344q143 45 352 197l15 -23q-143 -139 -396 -215q-71 -124 -225 -364q-281 -389 -821 -389q-340 0 -340 174q0 59 46 105 t105 46q66 0 66 -53q0 -92 -66 -92q-20 0 -50 13t-34 13q-11 0 -22 -14.5t-11 -26.5q0 -74 104 -110q74 -26 165 -26q481 0 905 730q-217 45 -217 232zM1810 1356q-23 6 -41 6q-327 0 -516 -98q-270 -141 -270 -307q0 -157 193 -187q158 216 279 335q165 162 355 251z" />
<glyph unicode="J" horiz-adv-x="1020" d="M872 748q-11 0 -26 6q-97 37 -137 80q-50 54 -50 148q0 225 257 325q157 61 448 79q82 1 244 11q23 2 78 21q49 16 78 16q17 0 38 -4l4 -15q-33 -36 -161 -43l-62 -35q-117 -66 -282 -251q-159 -178 -224 -308q200 56 348 201l27 -21q-187 -162 -395 -215l-320 -493 l205 108l16 -26q-5 -4 -270 -137q-201 -242 -370 -363q-237 -172 -478 -172q-110 0 -110 92q0 146 290 272q99 42 422 138q176 216 430 586zM-236 -265q0 -49 87 -49q200 0 565 433q-652 -190 -652 -384zM1565 1364h-107q-203 0 -375 -53q-211 -66 -314 -198 q-64 -82 -64 -159q0 -71 57 -125.5t128 -52.5h7q173 210 305 327q138 122 363 261z" />
<glyph unicode="K" horiz-adv-x="1466" d="M1231 1206q-89 0 -207.5 84.5t-202.5 84.5q-120 0 -233 -75q-127 -83 -127 -196q0 -172 195 -172q111 0 199 45q73 37 163 125l18 -17q-114 -115 -163 -145q-83 -51 -211 -51q-96 0 -164 51q-74 57 -74 149q0 145 151 245q135 89 287 89q127 0 278 -79t213 -79 q76 0 172 55q140 81 161 89h6l8 -8l-6 -17q-412 -305 -631 -655q28 10 61 10q18 0 52.5 -9t52.5 -9q70 0 238 181q154 169 309 338q183 181 292 181q86 0 86 -61q0 -34 -20 -60q-23 -28 -55 -28q-41 0 -49 22q-2 6 -2 54q0 22 -23 22q-17 0 -201 -266q-124 -180 -236 -268 q-141 -110 -327 -136q72 -66 72 -165q0 -100 -72 -209q-33 -49 -135 -163q-72 -81 -72 -114q0 -31 37 -31q102 0 451 273l18 -31q-113 -84 -225 -167q-157 -107 -244 -107q-64 0 -90.5 25t-26.5 89q0 105 72 210q67 82 135 164q72 89 72 156q0 50 -69 62q-107 17 -113 21 q-56 -85 -170 -252q-328 -472 -756 -472q-84 0 -139 39q-63 43 -63 124q0 58 47 105t105 47q77 0 77 -64q0 -32 -26 -54t-58 -22q-15 0 -39 9q-28 12 -39 13q-27 -8 -27 -51q0 -53 54 -84q44 -26 101 -26q174 0 361 193q50 52 266 337q188 246 304 365q147 151 368 303 q42 28 70 43q-27 -5 -127 -36q-78 -24 -129 -24z" />
<glyph unicode="L" horiz-adv-x="1466" d="M1126 686q-233 0 -383 65q-208 90 -208 292q0 207 222 333q186 107 410 107q166 0 301 -53l-12 -17q-227 34 -276 34q-215 0 -392 -97q-213 -117 -213 -314q0 -166 180 -251q139 -66 326 -66q12 0 72 2q156 234 383 438q288 260 492 260q48 0 80 -30t32 -78 q0 -113 -149 -261q-111 -110 -248 -192q-124 -73 -406 -158q-194 -297 -246 -353q-117 -128 -362 -241q183 -47 313 -47q192 0 461 240l17 -27q-105 -119 -271 -203q-175 -90 -325 -90q-95 0 -357 62q-238 -57 -405 -57q-221 0 -221 104q0 67 116 107q89 31 173 31 q201 0 452 -101q123 107 240 267zM145 156q-166 0 -166 -75q0 -65 211 -65q160 0 314 52q-89 28 -177 56q-105 32 -182 32zM2103 1305q0 84 -84 84q-137 0 -369 -259q-148 -165 -294 -385q182 23 451 202q296 198 296 358z" />
<glyph unicode="M" horiz-adv-x="1591" d="M1632 246q-176 -132 -212 -157q-153 -102 -229 -102q-103 0 -103 120q0 218 388 659q126 144 572 588l8 20l-4 4q-88 -19 -299 -209q-260 -234 -690 -774q-323 -405 -422 -405q-62 0 -62 87q0 346 850 1140q81 73 169 164l-5 3q-166 -22 -515 -387q-299 -331 -599 -662 q-326 -351 -446 -351q-46 0 -76.5 27.5t-30.5 72.5q0 66 34 114q38 54 101 54q72 0 72 -68q0 -28 -21.5 -54t-50.5 -26q-32 0 -57 15h-4q-31 -11 -31 -45q0 -56 78 -56q91 0 412 366q515 587 606 679q363 366 556 366q22 0 48 -6l10 -8v-4q-16 -27 -82 -104 q-53 -59 -155 -179q-40 -49 -395 -522q-75 -98 -220 -297q-37 -46 -110 -139q-72 -96 -72 -133q0 -14 14 -14q47 0 346 362q404 488 583 672q352 362 526 362q13 0 18 -10v-6q-10 -16 -84 -112q-51 -63 -152 -191q-155 -204 -398 -548q-324 -459 -324 -509q0 -23 28 -23 q59 0 211 102q112 76 199 150z" />
<glyph unicode="N" horiz-adv-x="1389" d="M977 115q162 165 450 598q200 298 276 397q222 287 335 287q119 0 119 -114q0 -55 -32 -93q-35 -39 -90 -39t-55 68q0 43 60.5 52t60.5 42q0 53 -63 53q-142 0 -570 -657q-110 -170 -165 -249q-96 -136 -183 -237q-79 -91 -118 -131q-69 -69 -136 -112q65 121 104 274 q30 144 60 287q55 254 112 400q68 170 201 364q-140 -100 -358 -390q-84 -115 -251 -345q-183 -248 -289 -359q-217 -226 -377 -226q-125 0 -125 138q0 48 43 93.5t91 45.5q75 0 75 -63q0 -27 -22 -53.5t-48 -26.5q-41 0 -64 14q-30 -12 -30 -53q0 -26 31 -46q28 -18 55 -18 q130 0 367 259q145 158 419 524q253 339 328 411q134 131 248 189q-69 -90 -104 -233q-24 -126 -48 -253q-79 -390 -197 -596q-40 -65 -110 -202z" />
<glyph unicode="O" horiz-adv-x="1141" d="M1432 993q74 30 124 93q54 67 54 143q0 147 -208 147q-256 0 -562 -239q-228 -179 -441 -451q-246 -314 -246 -481q0 -189 200 -189q236 0 511 233q221 187 379 437q117 185 117 299q0 52 -28 93q-32 47 -82 47q-133 0 -326 -176q-197 -178 -197 -308q0 -53 76 -53 q97 0 220 138q98 109 155 226l28 -8q-69 -155 -166 -256q-125 -129 -266 -129q-49 0 -76 45q-22 38 -22 90q0 161 204 316q193 147 359 147q75 0 117 -48q39 -45 39 -121q0 -241 -322 -584q-309 -328 -557 -394q-92 -24 -170 -24q-141 0 -215 100q-66 89 -66 235 q0 205 179 436q138 177 350 335q432 321 816 321q100 0 166 -45q75 -51 75 -147q0 -87 -63 -157q-59 -64 -146 -89z" />
<glyph unicode="P" horiz-adv-x="1466" d="M1278 1395q-139 0 -281 -33q-228 -53 -433 -203q-249 -180 -249 -379q0 -72 46.5 -118t118.5 -46q205 0 407 196q174 169 262 386q7 20 25 59l30 -12q-130 -301 -254 -448q-190 -226 -440 -226q-103 0 -168 54q-70 58 -70 159q0 71 57 171q129 227 413 357 q255 118 540 118q243 0 410 -101l153 92l19 -24q-49 -28 -140 -92q78 -76 105 -120q40 -64 40 -152q0 -170 -143 -313t-313 -143q-121 0 -121 109q0 47 53 94q46 40 97 56l8 -23q-119 -58 -119 -137q0 -26 21 -45t47 -19q141 0 254 178q103 159 103 309q0 131 -58 185 l-68 -55q-181 -153 -362 -481q-56 -103 -176 -305q-155 -234 -352 -340q-186 -100 -478 -119q-31 -2 -43 -2q-108 0 -186 31q-107 43 -107 134q0 64 49 111t113 47q72 0 72 -63q0 -34 -25.5 -56t-58.5 -22q-13 0 -40.5 13t-35.5 13q-13 0 -23 -17.5t-10 -31.5q0 -64 86 -99 q65 -26 141 -26q201 0 384 126q142 99 296 294l244 334q277 375 551 537q-165 88 -391 88z" />
<glyph unicode="Q" horiz-adv-x="1225" d="M1618 1237q0 68 -61 108q-54 35 -125 35q-461 0 -969 -622q-307 -376 -307 -571q0 -88 69 -134q60 -39 152 -39q49 0 221 58q-75 172 -156 172q-41 0 -110 -31q-63 -27 -101 -57l-16 22q136 99 253 99q172 0 251 -138l88 62q190 132 359 348q200 257 200 441 q0 139 -131 139q-122 0 -313 -183t-191 -305q0 -55 78 -55q95 0 224 139q109 118 157 227l22 -12q-203 -379 -419 -379q-111 0 -111 129q0 159 203 315q192 148 356 148q158 0 158 -164q0 -195 -243 -495q-222 -273 -421 -381q80 -106 165 -106q96 0 286 183l22 -16 q-108 -113 -192 -162q-110 -63 -242 -63q-103 0 -170 92q-112 -54 -244 -54q-136 0 -214 91q-74 85 -74 224q0 251 235 522q212 245 528.5 414.5t561.5 169.5q103 0 171 -36q87 -46 87 -141q0 -76 -56 -154q-59 -83 -131 -94l-20 14q170 74 170 240z" />
<glyph unicode="R" horiz-adv-x="1632" d="M1277 1397q-306 0 -593 -162q-336 -190 -336 -471q0 -82 62 -126q54 -38 139 -38q216 0 424 228q191 209 237 436l33 -7q-73 -283 -243 -470q-198 -220 -464 -220q-100 0 -161 52q-65 56 -65 155q0 147 130 294q102 115 258 206q252 146 555 146q154 0 249 -21 q116 -25 231 -94q66 32 202 88l9 -21q-118 -46 -189 -92q120 -132 120 -247q0 -174 -148 -281q-122 -87 -312 -111q42 -74 42 -155q0 -102 -69 -205q-36 -54 -127 -147q-69 -70 -69 -95q0 -19 25 -19q74 0 239 105q132 83 221 162l21 -23q-314 -275 -498 -275q-94 0 -94 124 q0 75 76 163q71 76 142 151q77 93 77 179q0 6 -4 33h-19q-37 -1 -77 8q-59 14 -54 41l4 6q19 11 41 11q51 0 119 -41q146 59 248 197q106 143 106 296q0 48 -39 109q-122 -65 -268.5 -253t-255.5 -354q-183 -278 -310 -396q-180 -167 -441 -238q-129 -35 -235 -35 q-113 0 -193 36q-107 48 -107 148q0 53 49 99.5t102 46.5q76 0 76 -62q0 -31 -23 -51.5t-54 -20.5q-14 0 -38.5 10.5t-37.5 10.5q-35 0 -35 -39q0 -147 241 -147q192 0 378 144q132 102 304 320q237 300 263 328q294 322 561 471q-98 68 -203 93q-85 20 -222 20z" />
<glyph unicode="S" horiz-adv-x="1346" d="M517 1037q0 208 216 336q184 110 408 110q162 0 297 -53l-13 -19q-159 33 -264 33q-213 0 -390 -96q-213 -117 -213 -312q0 -174 187 -257q138 -61 339 -61q29 0 53 3q528 693 835 693q91 0 91 -80q0 -125 -242 -343q-219 -196 -512 -297q-196 -285 -249 -351 q-141 -175 -289 -258q-179 -100 -420 -100q-417 0 -417 197q0 68 42.5 115t109.5 47q72 0 72 -70q0 -31 -25.5 -51t-56.5 -20q-19 0 -43.5 13t-34.5 13q-31 0 -31 -51q0 -81 116 -123q85 -31 185 -31q248 0 496 224q187 169 350 440q-58 -2 -71 -2q-196 0 -343 77 q-183 96 -183 274zM2028 1337q0 47 -64 47q-120 0 -347 -264q-141 -164 -284 -379q134 31 315 157q168 118 265 237q115 140 115 202z" />
<glyph unicode="T" horiz-adv-x="1141" d="M1604 1208q-56 -29 -142 -123q-156 -171 -315 -440q-114 -192 -189 -286q-116 -146 -253 -228q-245 -145 -498 -145q-102 0 -178 32q-103 44 -103 132q0 58 46 106.5t104 48.5q74 0 74 -74q0 -25 -23 -46.5t-48 -21.5q-20 0 -50.5 12.5t-36.5 12.5q-31 0 -31 -51 q0 -62 87 -96q66 -26 141 -26q180 0 322 101q101 71 239 244l247 314q230 290 588 557zM2093 1358q-187 -113 -372 -113q-125 0 -294 27q-145 28 -290 55q-166 31 -219 31q-180 0 -353 -113q-192 -126 -192 -297q0 -197 222 -197q197 0 354 120q120 92 249 286l31 -4 q-128 -214 -252 -312q-158 -124 -375 -124q-268 0 -268 231q0 79 59 173q94 148 284 229q171 73 363 73q142 0 423 -45t423 -45q85 0 199 47z" />
<glyph unicode="U" horiz-adv-x="1466" d="M2085 1397q-241 -324 -596 -785q-95 -116 -279 -353q-48 -63 -129 -196q-10 -20 -10 -22q0 -27 43 -27q95 0 440 275l19 -19q-354 -284 -470 -284t-116 115q0 79 82 202q68 91 135 182q-167 -153 -333 -305q-233 -194 -382 -194q-52 0 -84.5 41t-32.5 94q0 126 207 375 q191 217 383 434q206 243 206 355q0 116 -203 116q-179 0 -369 -134q-205 -145 -205 -316q0 -53 36.5 -86.5t89.5 -33.5q150 0 284 160q115 138 153 301h25q-41 -163 -97 -257q-73 -122 -198 -185q-97 -49 -163 -49q-70 0 -117.5 45.5t-47.5 115.5q0 186 226 330 q203 130 400 130q110 0 190 -53q92 -60 92 -165q0 -139 -211 -404q-64 -80 -393 -442q-211 -233 -211 -295q0 -49 45 -49q229 0 760 577q439 477 638 806h193z" />
<glyph unicode="V" horiz-adv-x="1182" d="M956 1184q-90 0 -190.5 98.5t-184.5 98.5q-109 0 -225 -88q-123 -93 -123 -198q0 -150 178 -150q193 0 351 212l22 -18q-73 -121 -156 -173q-89 -57 -225 -57q-89 0 -146 47q-62 50 -62 138q0 145 164 244q143 87 299 87q105 0 182 -49l110 -90q60 -49 121 -49 q99 0 277 127q22 17 57 37l12 -8q-1 -11 -16 -25q-218 -212 -404 -520q-45 -83 -143 -246q-215 -323 -502 -549q-6 -7 -14 -24l10 -6q24 2 84 20q168 51 314 156q181 128 410 381q75 82 271 314q206 244 288 324q216 209 356 209q107 0 107 -93q0 -108 -92 -108 q-24 0 -41 21t-17 45q0 39 36.5 53t36.5 20q0 10 -16 21t-27 11q-32 0 -129 -54q-113 -62 -266 -230q-24 -27 -231 -275q-306 -367 -510 -543q-357 -309 -643 -309q-13 0 -19 12l2 6q18 21 60 68q92 102 192 274q82 146 164 293q111 192 255 338q67 68 314 280 q-190 -73 -291 -73z" />
<glyph unicode="W" horiz-adv-x="1225" d="M655 1192q-97 0 -160 49l-90 90q-51 48 -118 48q-102 0 -204 -83q-108 -87 -108 -186q0 -146 147 -146q199 0 331 175l16 -15q-37 -87 -137 -144q-95 -54 -194 -54q-89 0 -143 45q-59 49 -59 135q0 139 148 233q130 83 278 83q98 0 169 -47q1 -1 98 -88q53 -47 110 -47 q92 0 180 56q79 51 158 103h6q11 0 11 -13t-50 -57q-194 -174 -389 -506q-254 -434 -514 -653q-34 -26 -68 -53q-41 -33 -57 -62l9 -4q190 90 285 163q92 70 233 232q140 178 281 356q213 268 366 407q214 194 362 194q16 0 21 -6l-2 -13q-22 -35 -71 -85q-62 -63 -77 -80 q-85 -105 -208 -302q-142 -226 -201 -307q-221 -301 -385 -440q-49 -35 -131 -115q0 -4 8 -4q18 0 80 29q237 111 491 401q156 178 279 328q247 302 312 370q239 255 368 255q102 0 102 -95q0 -40 -27 -71t-67 -31q-22 0 -40.5 25t-18.5 47q0 35 36 46q40 12 45 31l-6 9 l-8 4h-8q-145 0 -531 -449q-164 -198 -506 -583q-216 -226 -370 -299q-125 -60 -193 -60q-5 0 -28 4l-6 4q0 1 57 64q110 122 225 323q290 508 694 850q34 27 67 54q46 41 46 63q0 5 -2 5t-4 -1q-176 -82 -361 -272q-117 -119 -278 -319q-234 -287 -268 -327 q-165 -193 -283 -289q-194 -159 -358 -159q-13 0 -17 10q10 15 72 80q101 106 258 383q149 264 290 433q166 200 384 352l-136 -48q-81 -26 -141 -26z" />
<glyph unicode="X" horiz-adv-x="1264" d="M1184 1192q0 199 -239 199q-182 0 -363 -100q-210 -117 -210 -284q0 -142 156 -142q303 0 439 411h22q-1 -12 -4 -35q-27 -168 -146 -285q-126 -122 -292 -122q-85 0 -144 41q-68 47 -68 128q0 200 232 319q190 97 412 97q122 0 200 -84.5t78 -207.5q0 -73 -14 -148 q139 148 319 276q232 165 372 165q36 0 66 -17q36 -20 36 -54q0 -139 -206 -305q-137 -110 -333 -210q-79 -41 -367 -146q-350 -465 -350 -604q0 -68 64 -68q68 0 228 105q125 82 212 160l19 -23q-93 -91 -219 -171q-155 -98 -249 -98q-118 0 -118 165q0 108 45 204 q-182 -168 -318 -251q-197 -120 -380 -120q-36 0 -67 25t-31 61q0 168 393 368q261 133 554 223q99 118 174 249q97 172 97 279zM3 66q0 -52 89 -52q169 0 436 231q206 178 355 378q-291 -91 -518 -207q-362 -185 -362 -350zM2003 1335q0 58 -70 58q-154 0 -426 -262 q-228 -219 -342 -404q265 96 498 237q340 205 340 371z" />
<glyph unicode="Y" horiz-adv-x="1305" d="M1124 602q-151 -152 -300 -261q-217 -159 -346 -159q-116 0 -116 144q0 136 177 334q165 165 329 331q177 186 177 291q0 117 -195 117q-192 0 -403 -114q-244 -131 -244 -306q0 -50 39 -80.5t90 -30.5q131 0 293 119q153 114 213 240q8 20 28 61h23q-5 -12 -15 -37 q-69 -169 -212 -283q-154 -123 -327 -123q-166 0 -166 142q0 194 261 329q221 114 437 114q233 0 233 -203q0 -175 -173 -388q-67 -83 -322 -330q-173 -168 -173 -234q0 -59 57 -59q253 0 1127 949q17 19 242 236h174q-469 -447 -1100 -1305q189 84 387 230l20 -31 q-192 -150 -450 -256q-139 -207 -349 -360q-244 -177 -458 -177q-129 0 -129 101q0 127 306 266q216 99 427 147q7 10 227 288q137 173 211 298zM-8 -410q0 -62 94 -62q142 0 319 165q83 77 250 280q-193 -45 -388 -136q-275 -128 -275 -247z" />
<glyph unicode="Z" horiz-adv-x="1466" d="M977 657q-4 0 -13 1t-14 1q-95 0 -209 -47l-18 23q69 32 138 65q51 20 161 19q144 179 479 446h-12q-136 -1 -299 63q-92 40 -185 79q-111 43 -195 43q-113 0 -209 -64q-108 -71 -108 -178q0 -155 191 -155q176 0 346 173l17 -16q-46 -80 -149 -135.5t-197 -55.5 q-244 0 -244 191q0 139 170 232q145 79 297 79q135 0 318 -89q231 -113 306 -132q272 209 435 209q73 0 73 -41q0 -100 -201 -161q-147 -45 -286 -48q-94 -82 -190 -216q-36 -52 -156 -243h57q93 0 176 37l8 -26q-95 -72 -288 -72q-251 -326 -570 -496q121 -20 297 -20 q443 0 527 209h32q-55 -170 -201 -259q-134 -81 -321 -81q-180 0 -467 86q-210 -84 -366 -84q-187 0 -187 90q0 54 99 82q70 20 145 20q215 0 366 -34q242 185 447 505zM136 151q-49 0 -103 -14q-74 -19 -74 -53q0 -62 151 -62q156 0 318 72q-225 57 -292 57zM2019 1362 q0 20 -37 20q-76 0 -202 -67q-105 -57 -181 -123q111 4 163 14q68 14 153 58q104 53 104 98z" />
<glyph unicode="[" horiz-adv-x="1102" d="M1188 1430h340l-33 -37h-160l-1310 -1788h161l-34 -47h-338q69 92 1374 1872z" />
<glyph unicode="\" horiz-adv-x="569" d="M-35 1509h135l504 -1548h-137z" />
<glyph unicode="]" horiz-adv-x="1102" d="M-272 -406h168l1302 1786h-170l29 50h352q-342 -472 -683 -944q-398 -546 -695 -935h-342z" />
<glyph unicode="^" horiz-adv-x="0" d="M1090 1769l22 -272h-37l-88 98l-242 -98l-88 8q49 17 161 86q36 22 272 178z" />
<glyph unicode="_" horiz-adv-x="1139" d="M0 -256v102h1139v-102h-1139z" />
<glyph unicode="`" horiz-adv-x="0" d="M397 1059l62 -223h-41l-219 223h198z" />
<glyph unicode="a" horiz-adv-x="979" d="M932 645h184q-121 -153 -241 -306q-184 -240 -195 -296q8 -10 18 -10q107 0 361 252l20 -27q-65 -75 -189 -165q-146 -107 -214 -107q-42 0 -77.5 36.5t-35.5 77.5q0 20 25 101q-60 -75 -160 -141q-114 -74 -195 -74q-53 0 -87 39.5t-34 93.5q0 192 235 374 q223 173 421 173q100 0 100 -81q0 -16 -6 -34zM213 51q0 -35 39 -35q106 0 342.5 233t236.5 339q0 33 -36 33q-100 0 -341 -235.5t-241 -334.5z" />
<glyph unicode="b" horiz-adv-x="774" d="M686 401q0 84 44 166q52 97 128 97q31 0 31 -43q0 -61 -158 -265q31 -62 85 -62q8 0 67 5v-29q-46 -8 -74 -8q-47 0 -104 53q-153 -156 -221 -209q-147 -116 -269 -116q-121 0 -121 129q0 124 117 276q256 334 509 591q400 407 599 407q51 0 51 -47q0 -102 -178 -269 q-112 -106 -363 -291q-241 -178 -292 -229q-38 -38 -213 -281q-41 -54 -83 -109q-57 -81 -57 -114q0 -35 47 -35q90 0 248 131q125 102 209 207zM1325 1328q0 24 -11 30q-6 4 -32 4q-87 0 -345 -297q-201 -232 -308 -393q696 513 696 656z" />
<glyph unicode="c" horiz-adv-x="692" d="M786 270q-101 -101 -242 -184q-168 -100 -280 -100q-68 0 -108 48q-37 44 -37 113q0 182 238 361q224 168 413 168q119 0 119 -84q0 -53 -29 -95q-32 -47 -83 -47q-61 0 -61 54q0 51 33 67q4 2 60 14q32 7 31 33l-11 19l-12 4l-18 2q-108 0 -342 -232t-234 -340 q0 -55 56 -55q84 0 255 107q133 84 232 172z" />
<glyph unicode="d" horiz-adv-x="979" d="M1413 1270h178l-549 -717q-100 -127 -201 -254q-141 -183 -165 -254q12 -18 31 -18q51 0 183 104q110 86 167 150l22 -23q-69 -78 -192 -167q-147 -106 -220 -106q-103 0 -103 110q0 24 11 98q-182 -205 -345 -205q-119 0 -119 135q0 195 245 374q229 167 433 167 q31 0 54 -19t23 -49q0 -22 -8 -49zM252 14q105 0 342 235t237 341q0 35 -38 35q-97 0 -339.5 -241t-242.5 -339q0 -31 41 -31z" />
<glyph unicode="e" horiz-adv-x="735" d="M231 72q0 -56 78 -56q107 0 282 95q149 81 251 172l18 -23q-327 -272 -555 -272q-180 0 -180 145q0 188 246 364q229 165 426 165q82 0 82 -76q0 -84 -224 -196q-154 -77 -307 -124q-31 -27 -72 -91q-45 -70 -45 -103zM842 612q0 23 -49 23q-68 0 -219 -131 q-107 -92 -195 -191q136 34 275 107q188 100 188 192z" />
<glyph unicode="f" horiz-adv-x="571" d="M96 283q-8 24 -8 47q0 5 7 25q19 53 73 100q50 38 100 75q109 85 268 283q123 157 246 313q71 85 208 178q156 105 243 105q51 0 51 -61q0 -100 -296 -386q-225 -217 -400 -348q-72 -49 -170 -127q-42 -46 -98 -129q-45 -67 -91 -135q48 -9 71 -9q104 0 261 83l12 -27 q-159 -88 -262 -88q-57 0 -104 17q-180 -246 -535 -740h-180zM1237 1339q0 43 -31 43q-102 0 -377 -342q-171 -214 -331 -454q206 160 421 361q318 297 318 392z" />
<glyph unicode="g" horiz-adv-x="979" d="M500 207q-83 -58 -165 -115q-101 -68 -184 -68q-115 0 -115 135q0 175 240 343q224 156 409 156q56 0 72 -31q12 -23 7 -80l74 92h166l-447 -588q7 4 51 21q81 31 198 102q155 94 191 113l15 -25q-126 -83 -500 -270q-427 -527 -739 -527q-97 0 -97 71q0 184 662 456z M-272 -463q0 -45 59 -45q109 0 288 179q128 127 232 276q-191 -76 -341 -163q-238 -141 -238 -247zM739 586q0 33 -40 33q-91 0 -327.5 -226t-236.5 -318q0 -23 28 -23q122 0 349 207t227 327z" />
<glyph unicode="h" horiz-adv-x="979" d="M1309 1380q64 0 64 -60q0 -176 -617 -618q-53 -35 -156 -108q-39 -30 -158 -213q139 123 203 170q143 104 229 104q95 0 95 -112q0 -78 -88 -193q-28 -37 -163 -185q-87 -97 -87 -130q0 -19 28 -19q95 0 392 263l18 -23q-86 -85 -197 -165q-148 -105 -221 -105 q-119 0 -119 113q0 76 85 187q37 48 163 182q92 98 101 134q-3 15 -19 25h-8q-121 0 -471 -351q-92 -91 -225 -270h-197l404 518q271 349 427 512q328 344 517 344zM1327 1319q0 33 -35 33q-90 0 -333 -292l-304 -386q211 134 395 290q277 235 277 355z" />
<glyph unicode="i" horiz-adv-x="489" d="M639 639q-121 -153 -242 -307q-194 -252 -194 -287q0 -18 33 -18q45 0 181 103q121 90 169 144l20 -18q-297 -266 -395 -266q-103 0 -103 115q0 83 139 275q23 31 206 259h186zM748 993q35 0 61.5 -24.5t26.5 -59.5q0 -43 -34.5 -75t-77.5 -32q-89 0 -89 79q0 47 33 79.5 t80 32.5z" />
<glyph unicode="j" horiz-adv-x="530" d="M377 643h192l-481 -620q177 91 438 264l21 -27q-127 -84 -253 -168q-148 -93 -267 -143q-88 -146 -240 -295q-189 -185 -309 -185q-70 0 -70 68q0 97 169 233q136 109 261 162zM-547 -471q0 -25 33 -25q57 0 169 153q9 13 138 210q-340 -210 -340 -338zM557 893 q0 39 36.5 70.5t76.5 31.5q90 0 90 -73q0 -48 -33 -83.5t-80 -35.5q-90 0 -90 90z" />
<glyph unicode="k" horiz-adv-x="938" d="M1341 1376q60 0 60 -71q0 -80 -221 -278q-171 -153 -301 -239q-95 -52 -269 -176q-33 -29 -72 -84q-33 -46 -65 -92q99 77 219 142q154 81 240 81t86 -71q0 -79 -89 -131q-56 -33 -167 -61q-93 -24 -96 -34q-1 -7 26 -38t27 -61q0 -70 -47 -132q-55 -72 -60 -90l6 -12 l9 -4h10q34 0 186 113q132 99 183 149l24 -25q-198 -158 -207 -165q-153 -111 -221 -111q-43 0 -74.5 27t-31.5 69q0 72 58 147.5t58 79.5q0 52 -54 52q-16 0 -34 -5v27q90 10 227 75q163 76 163 143q0 16 -29 16q-165 0 -411 -232q-191 -179 -322 -377h-189 q189 247 377 493q299 377 524 590q302 285 477 285zM1356 1323q0 31 -39 31q-89 0 -339 -282q-166 -187 -306 -378q220 142 397 286q287 233 287 343z" />
<glyph unicode="l" horiz-adv-x="530" d="M639 260q-139 -126 -199 -170q-139 -102 -229 -102q-80 0 -80 118q0 140 251 459q237 303 522 549q307 266 448 266q49 0 49 -53q0 -172 -696 -702q-61 -46 -123 -91q-22 -16 -66 -49q-13 -11 -55 -67q-44 -62 -131 -185q-107 -147 -107 -186q0 -22 33 -22q65 0 367 262z M1354 1317q0 33 -37 33q-104 0 -381 -327q-49 -57 -344 -437q196 134 435 344q327 286 327 387z" />
<glyph unicode="m" horiz-adv-x="1389" d="M412 643h178q-88 -106 -95 -115q-52 -66 -83 -122q84 83 189 158q140 100 212 100q90 0 90 -105q0 -80 -51 -164q72 89 185 170q135 97 223 97q94 0 94 -119q0 -80 -83 -186q-20 -26 -157 -176q-90 -97 -100 -146q5 -15 31 -15q49 0 201 109q126 92 190 154l20 -25 q-301 -272 -440 -272q-101 0 -101 114q0 82 84 187q33 42 162 173q94 96 107 140q-4 29 -23 29h-4q-170 -45 -374 -261l-304 -360h-190q446 572 446 596q0 27 -20 27q-125 0 -372 -254q-184 -190 -308 -371h-193z" />
<glyph unicode="n" horiz-adv-x="979" d="M440 643h185q-98 -101 -176 -237q284 254 423 254q93 0 93 -117q0 -80 -81 -185q-20 -27 -155 -174q-88 -97 -98 -145l8 -14q16 -5 25 -5q43 0 197 111q142 101 188 152l18 -25q-137 -124 -205 -172q-140 -100 -237 -100t-97 116q0 73 92 191q39 51 169 190q92 98 92 123 t-27 25q-139 0 -489 -355q-86 -86 -220 -270h-194z" />
<glyph unicode="o" horiz-adv-x="735" d="M844 303v-29q-15 -2 -47 -2q-55 0 -99 35q-85 -122 -196 -210q-139 -109 -257 -109q-126 0 -126 144q0 182 224 362q214 172 401 172q32 0 56.5 -25.5t24.5 -56.5q0 -86 -98 -248q38 -36 88 -36q14 0 29 3zM684 367q0 68 29 110q12 18 54 52q30 24 30 49q0 45 -41 45 q-93 0 -319 -236t-226 -330q0 -43 43 -43q92 0 237 123q105 89 195 201q-2 12 -2 29z" />
<glyph unicode="p" horiz-adv-x="979" d="M410 639h178l-201 -256q155 138 208 176q138 98 245 98q86 0 86 -118q0 -91 -168.5 -279t-169.5 -219q9 -21 33 -21q50 0 199 107q123 88 188 152l16 -25q-85 -85 -201 -163q-147 -100 -227 -100q-105 0 -105 104q0 85 84 192q29 38 161 175q93 96 106 144q-4 25 -35 25 q-89 0 -312 -194q-180 -157 -278 -277q-171 -210 -514 -674h-172q542 731 879 1153z" />
<glyph unicode="q" horiz-adv-x="979" d="M551 178q-80 -60 -161 -121q-104 -69 -181 -69q-122 0 -122 131q0 192 244 371q227 168 428 168q85 0 85 -77q0 -11 -2 -24l65 82h168l-600 -774q362 233 588 418l18 -25q-246 -175 -493 -350q-291 -220 -410 -432h-186q300 364 559 702zM225 16q111 0 348.5 231.5 t237.5 340.5q0 39 -39 39q-74 0 -238 -143q-120 -103 -207 -203.5t-122 -168.5q-19 -37 -19 -53q0 -43 39 -43z" />
<glyph unicode="r" horiz-adv-x="692" d="M449 641h186l-342 -455q135 110 399 336q35 85 78 114.5t135 29.5q39 0 39 -25q-1 -2 -4 -10q-37 -37 -73 -74q-44 -50 -44 -90q0 -13 27 -23v-6q0 -4 -4 -14l-17 -4q-30 2 -59.5 4.5t-56.5 24.5l-17 30q-360 -289 -546 -471h-181z" />
<glyph unicode="s" horiz-adv-x="610" d="M182 307l-20 23q308 223 381 321q22 39 44 77q32 52 60 52q17 0 17 -20q0 -40 -93 -129q3 -33 21 -130q15 -82 15 -131q0 -155 -164 -274q-151 -110 -312 -110q-94 0 -94 100q0 98 92 98q57 0 57 -51q0 -40 -22 -51q-27 -11 -53 -23l-9 -16v-4q11 -25 35 -25 q120 0 258 237q119 204 142 351z" />
<glyph unicode="t" horiz-adv-x="489" d="M375 735l14 33h143l254 330h187l-252 -328h192l-16 -31h-201l-149 -198l-202 -256q-159 -209 -157 -244l11 -8q8 -2 28 -2q38 0 180 108q120 91 175 146l18 -27q-152 -130 -190 -158q-141 -106 -207 -106q-94 0 -94 100q0 113 159 331l238 310h-131z" />
<glyph unicode="u" horiz-adv-x="938" d="M610 641q-434 -537 -434 -600q0 -17 22 -17l11 1q60 1 235 139q100 78 218 229q170 217 198 248h184l-244 -310q-194 -252 -194 -292q0 -16 29 -16q51 0 192 107q110 83 181 153l14 -25q-155 -137 -194 -167q-137 -103 -220 -103q-100 0 -100 102q0 54 16 103 q-69 -65 -156 -124q-117 -79 -173 -79q-111 0 -111 109q0 95 134 282l206 260h186z" />
<glyph unicode="v" horiz-adv-x="735" d="M604 641q-430 -534 -430 -594q0 -29 43 -29q98 0 252 132q123 104 205 217q0 81 35 174q44 116 110 116q21 0 21 -40q0 -57 -45 -135q-14 -25 -82 -122q3 -67 65 -67q29 0 64 10v-31q-38 -10 -72 -10q-30 0 -49 18.5t-37 38.5q-95 -118 -212 -209q-152 -119 -262 -119 q-123 0 -123 141q0 84 129 263q33 47 194 246h194z" />
<glyph unicode="w" horiz-adv-x="1141" d="M588 639q-150 -189 -441 -576q-4 -17 -4 -22q0 -27 50 -27q2 0 22 9q160 64 337 269q137 173 273 347h185l-269 -346l-91 -118q-56 -82 -56 -132q0 -27 41 -27q94 0 248 139q126 114 198 224q0 80 33 165q42 107 109 107q26 0 26 -51q0 -48 -131 -233v-17q0 -58 90 -58 q21 0 41 3v-25q-22 -6 -51 -6q-80 0 -108 66q-142 -160 -212 -219q-144 -121 -268 -121q-43 0 -72.5 38t-29.5 83q0 28 12 100q-213 -219 -349 -219q-62 0 -83 37q-14 25 -14 94q0 90 133 268q100 124 201 248h180z" />
<glyph unicode="x" d="M184 406q67 87 169 162q122 90 210 90q106 0 106 -105q0 -20 -5 -41q144 144 254 144q97 0 97 -92q0 -45 -32 -82.5t-77 -37.5q-50 0 -50 49q0 52 43 59q61 9 66 13l10 27q-8 37 -49 37q-63 0 -276.5 -258t-213.5 -324q0 -33 39 -33q57 0 221 112q143 97 207 161l17 -27 l-216 -168q-149 -104 -238 -104q-93 0 -93 108q0 14 2 29q-123 -83 -136 -91q-82 -46 -155 -46q-92 0 -92 88q0 51 37 91t88 40q55 0 55 -45q0 -70 -50 -70q-9 0 -26.5 1t-25.5 1q-12 0 -26.5 -10t-14.5 -21q0 -49 61 -49q87 0 300 252q210 249 210 339q0 24 -43 24 q-140 0 -346 -242z" />
<glyph unicode="y" horiz-adv-x="938" d="M463 211q-73 -73 -165 -133q-117 -76 -190 -76q-43 0 -70.5 30t-27.5 74q0 81 53 164q13 21 107.5 140.5t177.5 228.5h187q-111 -137 -222 -275q-125 -159 -202 -288l-2 -17q0 -18 24 -18q114 0 412 299q85 85 258 307l174 -8l-459 -600q85 20 233 104q130 74 218 142 l22 -23q-269 -195 -516 -278q-389 -519 -727 -519q-86 0 -86 65q0 118 261 275q165 99 374 183q99 117 166 223zM-289 -469q0 -37 47 -37q112 0 284 177q64 66 230 274q-561 -239 -561 -414z" />
<glyph unicode="z" horiz-adv-x="774" d="M668 528q-50 -10 -97 -10q-66 0 -106 41l-322 -254l-20 25l321 256q7 123 80 123q50 0 50 -43q0 -38 -76 -93q42 -25 91 -25q64 0 111 21q119 119 205 119q33 0 33 -20q0 -98 -209 -140l-420 -323q105 35 162 35q100 0 100 -76q0 -21 -20.5 -48.5t-20.5 -45.5q0 -7 5 -9 q132 66 311 226l22 -25q-104 -84 -208 -167q-142 -103 -234 -103q-88 0 -88 71q0 24 34 63.5t38 59.5l-2 9l-13 6q-159 -32 -358 -185q-27 -20 -45 -20q-17 0 -27 22q7 49 94 89q125 57 127 59z" />
<glyph unicode="{" horiz-adv-x="684" d="M86 602q113 0 147 138q17 65 17 228l-1 89q0 190 24 269q45 153 188 153h137v-133h-90q-94 0 -94 -168v-233v-116q-2 -86 -50 -171q-54 -95 -131 -115v-4q114 -35 156 -169q26 -84 26 -240q0 -30 -1 -88.5t-1 -87.5q0 -222 95 -222h90v-133h-137q-98 0 -157 86 q-52 76 -52 178v350q0 94 -37 170q-46 96 -129 96v123z" />
<glyph unicode="|" horiz-adv-x="532" d="M193 1509h149v-1548h-149v1548z" />
<glyph unicode="}" horiz-adv-x="684" d="M598 479q-83 0 -129 -96q-37 -76 -37 -170v-350q0 -102 -52 -178q-59 -86 -157 -86h-137v133h90q96 0 96 222q0 29 -1.5 87.5t-1.5 88.5q0 156 26 240q42 134 156 169v4q-77 20 -131 115q-48 85 -50 171v349q0 168 -94 168h-90v133h137q213 0 213 -382q0 -25 -1 -69v-60 q0 -163 16 -228q34 -138 147 -138v-123z" />
<glyph unicode="~" horiz-adv-x="0" d="M930 1700q31 0 78 -36t67 -36q43 0 107 70h55q-53 -56 -107 -111q-75 -70 -127 -70q-49 0 -100.5 37t-64.5 37q-43 0 -95 -69h-61q77 87 109 114q74 64 139 64z" />
<glyph unicode="&#xa1;" horiz-adv-x="653" d="M770 907q-132 -218 -360 -583q-48 -81 -95 -161q-71 -120 -98 -140q-43 -33 -74 -33q-92 0 -92 82q0 53 60 123l630 733zM762 1075q0 48 43.5 83.5t91.5 35.5q37 0 63.5 -25.5t26.5 -62.5q0 -54 -42 -92.5t-96 -38.5q-87 0 -87 100z" />
<glyph unicode="&#xa2;" horiz-adv-x="692" d="M224 57l501 564q-123 -63 -301 -239q-201 -199 -201 -302q0 -4 1 -23zM950 874l17 -14l-160 -188q82 -16 82 -80q0 -53 -29 -95q-32 -47 -83 -47q-61 0 -61 54q0 50 33 67q4 2 61 14q31 7 30 33l-11 19q-13 6 -30 6l-19 -2l-542 -610q16 -15 41 -15q85 0 255 107 q131 83 232 172l20 -25q-102 -102 -242 -185q-167 -99 -280 -99q-30 0 -56 10l-175 -197l-19 15l169 196q-64 44 -64 137q0 184 239 362q225 167 416 167z" />
<glyph unicode="&#xa3;" horiz-adv-x="1591" d="M686 395h-291v43h310l238 342q154 204 296 308q183 133 383 133q205 0 205 -189q0 -130 -122 -277q-127 -153 -254 -153q-46 0 -82.5 31.5t-36.5 76.5q0 84 67 154q65 56 131 113v-27q-89 -85 -108 -108q-62 -74 -62 -133q0 -31 25 -56t56 -25q115 0 234 163 q111 153 111 273q0 61 -44 97q-42 33 -104 33q-146 0 -302 -143q-118 -108 -253 -311l-188 -302h340v-37h-373q-51 -73 -143 -147q-15 -12 -166 -121q93 -23 185 -45q108 -25 189 -25q219 0 423 211l16 -18q-82 -119 -248 -199q-160 -78 -309 -78q-290 0 -395 76 q-166 -67 -308 -67q-192 0 -192 88q0 67 129 101q90 24 185 24q93 0 268 -51q22 23 67 69q27 29 63 87q41 65 60 89zM86 136q-133 0 -133 -58q0 -64 125 -64h51q85 0 242 54q-195 68 -285 68z" />
<glyph unicode="&#xa7;" horiz-adv-x="938" d="M1145 1157q47 0 79.5 -27t32.5 -73q0 -50 -33 -93q-35 -46 -83 -46q-43 0 -43 49q0 37 57 41t57 49q0 27 -18 47t-45 20q-122 0 -174 -229q-23 -108 -74 -322q-64 -241 -161 -336q-114 -112 -349 -114q-74 -104 -132 -150q-83 -67 -183 -67q-44 0 -75.5 28t-31.5 71 q0 52 29 96q33 51 81 51q58 0 58 -54q0 -34 -30 -40q-3 -1 -56 -1q-39 0 -39 -45q0 -74 70 -74q175 0 285 584q26 143 65 210q50 89 162 147q60 31 256 59q138 219 295 219zM428 154h12q117 0 194 106q59 81 101 233q27 115 53 230l26 86q15 55 15 86q0 14 -20 14 q-108 0 -179 -89q-54 -68 -92 -199q-25 -103 -51 -205q-26 -83 -69 -248z" />
<glyph unicode="&#xa8;" horiz-adv-x="0" d="M256 1051q33 0 58.5 -21t25.5 -54q0 -45 -36.5 -80.5t-82.5 -35.5q-80 0 -80 79q0 44 35.5 78t79.5 34zM451 946q0 46 40 78q37 29 84 29q68 0 68 -79q0 -44 -35.5 -77.5t-80.5 -33.5q-76 0 -76 83z" />
<glyph unicode="&#xa9;" horiz-adv-x="1485" d="M971 987l8 -244h-39q-16 87 -79 142.5t-151 55.5q-118 0 -191 -107q-64 -95 -64 -220q0 -131 63 -211q69 -86 197 -86q138 0 246 103l22 -35q-140 -141 -286 -141q-164 0 -264 102.5t-100 266.5q0 155 100.5 266.5t254.5 111.5q34 0 100 -17.5t100 -17.5q39 0 46 31h37z M688 1286q273 0 465.5 -192t192.5 -465t-192.5 -465.5t-465.5 -192.5q-272 0 -464.5 193t-192.5 465t192.5 464.5t464.5 192.5zM688 47q240 0 411 171t171 411t-171 410.5t-411 170.5q-239 0 -409 -171t-170 -410q0 -240 170 -411t409 -171z" />
<glyph unicode="&#xab;" horiz-adv-x="1020" d="M741 600v-31l-348 -235l-24 -246h-27l-111 252zM1083 600l11 -37l-357 -229l-18 -240l-29 -10l-112 256z" />
<glyph unicode="&#xac;" horiz-adv-x="1339" d="M-31 549h1266v-549h-105v444h-1161v105z" />
<glyph unicode="&#xad;" horiz-adv-x="610" d="M274 414h496l-90 -127h-504z" />
<glyph unicode="&#xae;" horiz-adv-x="1485" d="M686 -39q-271 0 -464 193t-193 464q0 272 193 465t464 193t464 -193t193 -465q0 -271 -193 -464t-464 -193zM684 1200q-241 0 -409.5 -171t-168.5 -413q0 -238 170.5 -407.5t409.5 -169.5q241 0 411.5 169.5t170.5 409.5q0 241 -171.5 411.5t-412.5 170.5zM588 377 q0 -56 90 -55v-35h-305v35q92 0 92 49v549q0 45 -21 54q-8 3 -61 3v35h326q259 0 259 -178q0 -80 -57 -135t-137 -58l230 -293q21 -27 67 -26v-35h-180l-254 338h-49v-248zM588 668q112 5 164 27q87 35 87 127q0 94 -63 126q-44 23 -149 23q-42 0 -41 -37z" />
<glyph unicode="&#xb0;" horiz-adv-x="489" d="M969 733q-118 0 -202.5 83.5t-84.5 201.5q0 117 85 201t202 84q116 0 201 -84.5t85 -200.5q0 -117 -84.5 -201t-201.5 -84zM967 1227q-86 0 -146.5 -61.5t-60.5 -147.5t61 -147.5t148 -61.5q85 0 147 61.5t62 147.5q0 85 -63 147t-148 62z" />
<glyph unicode="&#xb1;" horiz-adv-x="1032" d="M426 776v453h104v-453h451v-104h-451v-451h-104v451h-453v104h453zM-27 0v104h1008v-104h-1008z" />
<glyph unicode="&#xb4;" horiz-adv-x="0" d="M420 1067h198l-288 -227h-51z" />
<glyph unicode="&#xb5;" horiz-adv-x="1083" d="M233 952v-633q0 -219 180 -219q60 0 124.5 45t89.5 101v706h164v-729q0 -55 23 -102q30 -59 79 -59q53 0 74 44q14 44 28 89h37q-49 -226 -229 -226q-85 0 -125 55q-28 37 -49 132q-52 -78 -130 -130q-87 -59 -171 -59q-55 0 -104 29q-15 9 -87 65v-45q0 -52 31 -151.5 t31 -152.5q0 -50 -21 -89q-25 -47 -72 -47q-45 0 -70 46q-21 37 -21 87q0 52 27.5 153.5t27.5 153.5v936h163z" />
<glyph unicode="&#xb6;" horiz-adv-x="1366" d="M1104 1446v-111h-70v-1677h-119v1677h-294v-1677h-119v995q-152 24 -237 127.5t-85 257.5q0 197 130 306q122 102 323 102h471z" />
<glyph unicode="&#xb8;" horiz-adv-x="0" d="M-315 -211q0 14 -10.5 39t-10.5 38q0 41 42.5 79.5t84.5 38.5q74 0 74 -76q0 -119 -163 -226q-124 -82 -271 -122q-9 6 -9 26q83 25 160 75q103 66 103 128z" />
<glyph unicode="&#xbb;" horiz-adv-x="1020" d="M485 352l17 236l28 14q77 -135 111 -262l-500 -256l-14 33q95 41 358 235zM831 346l19 246h33l108 -252l-506 -256l-10 31z" />
<glyph unicode="&#xbf;" d="M893 915q-70 -73 -215 -215q-469 -415 -469 -608q0 -69 59 -69q118 0 274.5 135.5t156.5 250.5q0 62 -52 62q-67 0 -207 -152l-14 17q28 60 98 112q74 56 136 56q90 0 90 -105q0 -134 -176 -274q-167 -133 -306 -133q-80 0 -127 57q-43 53 -43 135q0 178 145 313 q77 72 298 197q165 94 327 246zM903 1075q0 51 36 91.5t87 40.5q34 0 68 -26.5t34 -60.5q0 -49 -41 -93t-91 -44q-93 0 -93 92z" />
<glyph unicode="&#xc0;" horiz-adv-x="1389" d="M1571 1714l51 -229h-39l-231 229h219zM395 700q0 134 59 226q70 106 197 106q231 0 344 -336q338 359 405 422q304 286 463 286q8 0 38 -3l14 -8l-2 -9q-35 -36 -75 -98l-66 -104q-245 -358 -680 -1049q155 52 223 146l22 -21q-33 -62 -117 -110q-75 -43 -153 -54 l-59 -88h-191l60 90q-115 46 -127 52q-69 31 -117 69l-27 21q-285 -258 -512 -258q-54 0 -92 34q-41 35 -41 88q0 63 38 118q41 61 101 61q64 0 64 -64q0 -62 -62 -76q-7 1 -31.5 11t-27.5 10q-47 0 -47 -66q0 -36 40 -59q34 -21 72 -21q110 0 250 88q61 38 217 162 q-180 218 -180 434zM965 662q-26 122 -101 213q-87 106 -201 106q-106 0 -168 -98q-54 -84 -54 -196q0 -216 169 -392q215 202 355 367zM897 139q85 177 85 386q0 50 -9 87l-336 -346q83 -67 119 -85q44 -22 141 -42zM1853 1360l-6 8h-12q-115 0 -430 -300 q-93 -90 -399 -413q6 -83 6 -153q0 -40 -31 -242q285 396 678 862q45 52 134 158q23 26 60 80z" />
<glyph unicode="&#xc1;" horiz-adv-x="1389" d="M1559 1704l237 -6l-307 -217l-49 4zM395 700q0 134 59 226q70 106 197 106q231 0 344 -336q338 359 405 422q304 286 463 286q8 0 38 -3l14 -8l-2 -9q-35 -36 -75 -98l-66 -104q-245 -358 -680 -1049q155 52 223 146l22 -21q-33 -62 -117 -110q-75 -43 -153 -54l-59 -88 h-191l60 90q-115 46 -127 52q-69 31 -117 69l-27 21q-285 -258 -512 -258q-54 0 -92 34q-41 35 -41 88q0 63 38 118q41 61 101 61q64 0 64 -64q0 -62 -62 -76q-7 1 -31.5 11t-27.5 10q-47 0 -47 -66q0 -36 40 -59q34 -21 72 -21q110 0 250 88q61 38 217 162 q-180 218 -180 434zM965 662q-26 122 -101 213q-87 106 -201 106q-106 0 -168 -98q-54 -84 -54 -196q0 -216 169 -392q215 202 355 367zM897 139q85 177 85 386q0 50 -9 87l-336 -346q83 -67 119 -85q44 -22 141 -42zM1853 1360l-6 8h-12q-115 0 -430 -300 q-93 -90 -399 -413q6 -83 6 -153q0 -40 -31 -242q285 396 678 862q45 52 134 158q23 26 60 80z" />
<glyph unicode="&#xc2;" horiz-adv-x="1389" d="M1698 1769l20 -272h-37l-86 98l-243 -98l-86 8q90 35 221 120q105 72 211 144zM395 700q0 134 59 226q70 106 197 106q231 0 344 -336q338 359 405 422q304 286 463 286q8 0 38 -3l14 -8l-2 -9q-35 -36 -75 -98l-66 -104q-245 -358 -680 -1049q155 52 223 146l22 -21 q-33 -62 -117 -110q-75 -43 -153 -54l-59 -88h-191l60 90q-115 46 -127 52q-69 31 -117 69l-27 21q-285 -258 -512 -258q-54 0 -92 34q-41 35 -41 88q0 63 38 118q41 61 101 61q64 0 64 -64q0 -62 -62 -76q-7 1 -31.5 11t-27.5 10q-47 0 -47 -66q0 -36 40 -59q34 -21 72 -21 q110 0 250 88q61 38 217 162q-180 218 -180 434zM965 662q-26 122 -101 213q-87 106 -201 106q-106 0 -168 -98q-54 -84 -54 -196q0 -216 169 -392q215 202 355 367zM897 139q85 177 85 386q0 50 -9 87l-336 -346q83 -67 119 -85q44 -22 141 -42zM1853 1360l-6 8h-12 q-115 0 -430 -300q-93 -90 -399 -413q6 -83 6 -153q0 -40 -31 -242q285 396 678 862q45 52 134 158q23 26 60 80z" />
<glyph unicode="&#xc3;" horiz-adv-x="1389" d="M1538 1700q31 0 77 -36t66 -36q51 0 107 70h57q-54 -56 -107 -111q-76 -70 -129 -70q-46 0 -99.5 37t-63.5 37q-46 0 -96 -69h-60q78 88 109 115q74 63 139 63zM395 700q0 134 59 226q70 106 197 106q231 0 344 -336q338 359 405 422q304 286 463 286q8 0 38 -3l14 -8 l-2 -9q-35 -36 -75 -98l-66 -104q-245 -358 -680 -1049q155 52 223 146l22 -21q-33 -62 -117 -110q-75 -43 -153 -54l-59 -88h-191l60 90q-115 46 -127 52q-69 31 -117 69l-27 21q-285 -258 -512 -258q-54 0 -92 34q-41 35 -41 88q0 63 38 118q41 61 101 61q64 0 64 -64 q0 -62 -62 -76q-7 1 -31.5 11t-27.5 10q-47 0 -47 -66q0 -36 40 -59q34 -21 72 -21q110 0 250 88q61 38 217 162q-180 218 -180 434zM965 662q-26 122 -101 213q-87 106 -201 106q-106 0 -168 -98q-54 -84 -54 -196q0 -216 169 -392q215 202 355 367zM897 139q85 177 85 386 q0 50 -9 87l-336 -346q83 -67 119 -85q44 -22 141 -42zM1853 1360l-6 8h-12q-115 0 -430 -300q-93 -90 -399 -413q6 -83 6 -153q0 -40 -31 -242q285 396 678 862q45 52 134 158q23 26 60 80z" />
<glyph unicode="&#xc4;" horiz-adv-x="1389" d="M387 709q0 129 66 220q73 102 197 102q117 0 216 -111q79 -89 125 -220l416 420q301 285 467 285q25 0 33 -10q-7 -28 -138 -211q-179 -252 -682 -1045q137 31 226 135l20 -20q-43 -59 -123 -105.5t-153 -56.5l-49 -84q-34 -2 -97 -2q-64 0 -98 2l57 90q-100 44 -138 63 q-75 37 -130 79q-313 -260 -489 -260q-66 0 -108 30q-48 34 -48 96q0 63 38 116q42 57 103 57q60 0 60 -64q0 -25 -17 -48q-18 -26 -43 -26q-14 0 -55 23q-53 -1 -53 -68q0 -33 32 -57.5t66 -24.5q198 0 485 256q-186 226 -186 439zM963 668q-102 315 -306 315 q-105 0 -168 -99q-54 -85 -54 -196q0 -207 167 -393q228 191 361 373zM887 139q91 147 91 390q0 47 -7 87q-108 -121 -342 -346q138 -134 251 -131h7zM1847 1352v6q0 8 -12 8q-115 0 -435 -298q-243 -227 -396 -413q0 -23 2 -74.5t2 -78.5q0 -104 -35 -254q318 439 631 815 q3 4 129 141q83 90 114 148zM1704 1618q0 43 40 76q37 31 82 31q75 0 75 -85q0 -44 -37 -77.5t-82 -33.5q-29 0 -53.5 19t-24.5 47v23zM2136 1723q74 0 74 -81q0 -47 -35.5 -78.5t-83.5 -31.5q-79 0 -79 72q0 49 37 84t87 35z" />
<glyph unicode="&#xc5;" horiz-adv-x="1389" d="M389 710q0 130 63 219q72 101 197 101q120 0 217 -108q77 -86 125 -220q352 356 417 415q318 288 464 288q25 0 33 -12v-9q-16 -35 -99 -156q-70 -98 -207 -294q-295 -437 -514 -795q72 12 126 49q25 18 100 91l24 -25q-81 -123 -278 -158l-56 -88h-188l57 90 q-161 62 -268 144q-300 -261 -507 -261q-56 0 -97 35t-41 90q0 60 37 113q41 58 98 58q68 0 68 -64q0 -55 -62 -70q-5 1 -27.5 10t-23.5 9q-56 0 -56 -55q0 -93 126 -93q95 0 242 91q116 71 212 161q-124 203 -126 208q-56 112 -56 236zM961 664q-27 117 -101 209 q-88 109 -195 109q-110 0 -174 -97q-55 -84 -55 -200q0 -200 166 -394q229 196 359 373zM891 137q87 170 87 386q0 53 -7 95l-342 -352q96 -69 122 -83q69 -39 140 -46zM1847 1354v4q0 8 -12 8q-120 0 -433 -295q-62 -59 -401 -409q5 -78 5 -143q0 -95 -29 -261 q408 551 723 920q55 54 147 176zM1985 1757q50 0 82 -32t32 -81q0 -68 -48 -116t-116 -48q-118 0 -118 136q0 55 57 100q55 41 111 41zM1938 1526q44 0 79 40t35 85q0 27 -24 44t-52 17q-41 0 -75 -40t-34 -81q0 -65 71 -65z" />
<glyph unicode="&#xc6;" horiz-adv-x="1796" d="M37 712q0 126 64 213q72 96 194 96q221 0 358 -357q358 396 370 408q227 230 429 337q62 33 86 33q35 0 35 -25q0 -7 -90 -157q231 164 431 164q163 0 163 -101q0 -127 -159 -260q-155 -129 -284 -129q-99 0 -99 71q0 50 53 108q49 56 100 71l8 -19q-129 -72 -129 -153 q0 -48 66 -48q101 0 253 122q156 126 156 223q0 86 -96 86q-143 0 -345 -154q-212 -160 -212 -297q0 -92 100 -135q73 4 92 4q35 0 59 -18l2 -9l-4 -8q-15 -14 -41 -14q-40 0 -124 24q-181 -55 -394 -244q-237 -211 -237 -374q0 -156 211 -156q64 0 110 6q171 23 339 121 q204 121 204 266q0 57 -40.5 90t-98.5 33q-291 0 -568 -344l-24 11q97 161 241 258q157 106 332 106q73 0 129 -36q64 -42 64 -111q0 -183 -232 -315q-201 -116 -399 -116q-141 0 -208 30q-96 44 -114 165l-104 -170h-180l49 88q-138 24 -250 92q-94 -105 -126 -133 q-84 -71 -162 -71q-45 0 -75 40q-28 37 -28 82q0 66 33 114q37 54 100 54q20 0 42 -17.5t22 -37.5q0 -52 -40 -71q-3 -2 -73 -18q-39 -9 -39 -38q0 -72 80 -72q50 0 127 75l106 116q-233 230 -233 501zM623 625q-34 130 -106 227q-90 123 -204 123q-110 0 -172 -88 q-55 -78 -55 -193q0 -246 211 -454zM569 133q64 159 64 320q0 56 -4 129l-303 -359q48 -52 112 -69q66 -11 131 -21zM1522 1397l-2 4h-11q-23 0 -123 -62q-155 -96 -381 -335q-48 -50 -346 -388q9 -74 9 -176q0 -35 -15 -184q396 558 695 918q178 214 174 223zM1442 801 q-62 15 -102 71.5t-35 120.5l-203 -293q125 62 340 101z" />
<glyph unicode="&#xc7;" horiz-adv-x="1427" d="M358 -211q0 13 -9 36t-9 36q0 43 41 83t84 40q76 0 76 -76q0 -119 -164 -226q-122 -80 -273 -122q-6 5 -6 18q1 2 2 8q84 28 158 76q100 66 100 127zM1325 1405q-169 32 -259 32q-205 0 -410 -103q-245 -124 -245 -308q0 -128 97 -194q67 -46 213 -74q232 245 506 426 q349 230 602 230q156 0 156 -109q0 -138 -232 -306q-300 -217 -850 -286q-301 -320 -301 -520q0 -181 215 -181q184 0 383 119q226 135 226 305q0 51 -45.5 86t-98.5 35q-305 0 -543 -426l-22 8q75 191 214 314q157 139 346 139q69 0 124 -44q59 -48 59 -116 q0 -191 -246 -331q-214 -121 -421 -121q-140 0 -226 72q-93 77 -93 214q0 193 216 455q-135 21 -222 97q-96 86 -96 216q0 216 232 340q189 101 426 101q168 0 305 -52zM1956 1292q0 93 -110 93q-194 0 -503 -236q-256 -195 -415 -399q500 54 794 266q234 168 234 276z" />
<glyph unicode="&#xc8;" horiz-adv-x="1305" d="M1591 1714l51 -229h-36l-232 229h217zM946 879q-450 6 -450 266q0 158 154 254q132 82 300 82q111 0 258 -51l-10 -17q-106 28 -190 28q-150 0 -295 -72q-175 -87 -175 -222q0 -131 143 -192q104 -44 257 -44q-2 19 -2 54q0 187 290 333q249 125 460 125q141 0 141 -94 q0 -110 -174 -231q-128 -89 -277 -144q-118 -43 -364 -75v-21q0 -23 18 -41q35 4 72 4q56 0 82 -26l2 -11q-14 -28 -43 -28q-47 0 -131 26q-204 -77 -373 -243q-197 -192 -197 -381q0 -77 84 -115q63 -29 150 -29q203 0 403 101q240 121 240 303q0 50 -52 82q-44 26 -98 26 q-279 0 -551 -331l-22 -11l-8 9v10q0 32 106 135q91 89 142 123q149 102 309 102q89 0 146 -36q67 -43 67 -128q0 -125 -151 -242q-117 -90 -267 -139q-121 -39 -274 -39q-152 0 -243 77q-97 82 -97 231q0 389 667 524zM1792 1325q0 68 -92 68q-168 0 -382 -168 q-177 -139 -298 -312q167 18 259 41q120 31 243 99q92 51 166 114q104 91 104 158z" />
<glyph unicode="&#xc9;" horiz-adv-x="1305" d="M1585 1704l238 -6l-307 -217l-50 4zM950 879q-450 6 -450 266q0 158 154 254q132 82 300 82q111 0 258 -51l-10 -17q-106 28 -190 28q-150 0 -295 -72q-175 -87 -175 -222q0 -131 144 -192q103 -44 256 -44q-2 19 -2 54q0 187 290 333q249 125 460 125q141 0 141 -94 q0 -110 -174 -231q-128 -89 -277 -144q-118 -43 -364 -75v-21q0 -23 18 -41q35 4 72 4q56 0 82 -26l2 -11q-14 -28 -43 -28q-47 0 -131 26q-204 -77 -373 -243q-197 -192 -197 -381q0 -77 84 -115q63 -29 150 -29q203 0 403 101q240 121 240 303q0 50 -51 82q-44 26 -98 26 q-280 0 -551 -331l-23 -11l-8 9v10q0 32 106 135q92 89 142 123q149 102 309 102q89 0 146 -36q67 -43 67 -128q0 -125 -151 -242q-117 -90 -267 -139q-121 -39 -274 -39q-151 0 -243 77q-97 82 -97 231q0 389 667 524zM1796 1325q0 68 -91 68q-169 0 -383 -168 q-177 -139 -298 -312q167 18 259 41q120 31 243 99q92 51 166 114q104 91 104 158z" />
<glyph unicode="&#xca;" horiz-adv-x="1305" d="M1720 1769l21 -272h-39l-86 98l-242 -98l-88 8q91 32 222 120zM946 879q-450 6 -450 266q0 158 154 254q132 82 300 82q111 0 258 -51l-10 -17q-106 28 -190 28q-150 0 -295 -72q-175 -87 -175 -222q0 -131 143 -192q104 -44 257 -44q-2 19 -2 54q0 187 290 333 q249 125 460 125q141 0 141 -94q0 -110 -174 -231q-128 -89 -277 -144q-118 -43 -364 -75v-21q0 -23 18 -41q35 4 72 4q56 0 82 -26l2 -11q-14 -28 -43 -28q-47 0 -131 26q-204 -77 -373 -243q-197 -192 -197 -381q0 -77 84 -115q63 -29 150 -29q203 0 403 101 q240 121 240 303q0 50 -52 82q-44 26 -98 26q-279 0 -551 -331l-22 -11l-8 9v10q0 32 106 135q91 89 142 123q149 102 309 102q89 0 146 -36q67 -43 67 -128q0 -125 -151 -242q-117 -90 -267 -139q-121 -39 -274 -39q-152 0 -243 77q-97 82 -97 231q0 389 667 524z M1792 1325q0 68 -92 68q-168 0 -382 -168q-177 -139 -298 -312q167 18 259 41q120 31 243 99q92 51 166 114q104 91 104 158z" />
<glyph unicode="&#xcb;" horiz-adv-x="1305" d="M1479 1729q32 0 54 -25t22 -57q0 -42 -35.5 -76.5t-77.5 -34.5q-80 0 -80 73q0 50 33.5 85t83.5 35zM1671 1620q0 44 34.5 76.5t78.5 32.5q80 0 80 -78q0 -46 -34.5 -79.5t-80.5 -33.5q-78 0 -78 82zM952 879q-450 6 -450 266q0 158 154 254q132 82 300 82q111 0 258 -51 l-10 -17q-106 28 -190 28q-150 0 -295 -72q-175 -87 -175 -222q0 -131 144 -192q103 -44 256 -44q-2 19 -2 54q0 187 290 333q249 125 460 125q141 0 141 -94q0 -110 -174 -231q-128 -89 -277 -144q-117 -43 -364 -75v-21q0 -23 18 -41q35 4 72 4q56 0 82 -26l2 -11 q-14 -28 -43 -28q-47 0 -131 26q-204 -77 -373 -243q-196 -192 -196 -381q0 -77 83 -115q63 -29 150 -29q203 0 403 101q240 121 240 303q0 50 -51 82q-44 26 -98 26q-280 0 -551 -331l-23 -11l-8 9v10q0 32 106 135q92 89 142 123q150 102 309 102q90 0 146 -36 q67 -43 67 -128q0 -125 -151 -242q-117 -90 -267 -139q-121 -39 -274 -39q-151 0 -243 77q-97 82 -97 231q0 389 667 524zM1798 1325q0 68 -91 68q-169 0 -383 -168q-177 -139 -298 -312q167 18 259 41q120 31 243 99q92 51 166 114q104 91 104 158z" />
<glyph unicode="&#xcc;" horiz-adv-x="1305" d="M1530 1714l51 -229h-37l-231 229h217zM938 975q0 366 649 399q121 3 299 23q128 37 148 37q1 -1 8 -2l6 -9v-4q-15 -22 -66 -33q-38 -6 -77 -12q-113 -20 -304 -252q-146 -178 -239 -344q143 45 352 197l15 -23q-143 -139 -396 -215q-71 -124 -225 -364 q-281 -389 -821 -389q-340 0 -340 174q0 59 46 105t105 46q66 0 66 -53q0 -92 -66 -92q-20 0 -50 13t-34 13q-11 0 -22 -14.5t-11 -26.5q0 -74 104 -110q74 -26 165 -26q481 0 905 730q-217 45 -217 232zM1810 1356q-23 6 -41 6q-327 0 -516 -98q-270 -141 -270 -307 q0 -157 193 -187q158 216 279 335q165 162 355 251z" />
<glyph unicode="&#xcd;" horiz-adv-x="1305" d="M1520 1704l237 -6l-307 -217l-49 4zM938 975q0 366 649 399q121 3 299 23q128 37 148 37q1 -1 8 -2l6 -9v-4q-15 -22 -66 -33q-38 -6 -77 -12q-113 -20 -304 -252q-146 -178 -239 -344q143 45 352 197l15 -23q-143 -139 -396 -215q-71 -124 -225 -364 q-281 -389 -821 -389q-340 0 -340 174q0 59 46 105t105 46q66 0 66 -53q0 -92 -66 -92q-20 0 -50 13t-34 13q-11 0 -22 -14.5t-11 -26.5q0 -74 104 -110q74 -26 165 -26q481 0 905 730q-217 45 -217 232zM1810 1356q-23 6 -41 6q-327 0 -516 -98q-270 -141 -270 -307 q0 -157 193 -187q158 216 279 335q165 162 355 251z" />
<glyph unicode="&#xce;" horiz-adv-x="1305" d="M1659 1769l20 -272h-39l-86 98l-241 -98l-88 8q91 32 222 120zM938 975q0 366 649 399q121 3 299 23q128 37 148 37q1 -1 8 -2l6 -9v-4q-15 -22 -66 -33q-38 -6 -77 -12q-113 -20 -304 -252q-146 -178 -239 -344q143 45 352 197l15 -23q-143 -139 -396 -215 q-71 -124 -225 -364q-281 -389 -821 -389q-340 0 -340 174q0 59 46 105t105 46q66 0 66 -53q0 -92 -66 -92q-20 0 -50 13t-34 13q-11 0 -22 -14.5t-11 -26.5q0 -74 104 -110q74 -26 165 -26q481 0 905 730q-217 45 -217 232zM1810 1356q-23 6 -41 6q-327 0 -516 -98 q-270 -141 -270 -307q0 -157 193 -187q158 216 279 335q165 162 355 251z" />
<glyph unicode="&#xcf;" horiz-adv-x="1305" d="M1411 1729q32 0 54 -25t22 -57q0 -42 -35.5 -76.5t-77.5 -34.5q-80 0 -80 73q0 50 34 85t83 35zM1604 1620q0 44 34 76.5t78 32.5q80 0 80 -78q0 -46 -34.5 -79.5t-80.5 -33.5q-77 0 -77 82zM938 975q0 366 649 399q121 3 299 23q128 37 148 37q1 -1 8 -2l6 -9v-4 q-15 -22 -66 -33q-38 -6 -77 -12q-113 -20 -304 -252q-146 -178 -239 -344q143 45 352 197l15 -23q-143 -139 -396 -215q-71 -124 -225 -364q-281 -389 -821 -389q-340 0 -340 174q0 59 46 105t105 46q66 0 66 -53q0 -92 -66 -92q-20 0 -50 13t-34 13q-11 0 -22 -14.5 t-11 -26.5q0 -74 104 -110q74 -26 165 -26q481 0 905 730q-217 45 -217 232zM1810 1356q-23 6 -41 6q-327 0 -516 -98q-270 -141 -270 -307q0 -157 193 -187q158 216 279 335q165 162 355 251z" />
<glyph unicode="&#xd1;" horiz-adv-x="1389" d="M1536 1700q31 0 77 -36t66 -36q51 0 107 70h57q-54 -56 -107 -111q-76 -70 -129 -70q-46 0 -99.5 37t-63.5 37q-46 0 -96 -69h-60q78 88 109 115q74 63 139 63zM977 115q162 165 450 598q200 298 276 397q222 287 335 287q119 0 119 -114q0 -55 -32 -93q-35 -39 -90 -39 t-55 68q0 43 60.5 52t60.5 42q0 53 -63 53q-142 0 -570 -657q-110 -170 -165 -249q-96 -136 -183 -237q-79 -91 -118 -131q-69 -69 -136 -112q65 121 104 274q30 144 60 287q55 254 112 400q68 170 201 364q-140 -100 -358 -390q-84 -115 -251 -345q-183 -248 -289 -359 q-217 -226 -377 -226q-125 0 -125 138q0 48 43 93.5t91 45.5q75 0 75 -63q0 -27 -22 -53.5t-48 -26.5q-41 0 -64 14q-30 -12 -30 -53q0 -26 31 -46q28 -18 55 -18q130 0 367 259q145 158 419 524q253 339 328 411q134 131 248 189q-69 -90 -104 -233q-24 -126 -48 -253 q-79 -390 -197 -596q-40 -65 -110 -202z" />
<glyph unicode="&#xd2;" horiz-adv-x="1141" d="M1475 1714l51 -229h-37l-234 229h220zM1432 993q74 30 124 93q54 67 54 143q0 147 -208 147q-256 0 -562 -239q-228 -179 -441 -451q-246 -314 -246 -481q0 -189 200 -189q236 0 511 233q221 187 379 437q117 185 117 299q0 52 -28 93q-32 47 -82 47q-133 0 -326 -176 q-197 -178 -197 -308q0 -53 76 -53q97 0 220 138q98 109 155 226l28 -8q-69 -155 -166 -256q-125 -129 -266 -129q-49 0 -76 45q-22 38 -22 90q0 161 204 316q193 147 359 147q75 0 117 -48q39 -45 39 -121q0 -241 -322 -584q-309 -328 -557 -394q-92 -24 -170 -24 q-141 0 -215 100q-66 89 -66 235q0 205 179 436q138 177 350 335q432 321 816 321q100 0 166 -45q75 -51 75 -147q0 -87 -63 -157q-59 -64 -146 -89z" />
<glyph unicode="&#xd3;" horiz-adv-x="1141" d="M1466 1704l238 -6l-309 -217l-49 4zM1434 993q74 30 124 93q54 67 54 143q0 147 -208 147q-256 0 -562 -239q-228 -179 -441 -451q-246 -314 -246 -481q0 -189 200 -189q236 0 511 233q221 187 379 437q117 185 117 299q0 52 -28 93q-32 47 -82 47q-133 0 -326 -176 q-197 -178 -197 -308q0 -53 76 -53q97 0 220 138q98 109 155 226l28 -8q-69 -155 -166 -256q-125 -129 -266 -129q-49 0 -76 45q-22 38 -22 90q0 161 204 316q193 147 359 147q75 0 117 -48q39 -45 39 -121q0 -241 -322 -584q-309 -328 -557 -394q-92 -24 -170 -24 q-141 0 -215 100q-65 89 -65 235q0 205 179 436q137 177 349 335q432 321 816 321q100 0 166 -45q75 -51 75 -147q0 -87 -63 -157q-59 -64 -146 -89z" />
<glyph unicode="&#xd4;" horiz-adv-x="1141" d="M1604 1769l20 -272h-39l-86 98l-244 -98l-86 8q88 31 222 120q106 72 213 144zM1432 993q74 30 124 93q54 67 54 143q0 147 -208 147q-256 0 -562 -239q-228 -179 -441 -451q-246 -314 -246 -481q0 -189 200 -189q236 0 511 233q221 187 379 437q117 185 117 299 q0 52 -28 93q-32 47 -82 47q-133 0 -326 -176q-197 -178 -197 -308q0 -53 76 -53q97 0 220 138q98 109 155 226l28 -8q-69 -155 -166 -256q-125 -129 -266 -129q-49 0 -76 45q-22 38 -22 90q0 161 204 316q193 147 359 147q75 0 117 -48q39 -45 39 -121q0 -241 -322 -584 q-309 -328 -557 -394q-92 -24 -170 -24q-141 0 -215 100q-66 89 -66 235q0 205 179 436q138 177 350 335q432 321 816 321q100 0 166 -45q75 -51 75 -147q0 -87 -63 -157q-59 -64 -146 -89z" />
<glyph unicode="&#xd5;" horiz-adv-x="1141" d="M1442 1700q31 0 77.5 -36t65.5 -36q43 0 109 70h55q-90 -96 -106 -111q-76 -70 -126 -70q-49 0 -102 37t-63 37q-30 0 -56 -23q-21 -23 -43 -46h-57q76 86 109 114q74 64 137 64zM1432 993q74 30 124 93q54 67 54 143q0 147 -208 147q-256 0 -562 -239 q-228 -179 -441 -451q-246 -314 -246 -481q0 -189 200 -189q236 0 511 233q221 187 379 437q117 185 117 299q0 52 -28 93q-32 47 -82 47q-133 0 -326 -176q-197 -178 -197 -308q0 -53 76 -53q97 0 220 138q98 109 155 226l28 -8q-69 -155 -166 -256q-125 -129 -266 -129 q-49 0 -76 45q-22 38 -22 90q0 161 204 316q193 147 359 147q75 0 117 -48q39 -45 39 -121q0 -241 -322 -584q-309 -328 -557 -394q-92 -24 -170 -24q-141 0 -215 100q-66 89 -66 235q0 205 179 436q138 177 350 335q432 321 816 321q100 0 166 -45q75 -51 75 -147 q0 -87 -63 -157q-59 -64 -146 -89z" />
<glyph unicode="&#xd6;" horiz-adv-x="1141" d="M1432 1001q72 15 124 88q50 70 50 146q0 145 -209 145q-301 0 -692 -358q-187 -171 -347 -381q-213 -281 -213 -444q0 -181 202 -181q173 0 420 173q236 164 408 389q183 239 183 411q0 58 -33 96.5t-90 38.5q-134 0 -322 -176t-188 -309q0 -17 22 -34t39 -17 q111 0 234 137q87 97 160 236l6 -9l6 -4h12q-56 -140 -165 -254q-131 -136 -259 -136q-107 0 -107 123q0 170 196 328q187 150 362 150q70 0 116 -46t46 -117q0 -154 -149 -371q-111 -161 -269 -314q-338 -325 -641 -325q-139 0 -211 100q-64 88 -64 232q0 251 239 520 q215 244 534.5 412t563.5 168q108 0 174 -46q77 -54 77 -158q0 -83 -65 -150q-57 -61 -142 -87zM1496 1733q83 0 83 -81q0 -45 -35 -79.5t-80 -34.5q-82 0 -82 79q0 44 35 80t79 36zM1813 1729q75 0 75 -75q0 -44 -33.5 -80t-76.5 -36q-86 0 -86 90q0 43 40 73q37 28 81 28z " />
<glyph unicode="&#xd8;" horiz-adv-x="1225" d="M125 258q0 63 2 86q11 128 71 250q147 300 526 556q390 263 716 263q221 0 264 -156l186 113l17 -31l-205 -135q-20 -90 -55 -130q-26 -30 -115 -83q-28 -16 -37 -16q-8 0 -8 10q0 2 2 4t2 4q75 54 99 78q41 42 69 107l-207 -134q-3 -134 -56 -249q-37 -79 -136 -217 q-426 -592 -861 -592q-102 0 -176 62t-88 163l-188 -111l-23 33zM1245 920q-60 -133 -159 -234q-123 -125 -242 -125q-71 0 -90 43l-543 -334q-10 -37 -10 -76q0 -81 57 -130.5t139 -49.5q195 0 442 173q234 163 398 396q174 247 174 441zM735 637q-2 30 -2 65 q0 153 205 307q194 146 353 146q80 0 141 -76l235 154q-17 90 -77 124q-48 28 -147 28q-196 0 -471 -190q-247 -171 -462 -423.5t-277 -441.5zM851 586q95 0 202 106q88 88 137 193l-408 -256q29 -43 69 -43zM1397 1061q-29 69 -110 69q-126 0 -302 -163t-197 -289z" />
<glyph unicode="&#xd9;" horiz-adv-x="1466" d="M1671 1714l51 -229h-36l-232 229h217zM2085 1397q-241 -324 -596 -785q-95 -116 -279 -353q-48 -63 -129 -196q-10 -20 -10 -22q0 -27 43 -27q95 0 440 275l19 -19q-354 -284 -470 -284t-116 115q0 79 82 202q68 91 135 182q-167 -153 -333 -305q-233 -194 -382 -194 q-52 0 -84.5 41t-32.5 94q0 126 207 375q191 217 383 434q206 243 206 355q0 116 -203 116q-179 0 -369 -134q-205 -145 -205 -316q0 -53 36.5 -86.5t89.5 -33.5q150 0 284 160q115 138 153 301h25q-41 -163 -97 -257q-73 -122 -198 -185q-97 -49 -163 -49 q-70 0 -117.5 45.5t-47.5 115.5q0 186 226 330q203 130 400 130q110 0 190 -53q92 -60 92 -165q0 -139 -211 -404q-64 -80 -393 -442q-211 -233 -211 -295q0 -49 45 -49q229 0 760 577q439 477 638 806h193z" />
<glyph unicode="&#xda;" horiz-adv-x="1466" d="M1661 1704l237 -6l-307 -217l-49 4zM2085 1397q-241 -324 -596 -785q-95 -116 -279 -353q-48 -63 -129 -196q-10 -20 -10 -22q0 -27 43 -27q95 0 440 275l19 -19q-354 -284 -470 -284t-116 115q0 79 82 202q68 91 135 182q-167 -153 -333 -305q-233 -194 -382 -194 q-52 0 -84.5 41t-32.5 94q0 126 207 375q191 217 383 434q206 243 206 355q0 116 -203 116q-179 0 -369 -134q-205 -145 -205 -316q0 -53 36.5 -86.5t89.5 -33.5q150 0 284 160q115 138 153 301h25q-41 -163 -97 -257q-73 -122 -198 -185q-97 -49 -163 -49 q-70 0 -117.5 45.5t-47.5 115.5q0 186 226 330q203 130 400 130q110 0 190 -53q92 -60 92 -165q0 -139 -211 -404q-64 -80 -393 -442q-211 -233 -211 -295q0 -49 45 -49q229 0 760 577q439 477 638 806h193z" />
<glyph unicode="&#xdb;" horiz-adv-x="1466" d="M1800 1769l23 -272h-39l-88 98l-242 -98l-88 8q96 34 224 120zM2085 1397q-241 -324 -596 -785q-95 -116 -279 -353q-48 -63 -129 -196q-10 -20 -10 -22q0 -27 43 -27q95 0 440 275l19 -19q-354 -284 -470 -284t-116 115q0 79 82 202q68 91 135 182q-167 -153 -333 -305 q-233 -194 -382 -194q-52 0 -84.5 41t-32.5 94q0 126 207 375q191 217 383 434q206 243 206 355q0 116 -203 116q-179 0 -369 -134q-205 -145 -205 -316q0 -53 36.5 -86.5t89.5 -33.5q150 0 284 160q115 138 153 301h25q-41 -163 -97 -257q-73 -122 -198 -185 q-97 -49 -163 -49q-70 0 -117.5 45.5t-47.5 115.5q0 186 226 330q203 130 400 130q110 0 190 -53q92 -60 92 -165q0 -139 -211 -404q-64 -80 -393 -442q-211 -233 -211 -295q0 -49 45 -49q229 0 760 577q439 477 638 806h193z" />
<glyph unicode="&#xdc;" horiz-adv-x="1466" d="M2097 1403l-606 -785l-234 -294q-189 -243 -186 -277l8 -16q15 -11 36 -11q56 0 220 115q107 80 215 160l17 -31q-329 -284 -461 -284q-122 0 -122 120q0 78 85 205q16 23 139 184q-20 -13 -121 -118q-126 -133 -273 -242q-200 -148 -314 -148q-125 0 -125 142 q0 133 204 378q190 213 380 425q204 241 204 364q0 58 -75 85q-54 20 -123 20q-177 0 -368 -133q-208 -143 -208 -311q0 -51 35 -85.5t86 -34.5q160 0 311 185q70 85 127 282h31q-38 -199 -148 -337q-131 -163 -315 -163q-162 0 -162 163q0 190 222 335q199 131 400 131 q123 0 201 -58q89 -65 89 -183q0 -117 -212 -381q-56 -69 -394 -449q-211 -238 -211 -293q0 -49 40 -49q160 0 455 266q136 123 393 402q130 140 289 353l270 368h201zM1536 1726q78 0 78 -82q0 -47 -36.5 -79.5t-84.5 -32.5q-75 0 -75 82q0 46 36 79t82 33zM1726 1618 q0 39 37 73t77 34q83 0 83 -78q0 -44 -34.5 -79.5t-78.5 -35.5q-84 0 -84 86z" />
<glyph unicode="&#xdf;" horiz-adv-x="938" d="M1317 1399q88 0 88 -100q0 -198 -389 -433q-95 -53 -205 -125q-29 -32 -29 -69q0 -41 30 -118.5t30 -119.5q0 -204 -221 -340q-170 -104 -276 -104q-45 0 -77 23q-37 26 -37 69q0 48 30 85.5t77 37.5q54 0 54 -47q0 -38 -17 -55q-12 -12 -51 -25l-5 -4q-16 -5 -16 -25 q0 -33 47 -33q35 0 125 66q147 107 219 346q19 102 37 205q24 109 111 170q467 327 467 524q0 47 -52 47q-88 0 -233 -141q-106 -104 -250 -292q-91 -122 -182 -245q-313 -408 -946 -1220h-181q35 44 658 854l328 426q218 284 373 419q255 224 493 224z" />
<glyph unicode="&#xe0;" horiz-adv-x="979" d="M846 1059l61 -223h-43l-219 223h201zM932 645h184q-121 -153 -241 -306q-184 -240 -195 -296q8 -10 18 -10q107 0 361 252l20 -27q-65 -75 -189 -165q-146 -107 -214 -107q-42 0 -77.5 36.5t-35.5 77.5q0 20 25 101q-60 -75 -160 -141q-114 -74 -195 -74q-53 0 -87 39.5 t-34 93.5q0 192 235 374q223 173 421 173q100 0 100 -81q0 -16 -6 -34zM213 51q0 -35 39 -35q106 0 342.5 233t236.5 339q0 33 -36 33q-100 0 -341 -235.5t-241 -334.5z" />
<glyph unicode="&#xe1;" horiz-adv-x="979" d="M866 1067h201l-289 -227h-55zM932 645h184q-121 -153 -241 -306q-184 -240 -195 -296q8 -10 18 -10q107 0 361 252l20 -27q-65 -75 -189 -165q-146 -107 -214 -107q-42 0 -77.5 36.5t-35.5 77.5q0 20 25 101q-60 -75 -160 -141q-114 -74 -195 -74q-53 0 -87 39.5 t-34 93.5q0 192 235 374q223 173 421 173q100 0 100 -81q0 -16 -6 -34zM213 51q0 -35 39 -35q106 0 342.5 233t236.5 339q0 33 -36 33q-100 0 -341 -235.5t-241 -334.5z" />
<glyph unicode="&#xe2;" horiz-adv-x="979" d="M981 1108l29 -262h-39l-88 98l-250 -98h-80zM932 645h184q-121 -153 -241 -306q-184 -240 -195 -296q8 -10 18 -10q107 0 361 252l20 -27q-65 -75 -189 -165q-146 -107 -214 -107q-42 0 -77.5 36.5t-35.5 77.5q0 20 25 101q-60 -75 -160 -141q-114 -74 -195 -74 q-53 0 -87 39.5t-34 93.5q0 192 235 374q223 173 421 173q100 0 100 -81q0 -16 -6 -34zM213 51q0 -35 39 -35q106 0 342.5 233t236.5 339q0 33 -36 33q-100 0 -341 -235.5t-241 -334.5z" />
<glyph unicode="&#xe3;" horiz-adv-x="979" d="M797 1022q34 0 80.5 -35t72.5 -35q41 0 92 70h62q-104 -113 -107 -116q-74 -69 -135 -69q-37 0 -87 37t-70 37q-43 0 -101 -69h-55q88 94 110 114q76 66 138 66zM934 645h184q-121 -153 -241 -306q-184 -240 -195 -296q8 -10 18 -10q107 0 361 252l20 -27 q-65 -75 -189 -165q-146 -107 -214 -107q-42 0 -77.5 36.5t-35.5 77.5q0 20 25 101q-60 -75 -160 -141q-114 -74 -194 -74q-54 0 -88 39.5t-34 93.5q0 192 235 374q223 173 421 173q100 0 100 -81q0 -16 -6 -34zM215 51q0 -35 39 -35q106 0 343 233t237 339q0 33 -37 33 q-99 0 -340.5 -235.5t-241.5 -334.5z" />
<glyph unicode="&#xe4;" horiz-adv-x="979" d="M926 643h182q-432 -557 -432 -594q0 -18 18 -18q49 0 189 104q121 92 174 150l22 -27q-82 -82 -194 -163q-147 -107 -215 -107q-36 0 -72.5 33.5t-36.5 68.5q0 37 23 103q-71 -72 -163 -130q-115 -74 -188 -74q-122 0 -122 136q0 205 247 379q228 160 443 160 q58 0 58 -83q0 -23 -5 -46zM207 49q7 -33 41 -33q108 0 345.5 233t237.5 339q0 37 -38 37q-103 0 -338.5 -235t-247.5 -341zM883 1057q76 0 76 -80q0 -44 -34 -77.5t-78 -33.5q-84 0 -84 79q0 46 36.5 79t83.5 33zM1077 950q0 39 34.5 72t73.5 33q31 0 58 -24.5t27 -55.5 q0 -43 -36 -76t-79 -33q-30 0 -54 18t-24 46v20z" />
<glyph unicode="&#xe5;" horiz-adv-x="979" d="M928 643h178l-238 -310q-193 -255 -193 -286q0 -16 19 -16q51 0 190 104q120 90 173 150l20 -27q-302 -269 -410 -269q-43 0 -74.5 38.5t-31.5 83.5q0 33 19 86q-205 -206 -349 -206q-120 0 -120 134q0 187 236 368q223 171 417 171q95 0 95 -76q0 -18 -5 -41zM209 49 q0 -33 43 -33q110 0 343.5 233t233.5 343q0 31 -41 31q-98 0 -338.5 -238.5t-240.5 -335.5zM1077 1102q52 0 85.5 -33.5t33.5 -85.5q0 -65 -52 -110.5t-118 -45.5q-113 0 -113 111q0 66 49 115t115 49zM1033 870q40 0 77 39.5t37 79.5q0 28 -20.5 50t-48.5 22 q-44 0 -82 -39.5t-38 -82.5q0 -69 75 -69z" />
<glyph unicode="&#xe6;" horiz-adv-x="1182" d="M909 645h156l-82 -102q50 40 130 77q91 44 142 44q62 0 62 -60q0 -98 -216 -209q-87 -44 -308 -129q-114 -142 -114 -185q0 -63 50 -63q132 0 287 93l254 176l16 -23q-316 -277 -564 -277q-147 0 -147 165q0 28 5 59q-133 -113 -172 -140q-115 -81 -197 -81 q-113 0 -113 139q0 186 236 365q224 170 416 170q88 0 88 -78q0 -15 -9 -47zM195 45l18 -25q10 -4 27 -4q98 0 333.5 236.5t235.5 335.5q0 39 -41 39q-100 0 -330 -239q-226 -235 -243 -343zM1278 606q0 31 -39 31q-74 0 -219 -131q-26 -23 -195 -193q127 35 266 110 q187 101 187 183z" />
<glyph unicode="&#xe7;" horiz-adv-x="692" d="M-45 -211q0 13 -10.5 36t-10.5 36q0 43 42 83t85 40q76 0 76 -76q0 -118 -164 -226q-125 -83 -272 -122q-8 6 -8 18q0 2 2 8q88 30 159 75q101 64 101 128zM737 270q-101 -101 -242 -184q-168 -100 -280 -100q-68 0 -108 48q-37 44 -37 113q0 182 237 361 q225 168 414 168q119 0 119 -84q0 -53 -29 -95q-32 -47 -83 -47q-61 0 -61 54q0 51 33 67q4 2 60 14q32 7 31 33l-11 19l-12 4l-18 2q-108 0 -342 -232t-234 -340q0 -55 55 -55q85 0 255 107q134 84 233 172z" />
<glyph unicode="&#xe8;" horiz-adv-x="735" d="M737 1059l60 -223h-39l-221 223h200zM231 72q0 -56 78 -56q107 0 282 95q149 81 251 172l18 -23q-327 -272 -555 -272q-180 0 -180 145q0 188 246 364q229 165 426 165q82 0 82 -76q0 -84 -224 -196q-154 -77 -307 -124q-31 -27 -72 -91q-45 -70 -45 -103zM842 612 q0 23 -49 23q-68 0 -219 -131q-107 -92 -195 -191q136 34 275 107q188 100 188 192z" />
<glyph unicode="&#xe9;" horiz-adv-x="735" d="M764 1067h201l-291 -227h-51zM238 72q0 -56 77 -56q107 0 282 95q150 81 251 172l18 -23q-326 -272 -555 -272q-180 0 -180 145q0 188 246 364q229 165 426 165q82 0 82 -76q0 -84 -224 -196q-154 -77 -307 -124q-31 -27 -72 -91q-44 -70 -44 -103zM848 612q0 23 -49 23 q-68 0 -219 -131q-107 -92 -195 -191q136 34 275 107q188 100 188 192z" />
<glyph unicode="&#xea;" horiz-adv-x="735" d="M879 1108l28 -262h-37l-92 98l-248 -98h-81zM238 72q0 -56 77 -56q107 0 282 95q150 81 251 172l18 -23q-326 -272 -555 -272q-180 0 -180 145q0 188 246 364q229 165 426 165q82 0 82 -76q0 -84 -224 -196q-154 -77 -307 -124q-31 -27 -72 -91q-44 -70 -44 -103z M848 612q0 23 -49 23q-68 0 -219 -131q-107 -92 -195 -191q136 34 275 107q188 100 188 192z" />
<glyph unicode="&#xeb;" horiz-adv-x="735" d="M598 1051q85 0 85 -80q0 -44 -37.5 -77.5t-82.5 -33.5q-80 0 -80 70q0 47 34 84t81 37zM795 946q0 47 37.5 77t85.5 30q27 0 48 -20.5t21 -47.5q0 -50 -34 -86t-84 -36q-74 0 -74 83zM236 72q0 -56 77 -56q107 0 282 95q149 81 251 172l18 -23q-327 -272 -555 -272 q-180 0 -180 145q0 188 246 364q229 165 426 165q82 0 82 -76q0 -84 -224 -196q-154 -77 -307 -124q-31 -27 -72 -91q-44 -70 -44 -103zM846 612q0 23 -49 23q-68 0 -219 -131q-107 -92 -195 -191q136 34 275 107q188 100 188 192z" />
<glyph unicode="&#xec;" horiz-adv-x="489" d="M629 1059l61 -223h-43l-221 223h203zM645 641q-436 -550 -436 -600q0 -14 33 -14q45 0 182 106q119 91 170 148l14 -23q-266 -268 -402 -268q-92 0 -92 118q0 84 139 275l204 258h188z" />
<glyph unicode="&#xed;" horiz-adv-x="489" d="M647 1067h201l-289 -227h-53zM643 641q-436 -550 -436 -600q0 -14 33 -14q45 0 182 106q119 91 170 148l14 -23q-266 -268 -402 -268q-92 0 -92 118q0 84 139 275l204 258h188z" />
<glyph unicode="&#xee;" horiz-adv-x="489" d="M762 1108l29 -262h-39l-88 98l-250 -98h-80zM643 641q-436 -550 -436 -600q0 -14 33 -14q45 0 182 106q119 91 170 148l14 -23q-266 -268 -402 -268q-92 0 -92 118q0 84 139 275l204 258h188z" />
<glyph unicode="&#xef;" horiz-adv-x="489" d="M483 1051q83 0 83 -80q0 -44 -35.5 -77.5t-79.5 -33.5q-82 0 -82 70q0 47 33.5 84t80.5 37zM678 946q0 47 41 78q37 29 86 29q66 0 66 -74q0 -48 -34.5 -82t-82.5 -34q-76 0 -76 83zM643 641q-436 -550 -436 -600q0 -14 33 -14q45 0 182 106q119 91 170 148l14 -23 q-266 -268 -402 -268q-92 0 -92 118q0 84 139 275l204 258h188z" />
<glyph unicode="&#xf1;" horiz-adv-x="979" d="M764 1022q34 0 80.5 -35t73.5 -35q40 0 92 70h61q-104 -113 -107 -116q-74 -69 -135 -69q-37 0 -86.5 37t-70.5 37q-43 0 -101 -69h-55q88 94 111 114q75 66 137 66zM440 643h185q-98 -101 -176 -237q284 254 423 254q93 0 93 -117q0 -80 -81 -185q-20 -27 -155 -174 q-88 -97 -98 -145l8 -14q16 -5 25 -5q43 0 197 111q142 101 188 152l18 -25q-137 -124 -205 -172q-140 -100 -237 -100t-97 116q0 73 92 191q39 51 169 190q92 98 92 123t-27 25q-139 0 -489 -355q-86 -86 -220 -270h-194z" />
<glyph unicode="&#xf2;" horiz-adv-x="735" d="M733 1059l60 -223h-39l-222 223h201zM844 303v-29q-15 -2 -47 -2q-55 0 -99 35q-85 -122 -196 -210q-139 -109 -257 -109q-126 0 -126 144q0 182 224 362q214 172 401 172q32 0 56.5 -25.5t24.5 -56.5q0 -86 -98 -248q38 -36 88 -36q14 0 29 3zM684 367q0 68 29 110 q12 18 54 52q30 24 30 49q0 45 -41 45q-93 0 -319 -236t-226 -330q0 -43 43 -43q92 0 237 123q105 89 195 201q-2 12 -2 29z" />
<glyph unicode="&#xf3;" horiz-adv-x="735" d="M758 1067h200l-290 -227h-52zM848 303v-29q-14 -2 -47 -2q-55 0 -99 35q-85 -122 -196 -210q-139 -109 -257 -109q-126 0 -126 144q0 182 224 362q214 172 402 172q31 0 55.5 -25.5t24.5 -56.5q0 -86 -98 -248q38 -36 88 -36q14 0 29 3zM688 367q0 68 29 110q13 18 55 52 q29 24 29 49q0 45 -41 45q-93 0 -319 -236t-226 -330q0 -43 43 -43q92 0 237 123q105 89 195 201q-2 12 -2 29z" />
<glyph unicode="&#xf4;" horiz-adv-x="735" d="M874 1108l29 -262h-37l-92 98l-248 -98h-82zM850 303v-29q-14 -2 -47 -2q-55 0 -98 35q-86 -122 -197 -210q-139 -109 -257 -109q-126 0 -126 144q0 182 224 362q214 172 402 172q31 0 55.5 -25.5t24.5 -56.5q0 -86 -98 -248q38 -36 88 -36q14 0 29 3zM690 367 q0 68 29 110q13 18 55 52q29 24 29 49q0 45 -41 45q-93 0 -319 -236t-226 -330q0 -43 43 -43q92 0 237 123q105 89 195 201q-2 12 -2 29z" />
<glyph unicode="&#xf5;" horiz-adv-x="735" d="M684 1022q36 0 82.5 -35t74.5 -35q33 0 91 70h61q-103 -112 -107 -117q-74 -68 -136 -68q-36 0 -85.5 37t-70.5 37q-35 0 -100 -69h-56q100 106 110 114q74 66 136 66zM848 303v-29q-14 -2 -47 -2q-55 0 -99 35q-85 -122 -196 -210q-139 -109 -257 -109q-126 0 -126 144 q0 182 224 362q214 172 402 172q31 0 55.5 -25.5t24.5 -56.5q0 -86 -98 -248q38 -36 88 -36q14 0 29 3zM688 367q0 68 29 110q13 18 55 52q29 24 29 49q0 45 -41 45q-93 0 -319 -236t-226 -330q0 -43 43 -43q92 0 237 123q105 89 195 201q-2 12 -2 29z" />
<glyph unicode="&#xf6;" horiz-adv-x="735" d="M842 303v-29q-15 -2 -41 -2q-57 0 -99 39q-267 -321 -453 -321q-135 0 -135 140q0 180 222 359q212 173 396 173q33 0 61.5 -21t28.5 -53q0 -86 -97 -252q31 -36 84 -36q16 0 33 3zM784 547q9 28 9 35q0 35 -43 43q-108 -23 -324 -243q-221 -224 -221 -325q0 -43 53 -43 q93 0 237 125q114 99 189 205l-2 15q0 68 24 109q21 38 78 79zM819 1055q26 0 51 -17q27 -20 27 -45v-22q0 -41 -36.5 -74t-78.5 -33q-80 0 -80 78q0 45 35.5 79t81.5 34zM1122 1059q80 0 80 -71q0 -47 -33 -83.5t-79 -36.5q-79 0 -79 76q0 43 34 79t77 36z" />
<glyph unicode="&#xf7;" horiz-adv-x="1032" d="M-27 555h1002v-106h-1002v106zM465 868q44 0 75 -31t31 -75t-31 -75.5t-75 -31.5t-75.5 31.5t-31.5 75.5t31.5 75t75.5 31zM465 348q44 0 75 -31.5t31 -74.5q0 -44 -31 -75.5t-75 -31.5t-75.5 31.5t-31.5 75.5q0 43 31.5 74.5t75.5 31.5z" />
<glyph unicode="&#xf8;" horiz-adv-x="735" d="M94 94q-2 45 -2 50q0 172 216 351q208 171 384 171q114 0 109 -117l112 67l15 -28l-146 -90l-82 -160q45 -38 85 -38q16 0 34 5v-24q-22 -9 -63 -9q-43 0 -78 41q-146 -160 -201 -207q-136 -115 -254 -115q-97 0 -119 75l-120 -74l-13 22zM666 422q-62 -37 -183 -113 q-90 -60 -272 -176q-27 -43 -27 -80t60 -37q88 0 231 126q117 104 184 204zM678 465q27 48 84 82q4 31 4 47q0 31 -29 31q-84 0 -266 -175q-162 -154 -219 -255z" />
<glyph unicode="&#xf9;" horiz-adv-x="938" d="M821 1059l62 -223h-43l-219 223h200zM610 641q-434 -537 -434 -600q0 -17 22 -17l11 1q60 1 235 139q100 78 218 229q170 217 198 248h184l-244 -310q-194 -252 -194 -292q0 -16 29 -16q51 0 192 107q110 83 181 153l14 -25q-155 -137 -194 -167q-137 -103 -220 -103 q-100 0 -100 102q0 54 16 103q-69 -65 -156 -124q-117 -79 -173 -79q-111 0 -111 109q0 95 134 282l206 260h186z" />
<glyph unicode="&#xfa;" horiz-adv-x="938" d="M848 1067h201l-291 -227h-53zM616 641q-434 -537 -434 -600q0 -17 22 -17l11 1q60 1 236 139q99 78 217 229q171 217 198 248h185q-123 -155 -245 -310q-194 -252 -194 -292q0 -16 29 -16q51 0 193 107q109 83 180 153l14 -25q-155 -137 -194 -167q-137 -103 -220 -103 q-100 0 -100 102q0 54 16 103q-68 -65 -156 -124q-117 -79 -173 -79q-111 0 -111 109q0 95 135 282q102 130 205 260h186z" />
<glyph unicode="&#xfb;" horiz-adv-x="938" d="M956 1108l29 -262h-37l-92 98l-248 -98h-80zM610 641q-434 -537 -434 -600q0 -17 22 -17l11 1q60 1 235 139q100 78 218 229q170 217 198 248h184l-244 -310q-194 -252 -194 -292q0 -16 29 -16q51 0 192 107q110 83 181 153l14 -25q-155 -137 -194 -167 q-137 -103 -220 -103q-100 0 -100 102q0 54 16 103q-69 -65 -156 -124q-117 -79 -173 -79q-111 0 -111 109q0 95 134 282l206 260h186z" />
<glyph unicode="&#xfc;" horiz-adv-x="938" d="M785 1051q31 0 51 -22.5t20 -53.5q0 -44 -34.5 -78.5t-78.5 -34.5q-81 0 -81 74q0 50 36 82.5t87 32.5zM971 948q0 45 41 76q38 29 84 29q28 0 47.5 -23t19.5 -52q0 -44 -36.5 -80t-79.5 -36q-76 0 -76 86zM616 641q-434 -537 -434 -600q0 -17 22 -17l11 1q60 1 236 139 q99 78 217 229q171 217 198 248h185q-123 -155 -245 -310q-194 -252 -194 -292q0 -16 29 -16q51 0 193 107q109 83 180 153l14 -25q-155 -137 -194 -167q-137 -103 -220 -103q-100 0 -100 102q0 54 16 103q-68 -65 -156 -124q-117 -79 -173 -79q-111 0 -111 109 q0 95 135 282q102 130 205 260h186z" />
<glyph unicode="&#xff;" horiz-adv-x="938" d="M602 1051q85 0 85 -80q0 -44 -37.5 -77.5t-82.5 -33.5q-80 0 -80 79q0 43 36 77.5t79 34.5zM799 946q0 46 39 77q36 30 84 30q29 0 49 -22t20 -51q0 -47 -34.5 -82t-81.5 -35q-76 0 -76 83zM457 211q-73 -73 -165 -133q-117 -76 -190 -76q-43 0 -70.5 30t-27.5 74 q0 81 53 164q12 21 107 140.5t178 228.5h186q-110 -137 -221 -275q-125 -159 -203 -288l-2 -17q0 -18 25 -18q114 0 412 299q85 85 258 307l174 -8l-459 -600q84 20 233 104q130 74 218 142l22 -23q-269 -195 -516 -278q-389 -519 -727 -519q-87 0 -87 65q0 118 261 275 q166 99 375 183q99 117 166 223zM-295 -469q0 -37 47 -37q112 0 284 177q63 66 230 274q-561 -239 -561 -414z" />
<glyph unicode="&#x152;" horiz-adv-x="1796" d="M2009 1409q44 0 80 -24q41 -28 41 -70q0 -136 -157 -273q-153 -134 -291 -134q-91 0 -91 67q0 105 144 188l14 -20q-48 -24 -83 -68q-40 -50 -40 -98q0 -42 70 -42q19 0 82 30q118 55 202 130q113 101 113 200q0 84 -86 84q-156 0 -378 -175q-232 -181 -232 -332 q0 -33 22 -63q32 2 92 2q25 0 48 -8l12 -17l2 -10q-14 -21 -57 -21q-53 0 -109 31q-209 -118 -354 -263q-197 -196 -197 -373q0 -136 234 -136q188 0 388 107q234 124 234 295q0 49 -46 80q-42 28 -93 28q-299 0 -569 -338h-9q-8 0 -18 13q134 174 244 252q148 105 330 105 q77 0 130 -35q62 -40 62 -112q0 -189 -239 -316q-202 -107 -410 -107q-177 0 -263 60q-99 70 -112 239q-81 -107 -247 -198q-172 -96 -299 -96q-251 0 -251 306q0 238 240 511q218 248 536 423.5t551 175.5q107 0 152 -36t63 -140q251 178 545 178zM1018 934 q-50 -125 -155 -238q-124 -135 -236 -135q-40 0 -76.5 32t-36.5 72q0 178 190 330q180 144 363 144q141 0 141 -142q0 -26 -6 -53q87 47 152 129q73 93 73 180q0 63 -53 99q-46 32 -111 32q-251 0 -597 -288q-202 -168 -402 -428q-248 -322 -248 -504q0 -148 172 -148 q268 0 701 523q289 348 289 477q0 46 -38 75q-34 27 -81 27q-129 0 -313.5 -172.5t-184.5 -300.5q0 -63 70 -63q100 0 217 133q91 104 145 225zM1380 803q-62 70 -62 156q0 17 3 32q-44 -24 -131 -76l-119 -221q188 89 309 109z" />
<glyph unicode="&#x153;" horiz-adv-x="1182" d="M1241 660q76 0 76 -60q0 -96 -211 -207q-140 -72 -303 -123q-119 -148 -119 -198q0 -56 70 -56q98 0 272 101q127 73 248 170l18 -25q-349 -275 -561 -275q-67 0 -109 39t-42 105q0 38 20 100q-128 -114 -183 -152q-122 -87 -212 -87q-47 0 -79 42q-30 39 -30 87 q0 193 241 373q227 170 427 170q80 0 80 -73q0 -47 -27 -95q239 164 424 164zM195 49q0 -10 12 -20.5t22 -10.5q110 0 349 233.5t239 342.5q0 29 -39 29q-96 0 -339.5 -238.5t-243.5 -335.5zM1282 604q0 29 -39 29q-69 0 -218 -130q-116 -101 -189 -192q113 32 260 114 q186 103 186 179z" />
<glyph unicode="&#x178;" horiz-adv-x="1305" d="M1417 1729q32 0 54 -25t22 -57q0 -42 -35 -76.5t-78 -34.5q-80 0 -80 73q0 50 34 85t83 35zM1610 1620q0 44 34.5 76.5t77.5 32.5q80 0 80 -78q0 -46 -34.5 -79.5t-79.5 -33.5q-78 0 -78 82zM1124 602q-151 -152 -300 -261q-217 -159 -346 -159q-116 0 -116 144 q0 136 177 334q165 165 329 331q177 186 177 291q0 117 -195 117q-192 0 -403 -114q-244 -131 -244 -306q0 -50 39 -80.5t90 -30.5q131 0 293 119q153 114 213 240q8 20 28 61h23q-5 -12 -15 -37q-69 -169 -212 -283q-154 -123 -327 -123q-166 0 -166 142q0 194 261 329 q221 114 437 114q233 0 233 -203q0 -175 -173 -388q-67 -83 -322 -330q-173 -168 -173 -234q0 -59 57 -59q253 0 1127 949q17 19 242 236h174q-469 -447 -1100 -1305q189 84 387 230l20 -31q-192 -150 -450 -256q-139 -207 -349 -360q-244 -177 -458 -177q-129 0 -129 101 q0 127 306 266q216 99 427 147q7 10 227 288q137 173 211 298zM-8 -410q0 -62 94 -62q142 0 319 165q83 77 250 280q-193 -45 -388 -136q-275 -128 -275 -247z" />
<glyph unicode="&#x2c6;" horiz-adv-x="0" d="M532 1108l29 -262h-35l-92 98l-248 -98h-82z" />
<glyph unicode="&#x2dc;" horiz-adv-x="0" d="M346 1022q36 0 82.5 -35t72.5 -35q35 0 93 70h61q-87 -97 -108 -116q-75 -69 -135 -69q-36 0 -85.5 37t-70.5 37q-46 0 -102 -69h-54q158 180 246 180z" />
<glyph unicode="&#x2000;" horiz-adv-x="884" />
<glyph unicode="&#x2001;" horiz-adv-x="1769" />
<glyph unicode="&#x2002;" horiz-adv-x="884" />
<glyph unicode="&#x2003;" horiz-adv-x="1769" />
<glyph unicode="&#x2004;" horiz-adv-x="589" />
<glyph unicode="&#x2005;" horiz-adv-x="442" />
<glyph unicode="&#x2006;" horiz-adv-x="294" />
<glyph unicode="&#x2007;" horiz-adv-x="294" />
<glyph unicode="&#x2008;" horiz-adv-x="221" />
<glyph unicode="&#x2009;" horiz-adv-x="353" />
<glyph unicode="&#x200a;" horiz-adv-x="98" />
<glyph unicode="&#x2010;" horiz-adv-x="610" d="M274 414h496l-90 -127h-504z" />
<glyph unicode="&#x2011;" horiz-adv-x="610" d="M274 414h496l-90 -127h-504z" />
<glyph unicode="&#x2012;" horiz-adv-x="610" d="M274 414h496l-90 -127h-504z" />
<glyph unicode="&#x2013;" d="M236 410h698q-33 -25 -107 -125h-688z" />
<glyph unicode="&#x2014;" horiz-adv-x="979" d="M195 625h987v-90h-987v90z" />
<glyph unicode="&#x2018;" horiz-adv-x="489" d="M946 1364q-75 -26 -145 -74q-92 -64 -92 -121q0 -4 11 -32.5t11 -45.5q0 -52 -41.5 -95.5t-93.5 -43.5q-86 0 -86 87q0 203 436 354v-29z" />
<glyph unicode="&#x2019;" horiz-adv-x="489" d="M889 975q74 29 138 75q87 62 87 117q-23 46 -23 80q0 51 41.5 95.5t92.5 44.5q92 0 92 -95q0 -192 -428 -350v33z" />
<glyph unicode="&#x201a;" horiz-adv-x="446" d="M-59 -195q232 96 232 193q0 9 -13 34.5t-13 44.5q0 54 43 96t97 42q90 0 90 -82q0 -114 -166 -227q-126 -86 -270 -131v30z" />
<glyph unicode="&#x201c;" d="M1106 1356q-114 -57 -140 -74q-85 -58 -85 -119q0 -15 12 -41t12 -41q0 -54 -42.5 -98t-96.5 -44q-84 0 -84 93q0 117 158 227q117 82 266 130v-33zM1481 1362q-69 -24 -141 -73q-91 -63 -91 -116q0 -16 12 -45t12 -45q0 -50 -40.5 -93.5t-89.5 -43.5q-95 0 -95 82 q0 123 160 233q114 78 273 130v-29z" />
<glyph unicode="&#x201d;" d="M813 1163q0 15 -10.5 41.5t-10.5 41.5q0 55 43 96t98 41q83 0 83 -92q0 -118 -159 -220q-83 -54 -263 -127l-12 29q231 90 231 190zM1186 1160q0 10 -12.5 39t-12.5 47q0 54 42 95.5t96 41.5q86 0 86 -79q0 -123 -153 -231q-109 -76 -265 -129l-13 8l-4 17q75 31 142 76 q94 64 94 115z" />
<glyph unicode="&#x201e;" d="M143 -6q0 13 -14 38.5t-14 41.5q0 50 43 95.5t93 45.5q93 0 93 -88q0 -115 -162 -223q-124 -82 -268 -123l-10 29q68 18 145 69q94 62 94 115zM510 -8q0 15 -12.5 42t-12.5 43q0 54 44 97t98 43q84 0 84 -74q0 -129 -151 -238q-119 -88 -269 -126l-6 26q122 63 138 73 q87 57 87 114z" />
<glyph unicode="&#x2022;" horiz-adv-x="682" d="M608 723q0 -113 -75 -189.5t-187 -76.5q-111 0 -191.5 78t-80.5 188q0 109 81 187.5t191 78.5q109 0 185.5 -78.5t76.5 -187.5z" />
<glyph unicode="&#x2026;" horiz-adv-x="2048" d="M449 0h-213v217h213v-217zM1130 0h-212v217h212v-217zM1812 0h-213v217h213v-217z" />
<glyph unicode="&#x202f;" horiz-adv-x="353" />
<glyph unicode="&#x2039;" horiz-adv-x="682" d="M502 221l-322 252v189l322 251v-180l-215 -166l215 -166v-180z" />
<glyph unicode="&#x203a;" horiz-adv-x="682" d="M180 401l215 166l-215 166v180l322 -251v-189l-322 -252v180z" />
<glyph unicode="&#x205f;" horiz-adv-x="442" />
<glyph unicode="&#x2122;" horiz-adv-x="1673" d="M569 1282l6 -184l-34 -2v17q2 84 -72 110q-37 14 -145 16v-594q0 -54 96 -53v-35h-305v35q98 -1 98 53v594q-112 -3 -152 -19q-71 -30 -67 -124l-33 2l6 184h602zM848 1282l252 -549l239 549h213v-35h-17q-75 1 -75 -47v-555q0 -53 94 -53v-35h-305v35q99 0 99 53v529 l-256 -617h-35l-275 586v-498q0 -53 99 -53v-35h-246v35q96 0 96 53v537q0 48 -29 60q-15 6 -71 5v35h217z" />
<glyph unicode="&#xe000;" horiz-adv-x="660" d="M0 660h660v-660h-660v660z" />
</font>
</defs>
</svg>
