<?xml version="1.0" standalone="no"?>
<!DOCTYPE svg PUBLIC "-//W3C//DTD SVG 1.1//EN" "http://www.w3.org/Graphics/SVG/1.1/DTD/svg11.dtd" >
<svg xmlns="http://www.w3.org/2000/svg">
<metadata></metadata>
<defs>
<font id="feliparegular" horiz-adv-x="410" >
<font-face units-per-em="1000" ascent="800" descent="-200" />
<missing-glyph horiz-adv-x="256" />
<glyph unicode=" "  horiz-adv-x="256" />
<glyph unicode="&#x09;" horiz-adv-x="256" />
<glyph unicode="&#xa0;" horiz-adv-x="256" />
<glyph unicode="!" horiz-adv-x="358" d="M230 819l84 52q-24 -172 -38 -257t-47 -204t-85 -238l-25 10q93 379 111 637zM40 49l72 69q31 -24 67 -81l-70 -64q-1 1 -26.5 31t-42.5 45z" />
<glyph unicode="&#x22;" horiz-adv-x="370" d="M117 880l68 -19q-10 -39 -25 -79t-31 -78.5t-22 -54.5l-14 15q8 166 24 216zM287 880l68 -19q-10 -39 -25 -79t-31 -78.5t-22 -54.5l-14 15q8 166 24 216z" />
<glyph unicode="#" horiz-adv-x="630" d="M485 639l-26 -187h151l-54 -54h-104l-26 -185h167l-54 -54h-120l-24 -177l-58 -54l31 231h-118l-24 -177l-59 -54l31 231h-141l54 54h95l25 185h-174l54 54h128l18 133l59 54l-26 -187h119l18 133zM283 398l-26 -185h119l25 185h-118z" />
<glyph unicode="$" horiz-adv-x="351" d="M239 638l-19 -135q11 1 32 1q69 0 69 -12q-25 -35 -75 -57q-4 30 -49 30q-27 0 -56.5 -10.5t-41.5 -24.5q0 -28 41.5 -85.5t82.5 -121.5t41 -108q0 -34 -29.5 -62t-75.5 -44l-20 -126l-47 -32l21 147q-24 -2 -32 -2q-35 0 -65.5 12.5t-30.5 24.5l51 46q43 -37 96 -37 q31 0 67 14q0 53 -23.5 105t-51.5 85t-51.5 67.5t-23.5 56.5q0 97 126 126l17 110z" />
<glyph unicode="%" horiz-adv-x="805" d="M600 319q-47 0 -77.5 -47.5t-30.5 -108.5q0 -111 74 -111q114 0 114 158q0 39 -20 74t-60 35zM617 348q63 0 92 -40t29 -104q0 -72 -61.5 -133t-134.5 -61q-42 0 -71.5 35.5t-29.5 97.5q0 40 19.5 86t61.5 82.5t95 36.5zM198 752q-47 0 -77.5 -47.5t-30.5 -108.5 q0 -111 74 -111q114 0 114 158q0 39 -20 74t-60 35zM215 781q63 0 92 -40t29 -104q0 -72 -61.5 -133t-134.5 -61q-42 0 -71.5 35.5t-29.5 97.5q0 40 19.5 86t61.5 82.5t95 36.5zM639 818l49 -50q-78 -129 -267.5 -365.5t-339.5 -396.5l-19 21q15 20 159 204t237.5 315 t180.5 272z" />
<glyph unicode="&#x26;" horiz-adv-x="698" d="M516 52q49 34 115.5 106.5t125.5 152.5l9 -6q-80 -112 -163 -202.5t-138 -112.5q-25 0 -54.5 29.5t-39.5 90.5q-81 -97 -141 -118q-54 0 -93 23t-59.5 63.5t-30 87t-9.5 101.5q0 91 33 182t82.5 156t106.5 105.5t105 40.5q35 0 57.5 -20t22.5 -58q0 -73 -169 -176 q144 13 267 13q5 0 134 -3l-61 -58q-26 2 -137 2q-3 -17 -16 -73t-20.5 -101.5t-7.5 -83.5q0 -125 81 -141zM253 55q44 10 115 80v22q0 158 54 293q-153 0 -286 -29q-5 -2 -13 -6q-14 -59 -14 -116q0 -120 37 -176t107 -68zM317 693q-44 0 -98.5 -71.5t-85.5 -170.5 q37 17 74 38l1 1h1q158 89 161 151q0 24 -13.5 38t-39.5 14z" />
<glyph unicode="'" horiz-adv-x="220" d="M143 880l68 -19q-10 -39 -25 -79t-31 -78.5t-22 -54.5l-14 15q8 166 24 216z" />
<glyph unicode="(" horiz-adv-x="414" d="M301 -68l-13 -15q-98 59 -144.5 178t-29.5 268q17 139 90 266.5t174 186.5l11 -14q-73 -57 -132.5 -189t-74.5 -262q-16 -140 11.5 -252t107.5 -167z" />
<glyph unicode=")" horiz-adv-x="385" d="M131 816q98 -59 144.5 -178t29.5 -268q-17 -139 -90 -266.5t-174 -186.5l-11 14q73 57 132.5 189t74.5 262q16 140 -11.5 252t-107.5 167z" />
<glyph unicode="*" horiz-adv-x="479" d="M316 769l-37 -125l7 -7q17 12 38.5 27t39.5 27.5t39 25.5l4 -71l-115 -40l-4 -14l92 -65l-50 -35l-63 69l-10 -4l-20 -102l-56 -16l41 120l-6 7l-118 -55l-11 18l118 63l5 18q-7 5 -46.5 35.5t-59.5 46.5l60 29l71 -82l11 6l10 99z" />
<glyph unicode="+" horiz-adv-x="621" d="M340 583v-237h243l-54 -54h-189v-190l-54 -54v244h-238l54 54h184v183z" />
<glyph unicode="," horiz-adv-x="272" d="M120 133q21 -17 41 -44t26 -39q-2 -15 -28 -62t-70 -103l-15 11q53 71 53 87q-6 10 -33.5 38.5t-33.5 44.5q8 10 23.5 29t24 28t12.5 10z" />
<glyph unicode="-" horiz-adv-x="400" d="M73 346q141 -1 301 32l-31 -54q-142 -32 -298 -31z" />
<glyph unicode="." horiz-adv-x="270" d="M133 134q31 -24 67 -81l-70 -64q-1 1 -26.5 31t-42.5 45z" />
<glyph unicode="/" horiz-adv-x="436" d="M375 838l49 -50q-51 -169 -181 -498t-146 -373l-41 54q20 52 92 229t129 334t98 304z" />
<glyph unicode="0" horiz-adv-x="529" d="M276 477q-72 0 -130 -77t-58 -163q0 -84 43 -133t106 -51q65 1 110 43.5t62 97t17 114.5q0 67 -42 118t-108 51zM317 520q84 0 125 -51t41 -131q0 -136 -88.5 -236t-206.5 -100q-74 0 -110 51.5t-36 131.5q0 136 80.5 235.5t194.5 99.5z" />
<glyph unicode="1" horiz-adv-x="318" d="M219 519q15 0 15 -37q0 -26 -8 -74q-9 -60 -29.5 -180.5t-29.5 -182.5l-49 -61q-7 5 -7 22q0 83 28 240.5t34 206.5q-23 -12 -101 -69l-8 12q25 27 73.5 65t81.5 58z" />
<glyph unicode="2" horiz-adv-x="440" d="M242 513q47 0 79 -25t32 -78q0 -84 -75 -178q-67 -85 -169 -163l2 -6h174q78 0 133 39l8 -15q-65 -55 -109 -88l-324 1l-7 15q21 11 34 21q50 40 80 65.5t73 68.5t76 85q49 62 49 119q0 87 -89 87q-67 0 -143 -40l-11 16q101 76 187 76z" />
<glyph unicode="3" horiz-adv-x="423" d="M218 514q54 0 86.5 -31t32.5 -92q0 -42 -34 -88.5t-83 -79.5l1 -3q5 1 14 1q48 0 76.5 -34t28.5 -75q0 -72 -39.5 -126t-91.5 -77.5t-103 -23.5q-101 0 -166 40l36 63q94 -48 161 -48q69 0 97 16q45 47 45 110q0 48 -32.5 82.5t-93.5 37.5l-10 17l35 23q30 20 48 34 t36 40t18 53q0 46 -26.5 79.5t-72.5 33.5q-49 0 -128 -45l-11 19q125 74 176 74z" />
<glyph unicode="4" horiz-adv-x="461" d="M231 62q56 331 62 379l-2 3q-35 -87 -112 -201.5t-141 -180.5l3 -3q36 3 94.5 2.5t95.5 0.5zM337 519q17 0 17 -31q0 -111 -64 -424q87 0 154 13l5 -15q-60 -35 -167 -43q-12 -73 -23 -131l-48 -60q-10 8 -7 34q1 17 20 155h-201q-24 0 -56 -5l-7 14q46 35 154.5 186.5 t149.5 243.5q31 38 73 63z" />
<glyph unicode="5" horiz-adv-x="463" d="M191 514q24 0 65 0.5t61 0.5q30 0 108 -2q-28 -26 -60 -61q-72 -3 -108 -3q-55 0 -83 5l-6 -4q-34 -135 -50 -269l3 -5q63 38 118 38q66 0 103.5 -40t37.5 -106q0 -73 -39.5 -127t-91.5 -77t-105 -23q-38 0 -82.5 11t-73.5 29l42 61q98 -47 176 -47q50 0 82.5 29t32.5 98 q0 131 -137 131q-42 0 -101 -17l-8 12q19 200 50 312q11 14 31.5 31t34.5 23z" />
<glyph unicode="6" horiz-adv-x="503" d="M456 642q32 0 55 -9l-58 -68q-21 4 -46 4q-144 0 -222.5 -94.5t-78.5 -243.5q0 -86 43 -134.5t113 -48.5q53 0 83 44.5t30 100.5q0 126 -120 126q-43 0 -99 -33l-7 17q31 29 75.5 51t81.5 22q59 0 89.5 -38.5t30.5 -99.5q0 -80 -65.5 -163.5t-143.5 -83.5q-82 0 -126 58 t-44 148q0 72 30.5 150t82.5 144t130.5 108.5t165.5 42.5z" />
<glyph unicode="7" horiz-adv-x="422" d="M268 499q66 0 121 4l8 -10q-76 -145 -141 -322t-86 -280l-80 -44l-9 10q105 361 249 569l-6 13q-30 -1 -114.5 -7.5t-131.5 -6.5q-38 0 -57 2l38 81q124 -9 209 -9z" />
<glyph unicode="8" horiz-adv-x="481" d="M115 507q0 56 63.5 100.5t129.5 44.5q43 0 69 -23t26 -70q0 -27 -20 -60t-38.5 -52t-59.5 -60q65 -51 96.5 -94t31.5 -104q0 -72 -66.5 -131.5t-148.5 -59.5q-68 0 -114.5 42.5t-46.5 106.5q0 60 42.5 110t122.5 108q-47 47 -67 76.5t-20 65.5zM361 169q0 43 -30.5 79.5 t-102.5 93.5q-60 -45 -91.5 -85.5t-31.5 -92.5q0 -55 35 -89.5t89 -34.5q62 0 97 35t35 94zM341 539q0 35 -25.5 54.5t-60.5 19.5q-36 0 -63 -21.5t-27 -58.5q0 -46 94 -124q33 26 57.5 62.5t24.5 67.5z" />
<glyph unicode="9" horiz-adv-x="495" d="M279 526q74 0 114 -55.5t40 -155.5q0 -58 -14.5 -117t-47 -116t-78.5 -101t-115 -71t-152 -27l57 73q78 0 136 24t91 66.5t48.5 95.5t15.5 117q0 104 -40 157t-102 53q-67 0 -102 -44.5t-35 -109.5q0 -54 34.5 -86t88.5 -32q50 0 106 32l7 -17q-29 -32 -72 -52.5 t-80 -20.5q-68 0 -101.5 41t-33.5 106q0 94 70 167t165 73z" />
<glyph unicode=":" horiz-adv-x="305" d="M60 65l72 69q31 -24 67 -81l-70 -64q-1 1 -26.5 31t-42.5 45zM98 440l72 69q31 -24 67 -81l-70 -64q-1 1 -26.5 31t-42.5 45z" />
<glyph unicode=";" horiz-adv-x="312" d="M91 440l72 69q31 -24 67 -81l-70 -64q-1 1 -26.5 31t-42.5 45zM120 133q21 -17 41 -44t26 -39q-2 -15 -29 -62t-72 -104l-12 12q53 71 53 87q-6 10 -33.5 38.5t-33.5 44.5q8 10 23.5 29t24 28t12.5 10z" />
<glyph unicode="&#x3c;" horiz-adv-x="668" d="M532 481l39 -40q-184 -70 -369 -180v-18q189 -115 381 -202l-35 -30q-286 125 -447 240v10q213 140 431 220z" />
<glyph unicode="=" horiz-adv-x="632" d="M83 175h481l-54 -54h-481zM120 363h481l-54 -54h-481z" />
<glyph unicode="&#x3e;" horiz-adv-x="627" d="M106 481q218 -80 431 -220v-10q-161 -115 -447 -240l-35 30q192 87 381 202v18q-185 110 -369 180z" />
<glyph unicode="?" horiz-adv-x="433" d="M299 814q59 0 91 -30t28 -92q-3 -47 -32 -94.5t-69 -86.5t-79.5 -76t-66.5 -74t-27 -68q0 -58 17 -86q-55 -34 -69 -58l-4 1q-19 50 -17 110q2 40 32 79.5t70 73t80 69.5t68 83.5t28 100.5q0 46 -20 75.5t-54 29.5q-61 0 -113 -44l-3 15q72 72 140 72zM70 49l72 69 q31 -24 67 -81l-70 -64q-1 1 -26.5 31t-42.5 45z" />
<glyph unicode="@" horiz-adv-x="892" d="M408 448q-34 -29 -49.5 -93t-15.5 -126q41 1 80.5 38.5t65 89t32.5 100.5q-75 0 -113 -9zM530 698q138 0 209 -74.5t71 -183.5q0 -77 -33.5 -147.5t-99 -117.5t-148.5 -47q-26 0 -49 4q2 20 14.5 90.5t12.5 110.5q-103 -157 -211 -201q-12 25 -12 102v5q0 44 15.5 92 t48.5 90t77 59q43 14 157 14q20 0 20 -16q-10 -48 -40.5 -152t-43.5 -155q119 18 178.5 81t59.5 146q0 127 -69.5 196.5t-207.5 69.5q-103 0 -182 -55.5t-118 -139.5t-39 -178q0 -157 80 -245.5t248 -88.5q136 0 276 129l9 -12q-136 -149 -309 -149q-94 0 -167 27.5 t-116 74.5t-64.5 103.5t-21.5 118.5q0 80 31.5 159.5t88.5 144.5t144.5 105t190.5 40z" />
<glyph unicode="A" horiz-adv-x="673" d="M392 755q3 0 165 -9q-29 -58 -29 -322q0 -118 2.5 -188t9.5 -111.5t17.5 -55.5t28.5 -14q32 0 79 28l4 -8q-54 -48 -117 -86q-21 0 -36.5 7t-25.5 27t-16 38t-9.5 58t-4.5 69t-2 87h-182q-7 -13 -22.5 -44.5t-26 -51t-22.5 -35.5q-111 -152 -238 -152h-62l47 64 q36 -9 71 -9q48 0 71.5 19t68.5 95q23 38 134 249t159 286q-12 0 -48 1.5t-58 1.5q-30 0 -47.5 -1t-44 -6t-42.5 -14t-34.5 -27t-28.5 -44t-17 -65t-7 -90q-31 -21 -69 -54q0 193 127 297q74 60 205 60zM458 611q-30 -54 -81.5 -154t-69.5 -133h150q-1 37 -1 103 q0 56 1 118.5t1 65.5z" />
<glyph unicode="B" horiz-adv-x="671" d="M420 754q103 0 153 -35t50 -92q0 -45 -36 -102.5t-89 -93.5q71 -12 105 -47.5t34 -85.5q0 -68 -49 -137.5t-128 -115t-158 -45.5h-218l-4 8q87 18 115 169q18 94 35 203t25.5 159t21 95t28.5 67l1 1q-110 -2 -180 -77t-70 -221l-65 -56q0 86 26 158.5t77.5 128.5 t135 87.5t190.5 31.5zM369 396l29 37l11 13q17 -7 37 -7q41 0 70 42t29 95q0 54 -35.5 91.5t-108.5 37.5l-41 -2q-8 -16 -13 -43q-67 -406 -80 -474q-11 -60 -74 -121l4 -8h148q103 0 162.5 55.5t59.5 130.5q0 62 -45.5 106.5t-130.5 46.5h-22z" />
<glyph unicode="C" horiz-adv-x="522" d="M412 751q69 0 136 -20l-58 -75q-55 39 -113 52q-68 -1 -132 -61t-102.5 -154t-38.5 -190q0 -87 39.5 -158.5t113.5 -89.5q68 12 176 93l9 -8q-36 -45 -95 -90t-108 -58q-69 0 -116.5 36t-67 87t-19.5 111q0 115 52.5 237t141.5 205t182 83z" />
<glyph unicode="D" horiz-adv-x="732" d="M419 754q72 0 126.5 -21t85.5 -57.5t46 -82t15 -99.5q0 -79 -32 -165.5t-86 -160t-135.5 -121t-170.5 -47.5h-180l-4 8q87 18 115 169q18 95 35 203.5t25.5 159t21 95.5t28.5 67q-40 0 -79.5 -18t-74.5 -52t-57 -93.5t-22 -134.5l-65 -56q0 68 14.5 128t46 111.5t78.5 88 t115.5 57.5t153.5 21zM201 57h138q81 0 148 59t102 145.5t35 174.5q0 57 -13.5 104t-42 85t-80 59t-122.5 21q-12 -25 -15 -45q-7 -41 -21.5 -133.5t-29 -179t-27.5 -161.5q-10 -58 -76 -121z" />
<glyph unicode="E" horiz-adv-x="625" d="M322 751h157q119 0 152 1l-56 -59q-20 0 -106.5 0.5t-125.5 0.5q-7 -19 -10 -34l-34 -215h14q24 0 61.5 -2t56.5 -2q52 0 97 10l5 -4q-18 -26 -47.5 -46t-63.5 -20q-9 0 -50 1t-84 1q-19 -123 -34 -197q-13 -61 -75 -121l4 -8l237 -2q83 -5 146 39l4 -8q-81 -62 -117 -87 l-383 1l-4 8q87 18 115 169q18 94 34 197.5t24 154.5t19 96.5t25 68.5h-41q-100 0 -140.5 -54.5t-40.5 -187.5l-69 -54q0 114 41 195t140 138q35 20 149 20z" />
<glyph unicode="F" horiz-adv-x="606" d="M329 751h157q119 0 152 1l-56 -59q-20 0 -106.5 0.5t-125.5 0.5q-7 -19 -10 -34l-34 -215q29 1 71.5 -1.5t60.5 -2.5q52 0 97 10l5 -4q-18 -26 -47.5 -46t-63.5 -20q-9 0 -50 1t-84 1q-6 -37 -16.5 -94t-12.5 -70q-20 -115 -77.5 -172.5t-143.5 -55.5l-54 1l47 64 q36 -9 76 -9q26 0 42 16.5t26 65.5q21 111 42 253t34.5 212.5t31.5 99.5h-41q-100 0 -140.5 -54.5t-40.5 -187.5l-69 -54q0 114 41 195t140 138q35 20 149 20z" />
<glyph unicode="G" horiz-adv-x="601" d="M226 -202l-4 8q63 40 102.5 105t68.5 196q-60 -90 -155 -117q-46 0 -82 15t-58.5 40t-37 60.5t-20 73t-5.5 81.5q0 80 32.5 167t87.5 161q58 77 130.5 124.5t141.5 47.5q101 0 167 -15l-51 -62q-69 28 -141 28q-83 0 -153.5 -68.5t-108 -168.5t-37.5 -200 q0 -85 38.5 -144t115.5 -77q74 13 140 86q6 30 15.5 86.5t17 96t12.5 53.5q-112 0 -148 -17l-11 8l83 62q30 3 172 3l1 -4q-14 -8 -28.5 -31t-19.5 -56q-42 -247 -65.5 -325.5t-90.5 -151.5l4 -8q47 -6 92 -6q49 0 88 5l4 -8q-46 -32 -67 -46z" />
<glyph unicode="H" horiz-adv-x="801" d="M320 750h94l1 -3q-10 -7 -24 -29.5t-22 -51.5q-18 -60 -39 -224l302 -1q21 132 30.5 179t26.5 74q-82 3 -146 -6l-1 2q31 37 70 49t122 12h54l1 -3q-38 -24 -49 -88q-5 -31 -33.5 -203.5t-44.5 -270.5q-10 -58 -76 -121l4 -8h61q72 0 127 37l4 -8q-11 -9 -26 -21.5 t-23 -19.5t-19 -16t-17 -13t-13 -8.5t-11.5 -6.5t-7.5 -2q-122 0 -188 1l-4 8q87 18 115 169q12 64 37 214l-303 2q-17 -112 -28 -174q-21 -115 -78.5 -172.5t-142.5 -55.5l-54 1l47 64q36 -9 76 -9q25 0 40 16t25 66q23 122 45 265t34.5 209t27.5 91l-75 1q-97 1 -138 -55 t-41 -188l-69 -54q0 114 41 195t140 138q33 19 148 19z" />
<glyph unicode="I" horiz-adv-x="441" d="M321 751h90l1 -3q-38 -24 -49 -88q-7 -41 -21.5 -133.5t-29 -179t-27.5 -161.5q-14 -62 -76 -121l4 -8q76 -3 123 3.5t86 33.5l4 -8q-94 -79 -111 -86q-3 -1 -6 -1q-29 0 -101.5 0.5t-107.5 0.5l-4 8q87 18 115 169q18 98 35 203.5t25 156.5t18.5 94t22.5 63h-67 q-100 0 -140.5 -54.5t-40.5 -187.5l-69 -54q0 114 41 195t140 138q35 20 145 20z" />
<glyph unicode="J" horiz-adv-x="503" d="M396 751h90l1 -3q-15 -9 -29 -32t-19 -56q-45 -304 -111 -649q-13 -66 -73 -129.5t-142 -83.5q-16 0 -33.5 4.5t-29 9t-31 16.5t-25.5 16t-26.5 19.5t-21.5 16.5l58 39q21 -20 34 -30.5t39.5 -23.5t51.5 -13q52 0 90.5 44t50.5 130q17 120 34.5 231t38 231.5t26.5 154.5 q6 33 21 51h-69q-100 0 -140.5 -54.5t-40.5 -187.5l-69 -54q0 114 41 195t140 138q35 20 144 20z" />
<glyph unicode="K" horiz-adv-x="724" d="M323 750h94l1 -3q-10 -7 -24 -29.5t-22 -51.5q-14 -46 -29 -135t-28 -186.5t-18 -125.5q-21 -113 -76 -170t-138 -57h-61l47 64q36 -9 76 -9q25 0 40 16t25 66q23 122 45 265t34.5 209.5t27.5 91.5h-80q-95 0 -134.5 -56.5t-39.5 -186.5l-69 -54q0 114 41 195t140 138 q33 19 148 19zM360 339q0 93 27.5 168.5t66 119.5t84 74t78.5 40.5t52 10.5q48 0 75 -36l-75 -50q-37 19 -71 19q-44 0 -78.5 -29.5t-53 -73.5t-27.5 -86.5t-9 -76.5q60 -126 142.5 -264t153.5 -233l-35 -35q-166 180 -330 452z" />
<glyph unicode="L" horiz-adv-x="419" d="M581 -103l9 -8q-20 -38 -63 -61t-91 -23q-38 0 -83 21t-87 50.5t-83.5 59.5t-86 51t-81.5 21q-29 0 -61 -8l-4 8q87 18 115 169q17 90 28.5 164.5t19.5 133t12 85.5q12 74 85.5 133t154.5 59q55 0 100 -35l-59 -50q-61 46 -107 46q-75 0 -96 -124q-16 -91 -37 -232 t-27 -171q-12 -60 -76 -121l4 -8q40 0 85.5 -21t86.5 -51t81.5 -60.5t84 -51.5t80.5 -21q52 0 96 45z" />
<glyph unicode="M" horiz-adv-x="992" d="M369 756q31 0 164 -10q18 -190 18 -452v-112q36 122 95.5 249.5t128 222t119.5 105.5q-37 -330 -37 -512q0 -103 12 -181q40 0 87 28l4 -8q-72 -63 -156 -102q-19 94 -19 238q0 218 36 389q-26 -22 -52.5 -58t-47 -69t-52.5 -100.5t-51 -109.5t-62.5 -140.5t-67.5 -152.5 l-4 1q0 7 0.5 24.5t0.5 27.5q0 102 -10 330t-10 264v12l-179 -467q-30 -78 -97 -129t-157 -51h-61l47 64q36 -9 71 -9q34 0 57.5 8t39 27t23 33.5t18.5 44.5l191 513q6 16 14 23q-15 0 -50.5 1.5t-54.5 1.5q-30 0 -47.5 -1t-44 -6t-42.5 -14t-34.5 -27t-28.5 -44t-17 -65 t-7 -90q-31 -21 -69 -54q0 193 127 297q74 60 205 60z" />
<glyph unicode="N" horiz-adv-x="809" d="M300 750h88q120 -327 193 -637q10 59 32 209.5t40 242t38 129.5q-82 3 -146 -6l-1 2q31 37 70 49t122 12h54l1 -3q-38 -24 -49 -88l-76 -442q-17 -99 -45.5 -150.5t-86.5 -77.5l-4 8l27 15q-41 125 -108 316t-111 326q-16 -77 -33 -218.5t-29 -208.5 q-21 -115 -78.5 -172.5t-142.5 -55.5l-54 1l47 64q36 -9 76 -9q25 0 40 16t25 66q24 125 44.5 265t32 204.5t25.5 86.5l-72 1q-97 1 -138 -55t-41 -188l-69 -54q0 114 41 195t140 138q33 19 148 19z" />
<glyph unicode="O" horiz-adv-x="582" d="M394 753q76 -22 113 -93t37 -171q0 -103 -45 -207.5t-125.5 -183t-175.5 -103.5q-81 21 -122 86t-41 156q0 166 105.5 321.5t253.5 194.5zM250 51q97 29 161.5 141.5t64.5 236.5q0 94 -33 166t-101 102q-102 -31 -170.5 -150.5t-68.5 -249.5q0 -87 36.5 -153t110.5 -93z " />
<glyph unicode="P" horiz-adv-x="653" d="M420 754q111 0 169.5 -39t58.5 -104q0 -49 -30 -107.5t-89 -103.5t-128 -45q-15 0 -22 1l40 50q17 -7 37 -7q57 0 87 45.5t30 107.5q0 65 -48.5 109t-136.5 44h-19q-11 -23 -15 -45q-7 -41 -21.5 -133.5t-29 -179t-27.5 -161.5q-10 -58 -76 -121l4 -8h61q72 0 127 37 l4 -8q-11 -9 -26 -21.5t-23 -19.5t-19 -16t-17 -13t-13 -8.5t-11.5 -6.5t-7.5 -2q-122 0 -188 1l-4 8q87 18 115 169q17 94 35 203t26 159t20.5 95.5t29.5 67.5q-112 0 -184.5 -74.5t-72.5 -223.5l-65 -56q0 86 26 158.5t77.5 128.5t135 87.5t190.5 31.5z" />
<glyph unicode="Q" horiz-adv-x="649" d="M231 278l-61 -55q-46 16 -73.5 59t-27.5 104q0 151 106 259t270 108q75 -22 111.5 -90.5t36.5 -157.5q0 -131 -102.5 -261t-239.5 -197q20 -8 76.5 -37t98.5 -43t82 -14q45 0 115 34l10 -11q-105 -80 -192 -80q-38 0 -83 21t-81.5 45.5t-92.5 45.5t-114 21q-29 0 -61 -8 l-4 8l81 50q38 -15 75 -15q65 0 132.5 38.5t118 96t82.5 126.5t32 128q0 78 -33 146.5t-100 97.5q-256 0 -256 -269q0 -111 94 -150z" />
<glyph unicode="R" horiz-adv-x="721" d="M423 754q111 0 169.5 -39t58.5 -104q0 -74 -57.5 -135.5t-155.5 -84.5q155 -302 290 -470l-30 -34q-198 215 -355 496l33 35h39q76 0 118.5 40.5t42.5 93.5q0 65 -48.5 109t-136.5 44h-19q-11 -23 -15 -45q-7 -41 -21.5 -133.5t-29 -179t-27.5 -161.5q-10 -58 -76 -121 l4 -8h61q72 0 127 37l4 -8q-11 -9 -26 -21.5t-23 -19.5t-19 -16t-17 -13t-13 -8.5t-11.5 -6.5t-7.5 -2q-122 0 -188 1l-4 8q87 18 115 169q17 94 35 203t26 159t20.5 95.5t29.5 67.5q-112 0 -184.5 -74.5t-72.5 -223.5l-65 -56q0 86 26 158.5t77.5 128.5t135 87.5 t190.5 31.5z" />
<glyph unicode="S" horiz-adv-x="493" d="M339 760q74 0 144 -26l-57 -66q-66 30 -134 30q-127 0 -127 -57q0 -37 32.5 -88.5t71.5 -96t71.5 -98t32.5 -92.5q0 -111 -72 -192.5t-174 -81.5q-93 0 -152 46l57 64q84 -53 151 -53q48 0 88.5 43t40.5 90q0 44 -31.5 99.5t-69.5 100t-69.5 98.5t-31.5 96q0 78 68 131 t161 53z" />
<glyph unicode="T" horiz-adv-x="574" d="M394 751h157q103 0 132 1l-56 -59q-18 0 -97 0.5t-115 0.5q-7 -19 -10 -34q-66 -408 -78 -474q-14 -62 -76 -121l4 -8l54 -3q91 0 146 40l4 -8q-81 -62 -117 -87l-200 1l-4 8q87 18 115 169q18 94 34 197.5t24 154.5t19 96.5t25 68.5h-111q-100 0 -140.5 -54.5 t-40.5 -187.5l-69 -54q0 114 41 195t140 138q27 16 96 19q36 1 123 1z" />
<glyph unicode="U" horiz-adv-x="803" d="M320 750h94l1 -3q-10 -7 -24 -29.5t-22 -51.5q-72 -392 -72 -479q0 -122 80 -122q34 0 71.5 35.5t66.5 86t50 100.5t28 84l64 323q7 18 27 31t34.5 17t39.5 9l1 -3q-38 -24 -49 -88q-6 -35 -23 -132.5t-31 -183t-24 -161.5q-2 -20 -2 -27q0 -46 20.5 -68t49.5 -22 q40 0 87 28l4 -8q-54 -48 -117 -86q-103 1 -103 141q0 43 12 115h-5q-35 -96 -116 -176.5t-143 -80.5q-95 0 -95 160q0 53 9 105q9 61 19.5 134.5l16 112t13 79.5t15 64.5t17.5 40.5h-80q-95 0 -134.5 -56.5t-39.5 -186.5l-69 -54q0 114 41 195t140 138q33 19 148 19z" />
<glyph unicode="V" horiz-adv-x="690" d="M278 757q25 0 45.5 -11.5t35.5 -37t26 -55.5t18 -77t11.5 -90.5t7 -107t3 -116.5t0.5 -128q9 31 46 104q3 6 65 122.5t102 198.5t40 102q0 23 -36 23h-57l-1 4l73 45h39q57 0 57 -40q0 -13 -18 -54t-48 -98.5t-57 -107t-56.5 -102.5t-34.5 -62q-81 -146 -125 -241 l-67 -37q11 83 11 215q0 89 -6.5 170t-20.5 157t-41.5 121.5t-64.5 45.5q-27 0 -53.5 -11t-54.5 -36t-45.5 -77t-17.5 -123q-31 -21 -69 -54q0 144 87 251t206 107z" />
<glyph unicode="W" horiz-adv-x="978" d="M278 757q143 0 143 -396q0 -102 -9 -208q35 62 69.5 139.5t85.5 202.5t77 186l117 72l6 -7q-73 -86 -73 -254q0 -94 26 -356q51 68 127.5 243.5t76.5 257.5q0 47 -32 47h-47l-1 4l76 45h39q57 0 57 -28v-4q-17 -86 -61.5 -198.5t-82 -187t-91.5 -176t-61 -114.5l-36 -35 q-30 154 -41.5 251t-11.5 241v55q-80 -195 -118 -275t-120 -234l-69 -37l7 57q15 118 15 270q0 382 -121 382q-27 0 -53.5 -11t-54.5 -36t-45.5 -77t-17.5 -123q-31 -21 -69 -54q0 144 87 251t206 107z" />
<glyph unicode="X" horiz-adv-x="748" d="M732 757q52 0 89 -20l-49 -61q-54 38 -83 38q-39 0 -74 -59q-26 -44 -137 -248l6 -28q21 -105 66 -215t80 -110q52 0 137 70l9 -8q-33 -39 -80.5 -75t-95.5 -49q-90 0 -177 317q-65 -96 -122 -161q-90 -104 -186 -135q-39 -13 -74 -13h-61l47 65q36 -9 71 -9 q53 0 85 23.5t87 99.5q26 37 135 208l-6 26q-12 54 -19 83.5t-23 83t-36 88t-44 50.5q-72 0 -106.5 -50.5t-34.5 -159.5l-69 -54q0 127 64 215t190 88q19 0 35.5 -10.5t29.5 -33t23 -43.5t19.5 -56.5t14.5 -56.5t13 -59l5 -23q3 4 10.5 19t12.5 22q30 53 44.5 77.5t42 63 t48.5 55.5t50.5 31t62.5 14z" />
<glyph unicode="Y" horiz-adv-x="674" d="M230 757q33 0 61.5 -35.5t55.5 -123.5t38 -133.5t37 -165.5q10 -43 14 -63q8 14 73 128t105.5 193t40.5 99q0 15 -18.5 21.5t-73.5 6.5l-1 4l75 45h39q55 0 55 -40q0 -25 -43.5 -111.5t-108.5 -201t-67 -118.5q-121 -227 -190 -313t-170 -132q-75 10 -167 82l58 42 q65 -60 127 -60q48 0 94.5 59.5t127.5 213.5q-7 25 -30 117t-36.5 142.5t-34.5 122.5t-39.5 116.5t-35.5 65.5q-67 0 -99 -50.5t-32 -159.5l-69 -54q0 118 63 210.5t151 92.5z" />
<glyph unicode="Z" horiz-adv-x="537" d="M278 759q50 0 117 -20.5t104 -20.5q63 0 145 37l7 -7q-56 -51 -135 -152t-144 -192.5t-141.5 -180.5t-132.5 -125l4 -8q54 0 113 -27.5t102 -60t101 -60t110 -27.5q51 0 85 54l12 -3q-13 -47 -60.5 -77.5t-103.5 -30.5q-44 0 -102.5 30t-106.5 66.5t-107.5 66.5 t-104.5 30q-29 0 -61 -8l-4 8q133 141 207 221.5t166.5 192t153.5 201.5q-26 -3 -46 -3q-55 0 -125 25.5t-118 25.5q-22 0 -43 -6q-50 -46 -50 -169l-69 -54q0 52 11.5 98t36.5 87t71 65t108 24z" />
<glyph unicode="[" horiz-adv-x="420" d="M235 820h207l-18 -23h-128q-82 -549 -120 -861h147l-19 -24h-191q43 372 122 908z" />
<glyph unicode="\" horiz-adv-x="489" d="M114 838q137 -496 277 -867l-41 -54q-121 331 -285 871z" />
<glyph unicode="]" horiz-adv-x="414" d="M135 820h192q-50 -395 -126 -908h-207l19 24h133q60 422 115 861h-144z" />
<glyph unicode="^" horiz-adv-x="672" d="M347 697q13 -18 47.5 -66t54 -76t48 -69.5t51.5 -78t43 -71.5l-45 -44q-16 23 -226 322q-85 -120 -254 -310l-12 14q136 188 293 379z" />
<glyph unicode="_" horiz-adv-x="636" d="M115 -1h489l-54 -54h-489z" />
<glyph unicode="`" d="M85 758q49 2 86 -20q32 -19 58.5 -50t71.5 -94l-15 -18q-75 87 -123 116q-10 6 -25 12.5t-25.5 10.5t-12.5 4z" />
<glyph unicode="a" d="M254 500q72 0 97 -5l-6 -29q-4 -21 -13 -71t-12 -67q-25 -168 -60 -274l3 -2q87 63 210 234l10 -7q-72 -105 -145 -186.5t-122 -102.5q-1 12 -1 38q0 45 5 82.5t16.5 90.5t17.5 87l-3 2q-62 -105 -114 -174.5t-121 -130.5q-13 45 -13 113q0 104 25 194q28 102 80 155 t146 53zM76 282q-11 -91 -11 -157q0 -40 6 -58q5 0 15.5 12t24.5 33.5t15 22.5q38 47 95.5 155.5t57.5 152.5q-21 6 -62 6q-80 0 -104 -31t-37 -136z" />
<glyph unicode="b" horiz-adv-x="384" d="M272 420q-69 -70 -131.5 -167t-72.5 -196q0 -15 49 -15q75 0 122.5 85t47.5 204q0 51 -15 89zM323 851q29 0 49 -5l-41 -54q-28 6 -63 6q-23 0 -41.5 -10t-31 -29.5t-21.5 -39t-15 -50t-9.5 -49.5t-7 -49.5t-4.5 -40.5q-5 -32 -18.5 -157.5t-16.5 -143.5q135 248 221 288 q9 -7 16 -33t7 -50q0 -60 -10 -119t-33.5 -118.5t-59 -104.5t-91.5 -73t-125 -28q-11 20 -11 60q5 44 73 555q12 91 82 168t151 77z" />
<glyph unicode="c" horiz-adv-x="311" d="M236 514q49 0 78 -27l-44 -52q-23 39 -60 39q-55 0 -95.5 -86t-40.5 -191q0 -118 66 -154q103 74 237 268l10 -6q-75 -112 -153.5 -202.5t-131.5 -112.5q-12 0 -26 7t-31 25.5t-28 60.5t-11 101q0 72 27 137t65.5 105.5t76 64t61.5 23.5z" />
<glyph unicode="d" horiz-adv-x="420" d="M537 851q29 0 49 -5l-41 -54q-28 6 -63 6q-27 0 -48 -15t-33 -35t-21.5 -54t-13 -56.5t-8 -60t-6.5 -47.5q-7 -42 -20.5 -154.5t-27.5 -191.5t-35 -130l3 -2q84 61 210 234l10 -7q-72 -105 -145 -186.5t-122 -102.5q-2 24 -2 38q0 47 14.5 127t17.5 106q2 18 7 27l-3 2 q-4 -6 -42 -68t-59 -93t-60.5 -74.5t-74.5 -62.5q-20 43 -20 102q0 86 24 184q34 112 86 167.5t138 55.5q21 0 34 -5l19 110q16 92 84.5 168.5t148.5 76.5zM214 450q-68 0 -94.5 -35.5t-38.5 -144.5q-11 -99 -11 -133q0 -45 10 -75q134 142 198 378q-22 10 -64 10z" />
<glyph unicode="e" horiz-adv-x="298" d="M209 474q-50 0 -83 -62t-48 -158q62 40 110 97t48 93q0 30 -27 30zM243 514q51 0 51 -40q0 -97 -221 -244q-1 -11 -1 -28q0 -113 68 -163q99 76 222 247l10 -7q-72 -105 -145 -186.5t-122 -102.5q-50 12 -75 66.5t-25 123.5q0 79 38.5 158t94 127.5t105.5 48.5z" />
<glyph unicode="f" horiz-adv-x="224" d="M337 851q42 0 69 -15l-41 -54q-36 16 -83 16q-27 0 -48 -15t-33 -35t-21.5 -54t-13 -56.5t-8 -60t-6.5 -47.5q-4 -19 -5 -32l132 7q-11 -29 -12 -29q-31 -15 -126 -22q-29 -244 -48 -379q-21 -144 -82.5 -217t-156.5 -73q-22 0 -44 6l38 55q30 -8 61 -8q95 0 115 154 q3 24 62 458l-92 -4q27 46 28 46q31 1 71 3q6 50 10 75q17 126 83 203.5t151 77.5z" />
<glyph unicode="g" horiz-adv-x="417" d="M232 450q-68 0 -94.5 -35.5t-38.5 -144.5q-11 -99 -11 -133q0 -45 10 -75q134 142 198 378q-22 10 -64 10zM269 501h91q-7 -51 -24 -192t-30 -234q-19 -139 -82.5 -214.5t-172.5 -75.5q-41 0 -77 9l39 61q43 -13 81 -13q71 0 101 28.5t42 121.5q16 126 36 269q2 18 7 27 l-3 2q-3 -5 -23 -39t-29 -48.5t-29.5 -46.5t-35.5 -51t-36 -43.5t-41.5 -41.5t-41.5 -28q-20 43 -20 102q0 84 24 184q54 223 224 223z" />
<glyph unicode="h" horiz-adv-x="445" d="M331 851q29 0 49 -5l-41 -54q-28 6 -63 6q-23 0 -41.5 -9.5t-31.5 -30t-21.5 -39t-15 -50t-9.5 -49t-6.5 -50.5t-4.5 -40l-45 -342q157 282 250 326q17 -13 17 -81q0 -74 -34 -214t-38 -165l2 -2q87 63 210 234l10 -7q-72 -105 -145 -186.5t-122 -102.5q-2 24 -2 38 q0 63 23 193.5t23 201.5q-63 -56 -133.5 -173.5t-115.5 -259.5q-23 26 -23 64q0 7 2 19l73 533q12 86 82.5 165.5t150.5 79.5z" />
<glyph unicode="i" horiz-adv-x="221" d="M154 515q-6 -39 -21 -151.5t-28.5 -186.5t-30.5 -122l2 -3q86 61 210 234l11 -7q-72 -105 -145 -186.5t-123 -102.5q-2 24 -2 38q0 52 8 109.5t26 155t28 160.5l-70 -51l2 11q7 10 19.5 25.5t47.5 43.5t66 33zM123 687l53 48q1 -8 1 -25q0 -41 -14.5 -67t-51.5 -45 q10 27 12 89z" />
<glyph unicode="j" horiz-adv-x="199" d="M152 515l-47 -349q-25 -186 -95.5 -284t-163.5 -98q-29 0 -49 5l41 64q28 -6 63 -6q21 0 38 6.5t29 15.5t22 28t15.5 33.5t11 43.5t8 47t7.5 55t8 57l47 320l-70 -51l2 11q7 10 19.5 25.5t47.5 43.5t66 33zM127 684l53 48q1 -8 1 -25q0 -41 -14.5 -67t-51.5 -45 q10 27 12 89z" />
<glyph unicode="k" horiz-adv-x="455" d="M327 851q29 0 49 -5l-41 -54q-28 6 -63 6q-28 0 -49.5 -16.5t-34 -38.5t-21.5 -58t-13 -60t-8 -60v-3t-0.5 -3t-0.5 -3l-27 -219q38 77 95 127t117 50q48 0 48 -50q0 -109 -148 -185q14 -34 38 -115.5t30 -111.5q38 21 106.5 92.5t118.5 141.5l10 -7 q-72 -105 -145 -186.5t-122 -102.5q-24 41 -66.5 144t-54.5 129q78 32 127.5 77.5t49.5 96.5q0 37 -30 37q-35 0 -63 -26t-66 -92q-21 -36 -38 -85t-26 -87t-22.5 -100.5t-21.5 -92.5q-35 23 -35 67q0 10 1 15l73 533q12 86 82.5 165.5t150.5 79.5z" />
<glyph unicode="l" horiz-adv-x="226" d="M331 851q29 0 49 -5l-41 -54q-28 6 -63 6q-27 0 -48 -15t-33 -35t-21.5 -54t-13 -56.5t-8 -60t-6.5 -47.5q-7 -43 -20 -154.5t-27 -191t-35 -130.5l3 -2q96 69 228 259l10 -6q-75 -112 -153.5 -202.5t-131.5 -112.5q-2 24 -2 38q0 50 13.5 149t36 237t30.5 192 q12 85 82 165t151 80z" />
<glyph unicode="m" horiz-adv-x="651" d="M154 515q-7 -42 -21 -155.5t-24 -167.5l3 -2q52 110 117 203.5t118 120.5q18 -14 18 -65q0 -48 -22 -140.5t-25 -116.5l3 -2q52 110 117 203.5t118 120.5q17 -14 17 -70q0 -73 -33.5 -215.5t-38.5 -174.5l3 -2q89 64 210 234l10 -7q-69 -102 -142.5 -185t-124.5 -104 q-2 24 -2 38q0 64 22.5 193t22.5 197l-4 2q-58 -57 -125 -174t-107 -256q-22 20 -22 50q0 9 1 14q3 27 25.5 156.5t22.5 207.5l-4 2q-58 -57 -125 -174t-107 -256q-23 26 -23 64q0 28 8 90t16.5 113.5t19.5 119t12 71.5l-3 2l-66 -48l2 11q7 10 19.5 25.5t47.5 43.5t66 33z " />
<glyph unicode="n" horiz-adv-x="456" d="M361 514q17 -14 17 -69q0 -75 -35 -228.5t-37 -162.5l3 -2q89 64 210 234l10 -7q-69 -102 -142.5 -185t-124.5 -104q-2 24 -2 38q0 64 22.5 193t22.5 197l-4 2q-60 -54 -130 -171.5t-115 -258.5q-23 26 -23 64q0 16 14 114.5t28 189.5l14 90l-3 2l-66 -48l2 11 q7 10 19.5 25.5t47.5 43.5t66 33q-7 -42 -21 -155.5t-24 -167.5l3 -2q59 115 125.5 206.5t122.5 117.5z" />
<glyph unicode="o" horiz-adv-x="367" d="M243 512q36 -17 59 -76t23 -111q0 -103 -72 -205t-166 -129q-38 17 -60 74t-22 113q0 108 71.5 207.5t166.5 126.5zM216 472q-77 -35 -111 -95.5t-34 -149.5q0 -39 2 -63.5t12 -61t29 -71.5q145 62 145 245q0 39 -2 63.5t-12 61t-29 71.5z" />
<glyph unicode="p" horiz-adv-x="386" d="M142 518q-12 -57 -22 -126t-15 -98l3 -1q85 156 197 225q18 -29 24.5 -63t6.5 -96q0 -69 -26 -152t-72.5 -145t-96.5 -62q-34 0 -64 29q-12 -42 -23 -91.5t-18 -71t-20 -38.5l3 -5q2 1 77 48l6 -15q-36 -21 -105 -57.5t-108 -58.5l-9 11q72 39 91 74t38 148 q9 55 31.5 221t39.5 258l-73 -47l2 11q7 10 19.5 25.5t47.5 43.5t66 33zM255 429q-32 -13 -85.5 -81t-72.5 -152q-14 -63 -17 -126q8 -6 30 -11t33 -5q69 0 95 59t26 219q0 74 -9 97z" />
<glyph unicode="q" horiz-adv-x="388" d="M214 450q-68 0 -94.5 -35.5t-38.5 -144.5q-11 -99 -11 -133q0 -45 10 -75q134 142 198 378q-22 10 -64 10zM251 501q10 0 30 -3.5t30 -3.5q31 0 55 24l6 -13q-28 -23 -32 -59q-4 -29 -18 -123.5t-21 -141.5q-2 -13 -9.5 -52t-14.5 -79.5t-11 -73.5q-2 -9 -6.5 -37.5 t-7.5 -39t-13 -31t-26 -39.5l5 -5q15 8 79 48l8 -17l-212 -123l-11 21q31 13 52.5 28t33 27t19 34t9.5 35t5.5 45t5.5 49q14 94 29 179t19 111q2 18 7 27l-3 2q-3 -5 -23 -39t-29 -48.5t-29.5 -46.5t-35.5 -51t-36 -43.5t-41.5 -41.5t-41.5 -28q-20 43 -20 102q0 84 24 184 q54 223 224 223z" />
<glyph unicode="r" horiz-adv-x="295" d="M152 515q-7 -43 -19.5 -137.5t-19.5 -139.5h7q51 136 100.5 206.5t107.5 70.5q21 0 35 -10l-32 -55q-14 9 -36 9q-48 0 -105 -109.5t-108 -312.5l-55 -47q-2 24 -2 38q0 52 8 109.5t26 155t28 160.5l-70 -51l2 11q7 10 19.5 25.5t47.5 43.5t66 33z" />
<glyph unicode="s" horiz-adv-x="303" d="M213 514q49 0 78 -27l-47 -55q-12 42 -70 42q-32 0 -52 -18.5t-20 -43.5q0 -11 1.5 -20.5t6 -19t7.5 -15.5t10.5 -16.5t11 -14t13.5 -15t13 -14.5q38 -44 55.5 -76.5t17.5 -67.5q0 -52 -66.5 -106.5t-128.5 -54.5q-53 0 -77 27l50 46q35 -31 84 -31q30 0 59.5 25.5 t29.5 54.5q0 51 -77 135q-23 25 -35 39t-25.5 39t-13.5 44q0 50 74 108q44 35 101 35z" />
<glyph unicode="t" horiz-adv-x="227" d="M155 589l-11 -80q50 2 73 2q39 0 74 -4l-53 -48q-40 2 -66 2h-36l-5 -39q-35 -288 -68 -368l3 -2q96 69 228 259l10 -6q-75 -112 -153.5 -202.5t-131.5 -112.5q-2 24 -2 38q0 19 2 40t7.5 59t11 73.5t18 112.5t23.5 147q-29 0 -79 -4l27 42q27 5 58 8l7 47z" />
<glyph unicode="u" horiz-adv-x="459" d="M154 515q-54 -276 -54 -408q0 -16 5 -41q49 48 107 140.5t102 207.5q11 30 18.5 45.5t21 32t29.5 22.5l-71 -406q-5 -27 -15 -54l3 -2q96 69 228 259l10 -6q-75 -112 -153.5 -202.5t-131.5 -112.5q-2 24 -2 38q0 31 5.5 74t11 73.5t14.5 77t12 60.5l-3 2 q-57 -115 -120.5 -206.5t-117.5 -117.5q-11 37 -11 89q0 58 15 165l27 204l-65 -47l2 11q7 10 19.5 25.5t47.5 43.5t66 33z" />
<glyph unicode="v" horiz-adv-x="341" d="M114 514q19 -17 19 -55q0 -43 -1 -130t-1 -132q0 -89 2 -135q37 37 80 133t63 182q0 11 -6 58t-6 58q0 9 7.5 17t17.5 9q27 -7 38 -31q-31 -170 -94.5 -304.5t-137.5 -189.5q-13 45 -19.5 100.5t-7.5 93t-1 109.5q0 95 -3 165l-85 -61l2 11q7 10 19.5 25.5t47.5 43.5 t66 33z" />
<glyph unicode="w" horiz-adv-x="550" d="M322 518q23 -2 23 -74v-53q0 -32 -1 -96.5t-1 -97.5q0 -89 2 -135q37 37 80 133t63 182q0 11 -6 58t-6 58q0 9 7.5 17t17.5 9q27 -7 38 -31q-31 -170 -94.5 -304.5t-137.5 -189.5q-10 33 -15.5 74.5t-7 69.5t-3 81.5t-2.5 77.5l-1 20q-31 -111 -80 -196.5t-103 -126.5 q-30 106 -30 333q0 117 -1 135l-85 -61l2 11q7 10 19.5 25.5t47.5 43.5t66 33q19 -17 19 -55q0 -43 -1 -130t-1 -132q0 -89 2 -135q36 36 79 132t68 187q0 6 -10 82z" />
<glyph unicode="x" horiz-adv-x="364" d="M111 516q42 -100 75 -221q12 22 33 64t32 60t31.5 41.5t47 32.5t62.5 9h1l-25 -39q-20 2 -31 2q-18 0 -25.5 -4t-19.5 -21q-7 -10 -25 -43.5t-41 -76.5t-30 -57q48 -156 70 -222q31 14 88 59l5 -3q-25 -38 -64.5 -71t-70.5 -37q-39 93 -70 206q-46 -74 -69 -107t-33 -46 t-35.5 -30t-54.5 -17q-16 0 -31 4l1 1v-1l4 5l12 15t15 19q38 0 60 13t39 39q49 75 82 131q-35 98 -81 240q-25 -12 -82 -56l-5 3q25 38 64.5 71t70.5 37z" />
<glyph unicode="y" horiz-adv-x="422" d="M154 515q-58 -299 -53 -439l4 -10q49 47 106.5 140t101.5 208q1 2 8 19t9 21.5t9 17.5t12.5 19t14 13t17.5 10q-2 -15 -6.5 -35.5t-5.5 -27.5q-10 -51 -18.5 -106.5t-19 -141.5t-16.5 -128q-19 -139 -82.5 -214.5t-172.5 -75.5q-41 0 -77 9l39 61q43 -13 81 -13 q71 0 101 28.5t42 121.5q19 156 46 321l-3 2q-57 -115 -120.5 -206.5t-117.5 -117.5q-10 34 -10 86t3 81.5t13 102.5l25 188l-65 -47l2 11q7 10 19.5 25.5t47.5 43.5t66 33z" />
<glyph unicode="z" horiz-adv-x="336" d="M139 506q12 0 53 -4.5t66 -4.5q61 0 72 17l6 -3q-130 -176 -307 -438q-6 -10 -18 -22l3 -3q18 8 75 8q25 0 76 -8t81 -8q23 0 62 25l5 -6q-25 -19 -42 -35t-21.5 -22t-11.5 -9t-20 -3q-28 0 -89 9t-83 9q-53 0 -94 -17l-10 9q153 213 300 430q3 4 3 8q0 2 -10.5 5.5 t-29.5 6t-38 2.5q-79 0 -159 -51l-6 10q24 34 62.5 64.5t74.5 30.5z" />
<glyph unicode="{" horiz-adv-x="373" d="M380 819l7 -13q-52 -7 -79.5 -49t-35 -100t-14.5 -117t-31.5 -107.5t-73.5 -63.5q-8 -3 -31 -3l-2 -3q21 0 33 -4q64 -23 72 -88q5 -44 -21 -157.5t-22 -154.5q5 -58 62 -61l-10 -14q-101 15 -111 98q-5 45 25 154.5t26 147.5q-7 63 -66 67l-13 1l16 27q11 0 19 3 q28 10 43.5 39.5t20 68.5t7 84.5t10 88.5t23.5 78t53 56.5t93 21.5z" />
<glyph unicode="|" horiz-adv-x="257" d="M173 896l-12 -1065l-44 -44l-2 1067z" />
<glyph unicode="}" horiz-adv-x="362" d="M154 819q110 0 120 -97q2 -22 -16 -126.5t-13 -150.5q5 -52 36 -63q9 -5 33 -6l-11 -24q-43 -1 -67 -26t-30.5 -64t-8 -86.5t-5 -96.5t-16 -90.5t-47.5 -70.5t-92 -35l4 15q35 2 55 28t26.5 66.5t9 89.5t8 97.5t18.5 89t45.5 66.5t84.5 28l3 3h-7q-81 0 -90 92 q-4 41 9 137t9 133q-8 70 -66 78z" />
<glyph unicode="~" horiz-adv-x="750" d="M274 346q31 0 125.5 -30.5t163.5 -30.5q42 0 100 28l13 -12q-54 -67 -138 -67q-62 0 -148 29t-126 29q-100 0 -175 -55l-9 18q115 91 194 91z" />
<glyph unicode="&#xa1;" horiz-adv-x="347" d="M203 381l25 -10q-93 -379 -111 -637l-82 -53q24 178 37.5 259.5t46.5 203t84 237.5zM168 511l72 69q31 -24 67 -81l-70 -64q-1 1 -26.5 31t-42.5 45z" />
<glyph unicode="&#xa2;" horiz-adv-x="343" d="M221 639l39 -12l-19 -117q17 4 40 4q18 0 35 -4t25 -8l8 -3q-4 -6 -20 -25t-23 -31q-36 19 -72 21l-60 -387q64 11 126 37l6 -13q-62 -35 -137 -53l-21 -134l-38 18l18 113q-56 6 -84.5 48t-28.5 105q0 89 51 177t133 122zM72 270q0 -56 17.5 -106t45.5 -72l58 368 q-62 -13 -91.5 -66.5t-29.5 -123.5z" />
<glyph unicode="&#xa3;" horiz-adv-x="528" d="M29 361l40 49h91l19 137q9 68 75 128.5t139 60.5q61 0 108 -46l-54 -38q-64 48 -110 48q-75 0 -93 -126l-23 -162h170l-41 -32q-59 -16 -136 -19l-14 -96q-12 -84 -35.5 -124t-80.5 -87q135 -33 245 -33q64 0 92 20.5t28 62.5q0 34 -17 57l65 32q19 -19 19 -54 q0 -57 -82 -116.5t-155 -59.5q-45 0 -126.5 18t-118.5 18q-47 0 -78 -31q-6 2 -6 8q0 25 65 67q44 28 77.5 71t40.5 94l20 152h-4q-20 0 -60.5 0.5t-59.5 0.5z" />
<glyph unicode="&#xa4;" horiz-adv-x="824" d="M674 89q-26 -26 -39 -40l-75 75q-54 -46 -130 -46q-77 0 -131 46l-75 -75q-13 14 -39 40q50 50 75 73q-45 62 -45 130q0 76 45 129q-8 8 -34.5 33.5t-40.5 40.5q7 6 20 19.5t19 20.5l75 -75q60 45 131 45q76 0 130 -45q11 12 23.5 24.5t28 27.5t23.5 23q7 -7 20 -20.5 t19 -19.5q-14 -15 -41.5 -41.5t-33.5 -32.5q45 -59 45 -129q0 -23 -10 -54.5t-20.5 -52.5t-14.5 -23q42 -39 75 -73zM588 293q0 67 -48 111.5t-109 44.5q-68 0 -114 -46.5t-46 -109.5q0 -65 46.5 -112t112.5 -47q65 0 111.5 47t46.5 112z" />
<glyph unicode="&#xa5;" horiz-adv-x="587" d="M220 757q39 0 70.5 -87t36.5 -199h8q50 124 123.5 194.5t164.5 70.5q32 0 59 -13l-53 -42q-38 19 -63 19q-43 0 -88 -51.5t-74 -116t-41 -121.5h151l-31 -36q-68 -10 -127 -13l-17 -85h160l-21 -31q-86 -21 -147 -21q-11 -58 -29 -90.5t-58 -69.5l3 -8h61q73 0 129 37 l4 -8q-12 -9 -27 -21.5t-24 -19.5t-20 -15.5t-17.5 -13.5t-13 -9t-11.5 -6t-8 -2q-122 0 -188 1l-4 8q56 12 83.5 65.5t47.5 153.5q-23 0 -66 0.5t-57 0.5l42 50h88l16 82q-30 0 -72 0.5t-60 0.5l42 49h93q-1 133 -37 221t-75 88q-55 0 -84 -51t-33 -160l-71 -54 q3 81 27.5 147.5t78.5 111t129 44.5z" />
<glyph unicode="&#xa6;" horiz-adv-x="248" d="M92 236h46l-4 -355l-42 -44v399zM148 856l-8 -384h-47l-3 342z" />
<glyph unicode="&#xa7;" horiz-adv-x="540" d="M421 753q82 0 107 -39l-68 -40q-35 28 -93 28q-44 0 -74 -30t-30 -74q0 -32 18 -63.5t44.5 -58.5t52.5 -55.5t44 -65.5t18 -76q0 -41 -32.5 -98.5t-71.5 -75.5q2 -16 2 -25q0 -71 -80.5 -142t-155.5 -71q-31 0 -62.5 9.5t-45.5 29.5q63 37 72 41q41 -30 96 -30 q42 0 70 31.5t28 74.5q0 39 -28 80.5t-61 72.5t-61 75.5t-28 87.5q0 44 32 102t76 78q-3 13 -3 28q0 73 80.5 139.5t153.5 66.5zM198 493q-37 -58 -37 -114q0 -42 19 -79.5t42.5 -61t55 -55.5t47.5 -56q37 62 37 112q0 36 -11.5 65.5t-31 52.5t-40.5 43t-44 44.5t-37 48.5z " />
<glyph unicode="&#xa8;" horiz-adv-x="498" d="M138 728l54 50q33 -26 48 -52l-51 -55q-37 45 -51 57zM327 728l54 50q28 -18 47 -52l-45 -55q-30 38 -56 57z" />
<glyph unicode="&#xa9;" horiz-adv-x="845" d="M479 666q129 0 207.5 -87t78.5 -201q0 -169 -98 -273t-266 -104q-120 0 -200.5 89t-80.5 198q0 167 93 272.5t266 105.5zM452 620q-115 0 -189.5 -59t-89.5 -143.5t3.5 -168.5t87.5 -143t164 -59q116 0 191.5 59t90.5 143.5t-3.5 168.5t-88.5 143t-166 59zM467 527 q36 0 70 -11t44 -25v-63h-16q-3 26 -27 48.5t-74 22.5q-61 0 -97 -44.5t-36 -108.5q0 -75 36.5 -125.5t103.5 -50.5t109 67h15l-14 -64q-10 -11 -49 -21t-70 -10q-88 0 -144.5 49.5t-56.5 150.5q0 68 54.5 126.5t151.5 58.5z" />
<glyph unicode="&#xaa;" horiz-adv-x="303" d="M212 712q48 0 65 -3l-20 -105q-22 -117 -42 -175l2 -4q36 31 48 42l5 -8q-51 -53 -80 -69l-4 8q8 78 21 164q1 7 6 16l-3 2l-7 -11q-77 -120 -150 -180q-9 29 -9 70q0 66 17 122q19 66 53.5 98.5t97.5 32.5zM178 669q-41 0 -55 -17t-25 -72q-5 -22 -8 -63.5t0 -59.5 q31 28 71.5 96.5t51.5 111.5q-9 4 -35 4z" />
<glyph unicode="&#xab;" horiz-adv-x="719" d="M289 483l42 -49q-27 -32 -82 -80t-101 -76q45 -26 98 -68.5t81 -71.5l-38 -58q-31 43 -86 97t-125 101q137 96 211 205zM548 483l42 -49q-27 -32 -82 -80t-101 -76q45 -26 98 -68.5t81 -71.5l-38 -58q-31 43 -86 97t-125 101q137 96 211 205z" />
<glyph unicode="&#xac;" horiz-adv-x="596" d="M62 273l23 40h410q15 0 25 -11t10 -29v-190l-42 -28l-1 180q0 27 -5.5 32.5t-26.5 5.5h-393z" />
<glyph unicode="&#xae;" horiz-adv-x="770" d="M410 528q52 0 89 -25.5t37 -83.5q0 -87 -95 -104l-5 -7q4 -5 18.5 -26t19 -28t17 -24t19.5 -25l17.5 -20t20 -20.5t19.5 -15.5l-18 -26q-95 61 -195 205l4 4q9 -3 19 -3q50 0 74 28.5t24 66.5q0 73 -79 73q-31 0 -63 -9v-318q8 -3 26 -7v-16h-124v16q14 2 33 8v323 q-15 6 -33 9v16h42q31 0 74.5 4.5t58.5 4.5zM424 666q129 0 207.5 -87t78.5 -201q0 -169 -98 -273t-266 -104q-120 0 -200.5 89t-80.5 198q0 167 93 272.5t266 105.5zM397 620q-140 0 -214 -82t-74 -198q0 -75 30 -140.5t91.5 -109t142.5 -43.5q73 0 130 23.5t91.5 63.5 t52 89.5t17.5 103.5q0 74 -30 140t-92.5 109.5t-144.5 43.5z" />
<glyph unicode="&#xaf;" horiz-adv-x="352" d="M103 865q42 10 107.5 10.5t105.5 -2.5l-53 -54q-137 5 -206 -6z" />
<glyph unicode="&#xb0;" horiz-adv-x="366" d="M190 765q58 0 98 -38t40 -106q0 -70 -46.5 -115t-111.5 -45q-57 0 -96 38t-39 104q0 71 45.5 116.5t109.5 45.5zM179 737q-45 0 -75 -32t-30 -86q0 -63 31.5 -98t83.5 -35q41 0 70 33.5t29 86.5q0 61 -29.5 96t-79.5 35z" />
<glyph unicode="&#xb1;" horiz-adv-x="621" d="M340 668v-237h243l-54 -54h-189v-190l-54 -54v244h-238l54 54h184v183zM48 -2l54 54h481l-54 -54h-481z" />
<glyph unicode="&#xb2;" horiz-adv-x="354" d="M224 775q74 0 74 -65q0 -55 -49 -115t-114 -109l2 -6h117q47 0 85 29l6 -9l-69 -55l-211 1l-3 5q73 57 129 121.5t56 113.5q0 54 -49 54q-29 0 -94 -26l-5 13q62 48 125 48z" />
<glyph unicode="&#xb3;" horiz-adv-x="407" d="M228 782q65 0 65 -68q0 -25 -21 -53t-50 -46l2 -4q10 2 15 2q27 0 43 -18.5t16 -41.5q0 -57 -46 -92.5t-99 -35.5q-51 0 -82 22l19 40q39 -25 90 -25q41 0 57 16.5t16 51.5q0 26 -16 45.5t-45 23.5l-6 11q67 35 67 89q0 51 -42 51q-28 0 -72 -23l-10 14q69 41 99 41z" />
<glyph unicode="&#xb4;" d="M257 758l-15 -39q-29 -6 -63 -27q-56 -36 -124 -115l-14 17q45 63 71.5 94t58.5 50q37 22 86 20z" />
<glyph unicode="&#xb6;" horiz-adv-x="557" d="M354 605q-76 0 -110.5 -73.5t-34.5 -193.5q0 -66 28 -112t72 -46q9 0 14 6q53 273 53 364q0 55 -22 55zM599 851q29 0 49 -5l-41 -54q-28 6 -63 6q-27 0 -48 -15.5t-33 -36.5t-21.5 -55.5t-13 -58.5t-8.5 -60.5t-7 -48.5q-13 -80 -32.5 -220.5t-32.5 -226.5 q-23 -151 -82.5 -220.5t-155.5 -69.5q-22 0 -44 6l38 55q30 -8 61 -8q37 0 68 37t42 118l22 158q-30 -5 -51 -5q-81 0 -139.5 56.5t-58.5 166.5q0 108 80 186t186 78q28 0 56 -6q9 81 75 152t154 71z" />
<glyph unicode="&#xb7;" horiz-adv-x="343" d="M178 390q19 -13 44 -39.5t36 -44.5l-90 -89q-5 5 -18.5 21t-28 32t-27.5 28z" />
<glyph unicode="&#xb8;" horiz-adv-x="391" d="M249 21l17 -15q-12 -11 -65 -56q30 -8 60 -33.5t30 -46.5q0 -36 -37.5 -65t-86.5 -29q-52 0 -73 40l45 39q21 -39 66 -39q41 0 41 15q0 26 -32 52.5t-78 42.5z" />
<glyph unicode="&#xb9;" horiz-adv-x="308" d="M205 771q8 -3 8 -26q0 -28 -6 -72.5t-18 -115.5t-16 -96l-51 -55l-2 4q36 227 47 310q-55 -29 -91 -56l-7 11q24 25 64.5 53t71.5 43z" />
<glyph unicode="&#xba;" horiz-adv-x="331" d="M205 716q25 -10 41 -47t16 -69q0 -64 -50.5 -127t-116.5 -79q-26 10 -41 45.5t-15 70.5q0 66 50 127.5t116 78.5zM182 674q-88 -38 -88 -133q0 -65 26 -107q90 34 90 133q0 66 -28 107z" />
<glyph unicode="&#xbb;" horiz-adv-x="669" d="M346 434l42 49q73 -107 211 -205q-70 -47 -125 -101t-86 -97l-38 58q28 28 81 70.5t100 68.5h-1q-46 28 -101.5 76.5t-82.5 80.5zM87 434l42 49q73 -107 211 -205q-70 -47 -125 -101t-86 -97l-38 58q28 28 81 70.5t100 68.5h-1q-46 28 -101.5 76.5t-82.5 80.5z" />
<glyph unicode="&#xbc;" horiz-adv-x="1029" d="M680 792l49 -50q-78 -129 -267.5 -365.5t-339.5 -396.5l-19 21q15 20 159 204t237.5 315t180.5 272zM325 788q13 0 13 -26q0 -56 -29 -198t-31 -156l-51 -55q-5 2 -5 13v4q6 61 28 173.5t30 188.5q-36 -15 -84 -51l-7 11q40 42 136 96zM712 424h-2q-57 -135 -161 -244 l3 -4h135q15 123 25 248zM759 489q12 0 12 -21q-4 -67 -17.5 -155t-18.5 -137q82 0 134 21l9 -21q-60 -41 -146 -41q-3 -18 -6.5 -50.5t-7.5 -53.5l-48 -45q-3 1 -3 14q0 7 16 135q-11 0 -43.5 0.5t-50.5 0.5t-49 -2t-59 -6l-19 10q31 17 108 124.5t101 174.5q31 31 88 52z " />
<glyph unicode="&#xbd;" horiz-adv-x="1052" d="M726 792l49 -50q-78 -129 -267.5 -365.5t-339.5 -396.5l-19 21q15 20 159 204t237.5 315t180.5 272zM371 788q13 0 13 -26q0 -56 -29 -198t-31 -156l-51 -55q-5 2 -5 13v4q6 61 28 173.5t30 188.5q-36 -15 -84 -51l-7 11q40 42 136 96zM666 384l-5 13q62 48 125 48 q74 0 74 -65q0 -61 -52 -126t-121 -118l2 -6h95q67 0 107 29l7 -15l-70 -48h-211l-4 17q189 154 189 243q0 53 -46 53q-25 0 -90 -25z" />
<glyph unicode="&#xbe;" horiz-adv-x="1020" d="M680 792l49 -50q-78 -129 -267.5 -365.5t-339.5 -396.5l-19 21q15 20 159 204t237.5 315t180.5 272zM712 424h-2q-57 -135 -161 -244l3 -4h135q15 123 25 248zM759 489q12 0 12 -21q-4 -67 -17.5 -155t-18.5 -137q82 0 134 21l9 -21q-60 -41 -146 -41q-3 -18 -6.5 -50.5 t-7.5 -53.5l-48 -45q-3 1 -3 14q0 7 16 135q-12 0 -37.5 0.5t-39.5 0.5q-62 0 -125 -8l-19 10q31 17 108 124.5t101 174.5q31 31 88 52zM290 782q73 0 73 -71q0 -26 -23.5 -55.5t-56.5 -48.5l2 -4q12 2 17 2q31 0 48.5 -19.5t17.5 -42.5q0 -56 -53.5 -100.5t-108.5 -44.5 q-22 0 -49 9.5t-43 24.5l21 42q43 -26 101 -26q46 0 64 17t18 54q0 26 -18 47t-50 25l-7 21q66 31 66 84q0 52 -42 52q-27 0 -77 -23l-12 21q70 36 112 36z" />
<glyph unicode="&#xbf;" d="M306 388l4 -1q17 -44 17 -90q0 -49 -28.5 -93.5t-69.5 -79.5t-82 -70.5t-69.5 -82.5t-28.5 -100q0 -46 20 -75.5t54 -29.5q61 0 113 44l3 -15q-72 -72 -140 -72q-119 0 -119 122q0 46 28 94t68.5 87t81 76t68.5 74t28 68q0 58 -17 86q55 34 69 58zM169 494l72 69 q31 -24 67 -81l-70 -64q-1 1 -26.5 31t-42.5 45z" />
<glyph unicode="&#xc0;" horiz-adv-x="673" d="M392 755q3 0 165 -9q-29 -58 -29 -322q0 -118 2.5 -188t9.5 -111.5t17.5 -55.5t28.5 -14q32 0 79 28l4 -8q-54 -48 -117 -86q-21 0 -36.5 7t-25.5 27t-16 38t-9.5 58t-4.5 69t-2 87h-182q-7 -13 -22.5 -44.5t-26 -51t-22.5 -35.5q-111 -152 -238 -152h-62l47 64 q36 -9 71 -9q48 0 71.5 19t68.5 95q23 38 134 249t159 286q-12 0 -48 1.5t-58 1.5q-30 0 -47.5 -1t-44 -6t-42.5 -14t-34.5 -27t-28.5 -44t-17 -65t-7 -90q-31 -21 -69 -54q0 193 127 297q74 60 205 60zM458 611q-30 -54 -81.5 -154t-69.5 -133h150q-1 37 -1 103 q0 56 1 118.5t1 65.5zM347 922l-15 39q49 2 86 -20q32 -19 58.5 -50t71.5 -94l-15 -18q-75 87 -123 116q-10 6 -25 12.5t-25.5 10.5t-12.5 4z" />
<glyph unicode="&#xc1;" horiz-adv-x="685" d="M392 755q3 0 165 -9q-29 -58 -29 -322q0 -118 2.5 -188t9.5 -111.5t17.5 -55.5t28.5 -14q32 0 79 28l4 -8q-54 -48 -117 -86q-21 0 -36.5 7t-25.5 27t-16 38t-9.5 58t-4.5 69t-2 87h-182q-7 -13 -22.5 -44.5t-26 -51t-22.5 -35.5q-111 -152 -238 -152h-62l47 64 q36 -9 71 -9q48 0 71.5 19t68.5 95q23 38 134 249t159 286q-12 0 -48 1.5t-58 1.5q-30 0 -47.5 -1t-44 -6t-42.5 -14t-34.5 -27t-28.5 -44t-17 -65t-7 -90q-31 -21 -69 -54q0 193 127 297q74 60 205 60zM458 611q-30 -54 -81.5 -154t-69.5 -133h150q-1 37 -1 103 q0 56 1 118.5t1 65.5zM613 958l-15 -39q-29 -6 -63 -27q-56 -36 -124 -115l-14 17q45 63 71.5 94t58.5 50q37 22 86 20z" />
<glyph unicode="&#xc2;" horiz-adv-x="673" d="M392 755q3 0 165 -9q-29 -58 -29 -322q0 -118 2.5 -188t9.5 -111.5t17.5 -55.5t28.5 -14q32 0 79 28l4 -8q-54 -48 -117 -86q-21 0 -36.5 7t-25.5 27t-16 38t-9.5 58t-4.5 69t-2 87h-182q-7 -13 -22.5 -44.5t-26 -51t-22.5 -35.5q-111 -152 -238 -152h-62l47 64 q36 -9 71 -9q48 0 71.5 19t68.5 95q23 38 134 249t159 286q-12 0 -48 1.5t-58 1.5q-30 0 -47.5 -1t-44 -6t-42.5 -14t-34.5 -27t-28.5 -44t-17 -65t-7 -90q-31 -21 -69 -54q0 193 127 297q74 60 205 60zM458 611q-30 -54 -81.5 -154t-69.5 -133h150q-1 37 -1 103 q0 56 1 118.5t1 65.5zM536 912q23 -9 60.5 -36t55.5 -46l-35 -33q-64 62 -109 76q-46 -23 -106 -74l-10 9q40 44 72.5 69.5t71.5 34.5z" />
<glyph unicode="&#xc3;" horiz-adv-x="680" d="M392 755q3 0 165 -9q-29 -58 -29 -322q0 -118 2.5 -188t9.5 -111.5t17.5 -55.5t28.5 -14q32 0 79 28l4 -8q-54 -48 -117 -86q-21 0 -36.5 7t-25.5 27t-16 38t-9.5 58t-4.5 69t-2 87h-182q-7 -13 -22.5 -44.5t-26 -51t-22.5 -35.5q-111 -152 -238 -152h-62l47 64 q36 -9 71 -9q48 0 71.5 19t68.5 95q23 38 134 249t159 286q-12 0 -48 1.5t-58 1.5q-30 0 -47.5 -1t-44 -6t-42.5 -14t-34.5 -27t-28.5 -44t-17 -65t-7 -90q-31 -21 -69 -54q0 193 127 297q74 60 205 60zM458 611q-30 -54 -81.5 -154t-69.5 -133h150q-1 37 -1 103 q0 56 1 118.5t1 65.5zM661 910l8 -11q-56 -57 -119 -72q-22 0 -60.5 18.5t-62.5 18.5q-20 0 -50.5 -13.5t-47.5 -28.5l-5 15q49 50 115 76q22 0 60.5 -17.5t62.5 -17.5q21 0 52.5 10.5t46.5 21.5z" />
<glyph unicode="&#xc4;" horiz-adv-x="673" d="M392 755q3 0 165 -9q-29 -58 -29 -322q0 -118 2.5 -188t9.5 -111.5t17.5 -55.5t28.5 -14q32 0 79 28l4 -8q-54 -48 -117 -86q-21 0 -36.5 7t-25.5 27t-16 38t-9.5 58t-4.5 69t-2 87h-182q-7 -13 -22.5 -44.5t-26 -51t-22.5 -35.5q-111 -152 -238 -152h-62l47 64 q36 -9 71 -9q48 0 71.5 19t68.5 95q23 38 134 249t159 286q-12 0 -48 1.5t-58 1.5q-30 0 -47.5 -1t-44 -6t-42.5 -14t-34.5 -27t-28.5 -44t-17 -65t-7 -90q-31 -21 -69 -54q0 193 127 297q74 60 205 60zM458 611q-30 -54 -81.5 -154t-69.5 -133h150q-1 37 -1 103 q0 56 1 118.5t1 65.5zM360 861l54 50q33 -26 48 -52l-51 -55q-37 45 -51 57zM549 861l54 50q28 -18 47 -52l-45 -55q-30 38 -56 57z" />
<glyph unicode="&#xc5;" horiz-adv-x="673" d="M392 755q3 0 165 -9q-29 -58 -29 -322q0 -118 2.5 -188t9.5 -111.5t17.5 -55.5t28.5 -14q32 0 79 28l4 -8q-54 -48 -117 -86q-21 0 -36.5 7t-25.5 27t-16 38t-9.5 58t-4.5 69t-2 87h-182q-7 -13 -22.5 -44.5t-26 -51t-22.5 -35.5q-111 -152 -238 -152h-62l47 64 q36 -9 71 -9q48 0 71.5 19t68.5 95q23 38 134 249t159 286q-12 0 -48 1.5t-58 1.5q-30 0 -47.5 -1t-44 -6t-42.5 -14t-34.5 -27t-28.5 -44t-17 -65t-7 -90q-31 -21 -69 -54q0 193 127 297q74 60 205 60zM458 611q-30 -54 -81.5 -154t-69.5 -133h150q-1 37 -1 103 q0 56 1 118.5t1 65.5zM528 946q38 0 57.5 -16t19.5 -39q0 -33 -22 -60t-55 -27q-27 0 -45.5 16t-18.5 40q0 27 18.5 50.5t45.5 35.5zM548 836q35 11 35 35q0 22 -17.5 35t-42.5 13q-26 -14 -32 -46q0 -12 18 -24.5t39 -12.5z" />
<glyph unicode="&#xc6;" horiz-adv-x="868" d="M441 275h-166q-54 -104 -71 -131q-50 -80 -107.5 -116t-130.5 -36h-62l47 64q36 -9 71 -9q46 0 70.5 21t69.5 93q27 42 141 251.5t162 283.5q-12 0 -48 1.5t-58 1.5q-30 0 -47.5 -1t-44 -6t-42.5 -14t-34.5 -27t-28.5 -44t-17 -65t-7 -90q-31 -21 -69 -54q0 193 127 297 q43 35 103 46.5t178 11.5q14 0 93 -1t152 -1q119 0 152 1l-56 -59q-20 0 -106.5 0.5t-125.5 0.5q-7 -19 -10 -34l-34 -215h14q24 0 61.5 -2t56.5 -2q52 0 97 10l5 -4q-18 -26 -47.5 -46t-63.5 -20q-9 0 -50 1t-84 1q-19 -123 -34 -197q-13 -61 -75 -121l4 -9h260 q69 0 123 38l4 -8q-81 -62 -117 -87h-383l-4 9q87 18 115 169q2 11 8 45.5t9 52.5zM526 694q-21 -20 -45 -54.5t-52.5 -85.5t-44.5 -81t-45.5 -88t-30.5 -61h141q7 44 17.5 111t15.5 96t12.5 67t14.5 59t17 37z" />
<glyph unicode="&#xc7;" horiz-adv-x="527" d="M411 751q69 0 136 -20l-58 -75q-55 39 -113 52q-68 -1 -132 -61t-102.5 -154t-38.5 -190q0 -87 39.5 -158.5t113.5 -89.5q68 12 176 93l9 -8q-35 -44 -92.5 -88t-106.5 -58q-11 -10 -28 -25t-22 -19q30 -8 60 -33.5t30 -46.5q0 -36 -37.5 -65t-86.5 -29q-52 0 -73 40 l45 39q21 -39 66 -39q41 0 41 15q0 26 -32 52.5t-78 42.5l81 68q-86 11 -129.5 78t-43.5 154q0 115 52.5 237t141.5 205t182 83z" />
<glyph unicode="&#xc8;" horiz-adv-x="624" d="M321 751h157q119 0 152 1l-56 -59q-20 0 -106.5 0.5t-125.5 0.5q-7 -19 -10 -34l-34 -215h14q24 0 61.5 -2t56.5 -2q52 0 97 10l5 -4q-18 -26 -47.5 -46t-63.5 -20q-9 0 -50 1t-84 1q-19 -123 -34 -197q-13 -61 -75 -121l4 -8l237 -2q83 -5 146 39l4 -8q-81 -62 -117 -87 l-383 1l-4 8q87 18 115 169q18 94 34 197.5t24 154.5t19 96.5t25 68.5h-41q-100 0 -140.5 -54.5t-40.5 -187.5l-69 -54q0 114 41 195t140 138q35 20 149 20zM234 926l-15 39q49 2 86 -20q32 -19 58.5 -50t71.5 -94l-15 -18q-75 87 -123 116q-10 6 -25 12.5t-25.5 10.5 t-12.5 4z" />
<glyph unicode="&#xc9;" horiz-adv-x="624" d="M321 751h157q119 0 152 1l-56 -59q-20 0 -106.5 0.5t-125.5 0.5q-7 -19 -10 -34l-34 -215h14q24 0 61.5 -2t56.5 -2q52 0 97 10l5 -4q-18 -26 -47.5 -46t-63.5 -20q-9 0 -50 1t-84 1q-19 -123 -34 -197q-13 -61 -75 -121l4 -8l237 -2q83 -5 146 39l4 -8q-81 -62 -117 -87 l-383 1l-4 8q87 18 115 169q18 94 34 197.5t24 154.5t19 96.5t25 68.5h-41q-100 0 -140.5 -54.5t-40.5 -187.5l-69 -54q0 114 41 195t140 138q35 20 149 20zM538 960l-15 -39q-29 -6 -63 -27q-56 -36 -124 -115l-14 17q45 63 71.5 94t58.5 50q37 22 86 20z" />
<glyph unicode="&#xca;" horiz-adv-x="624" d="M321 751h157q119 0 152 1l-56 -59q-20 0 -106.5 0.5t-125.5 0.5q-7 -19 -10 -34l-34 -215h14q24 0 61.5 -2t56.5 -2q52 0 97 10l5 -4q-18 -26 -47.5 -46t-63.5 -20q-9 0 -50 1t-84 1q-19 -123 -34 -197q-13 -61 -75 -121l4 -8l237 -2q83 -5 146 39l4 -8q-81 -62 -117 -87 l-383 1l-4 8q87 18 115 169q18 94 34 197.5t24 154.5t19 96.5t25 68.5h-41q-100 0 -140.5 -54.5t-40.5 -187.5l-69 -54q0 114 41 195t140 138q35 20 149 20zM409 906q23 -9 60.5 -36t55.5 -46l-35 -33q-64 62 -109 76q-46 -23 -106 -74l-10 9q40 44 72.5 69.5t71.5 34.5z " />
<glyph unicode="&#xcb;" horiz-adv-x="624" d="M321 751h157q119 0 152 1l-56 -59q-20 0 -106.5 0.5t-125.5 0.5q-7 -19 -10 -34l-34 -215h14q24 0 61.5 -2t56.5 -2q52 0 97 10l5 -4q-18 -26 -47.5 -46t-63.5 -20q-9 0 -50 1t-84 1q-19 -123 -34 -197q-13 -61 -75 -121l4 -8l237 -2q83 -5 146 39l4 -8q-81 -62 -117 -87 l-383 1l-4 8q87 18 115 169q18 94 34 197.5t24 154.5t19 96.5t25 68.5h-41q-100 0 -140.5 -54.5t-40.5 -187.5l-69 -54q0 114 41 195t140 138q35 20 149 20zM188 864l54 50q33 -26 48 -52l-51 -55q-37 45 -51 57zM377 864l54 50q28 -18 47 -52l-45 -55q-30 38 -56 57z" />
<glyph unicode="&#xcc;" horiz-adv-x="440" d="M321 751h90l1 -3q-38 -24 -49 -88q-7 -41 -21.5 -133.5t-29 -179t-27.5 -161.5q-14 -62 -76 -121l4 -8q76 -3 123 3.5t86 33.5l4 -8q-94 -79 -111 -86q-3 -1 -6 -1q-29 0 -101.5 0.5t-107.5 0.5l-4 8q87 18 115 169q18 98 35 203.5t25 156.5t18.5 94t22.5 63h-67 q-100 0 -140.5 -54.5t-40.5 -187.5l-69 -54q0 114 41 195t140 138q35 20 145 20zM208 920l-15 39q49 2 86 -20q32 -19 58.5 -50t71.5 -94l-15 -18q-75 87 -123 116q-10 6 -25 12.5t-25.5 10.5t-12.5 4z" />
<glyph unicode="&#xcd;" horiz-adv-x="459" d="M321 751h90l1 -3q-38 -24 -49 -88q-7 -41 -21.5 -133.5t-29 -179t-27.5 -161.5q-14 -62 -76 -121l4 -8q76 -3 123 3.5t86 33.5l4 -8q-94 -79 -111 -86q-3 -1 -6 -1q-29 0 -101.5 0.5t-107.5 0.5l-4 8q87 18 115 169q18 98 35 203.5t25 156.5t18.5 94t22.5 63h-67 q-100 0 -140.5 -54.5t-40.5 -187.5l-69 -54q0 114 41 195t140 138q35 20 145 20zM516 959l-15 -39q-29 -6 -63 -27q-56 -36 -124 -115l-14 17q45 63 71.5 94t58.5 50q37 22 86 20z" />
<glyph unicode="&#xce;" horiz-adv-x="439" d="M321 751h90l1 -3q-38 -24 -49 -88q-7 -41 -21.5 -133.5t-29 -179t-27.5 -161.5q-14 -62 -76 -121l4 -8q76 -3 123 3.5t86 33.5l4 -8q-94 -79 -111 -86q-3 -1 -6 -1q-29 0 -101.5 0.5t-107.5 0.5l-4 8q87 18 115 169q18 98 35 203.5t25 156.5t18.5 94t22.5 63h-67 q-100 0 -140.5 -54.5t-40.5 -187.5l-69 -54q0 114 41 195t140 138q35 20 145 20zM380 915q23 -9 60.5 -36t55.5 -46l-35 -33q-64 62 -109 76q-46 -23 -106 -74l-10 9q40 44 72.5 69.5t71.5 34.5z" />
<glyph unicode="&#xcf;" horiz-adv-x="440" d="M321 751h90l1 -3q-38 -24 -49 -88q-7 -41 -21.5 -133.5t-29 -179t-27.5 -161.5q-14 -62 -76 -121l4 -8q76 -3 123 3.5t86 33.5l4 -8q-94 -79 -111 -86q-3 -1 -6 -1q-29 0 -101.5 0.5t-107.5 0.5l-4 8q87 18 115 169q18 98 35 203.5t25 156.5t18.5 94t22.5 63h-67 q-100 0 -140.5 -54.5t-40.5 -187.5l-69 -54q0 114 41 195t140 138q35 20 145 20zM207 861l54 50q33 -26 48 -52l-51 -55q-37 45 -51 57zM396 861l54 50q28 -18 47 -52l-45 -55q-30 38 -56 57z" />
<glyph unicode="&#xd0;" horiz-adv-x="720" d="M128 357l32 62h17q38 0 62 -1q17 103 24 143.5t19 80.5t27 60q-40 0 -79.5 -15.5t-74.5 -45t-57 -81t-22 -116.5l-65 -56q0 177 106 271.5t306 94.5q132 0 194 -69.5t62 -181.5q0 -82 -32 -171t-86.5 -162.5t-135 -121.5t-167.5 -48h-170l-4 8q87 18 115 169 q19 109 30 179q-38 1 -101 1zM201 57h128q79 0 145 59.5t101.5 147.5t35.5 179q0 54 -14 100t-42.5 83t-77 58t-111.5 21q-12 -25 -15 -45q-5 -29 -40 -244q40 -1 94 -1q52 0 97 10l5 -4q-18 -26 -47.5 -46t-63.5 -20q-50 0 -95 1q-2 -19 -28 -170q-10 -58 -76 -121z" />
<glyph unicode="&#xd1;" horiz-adv-x="813" d="M300 750h94q126 -363 184 -648q14 73 36 221.5t39.5 241t37.5 129.5q-82 3 -146 -6l-1 2q31 37 70 49t122 12h54l1 -3q-38 -24 -49 -88l-76 -442q-17 -99 -45.5 -150.5t-86.5 -77.5l-4 8l27 15q-48 147 -116 337t-103 293q-17 -72 -34 -212t-28 -203 q-21 -115 -78.5 -172.5t-142.5 -55.5l-54 1l47 64q36 -9 76 -9q25 0 40 16t25 66q25 129 44 264.5t29 201.5t22 90l-65 1q-97 1 -138 -55t-41 -188l-69 -54q0 114 41 195t140 138q33 19 148 19zM688 911l8 -11q-56 -57 -119 -72q-22 0 -60.5 18.5t-62.5 18.5 q-20 0 -50.5 -13.5t-47.5 -28.5l-5 15q49 50 115 76q22 0 60.5 -17.5t62.5 -17.5q21 0 52.5 10.5t46.5 21.5z" />
<glyph unicode="&#xd2;" horiz-adv-x="587" d="M397 753q76 -22 113 -93t37 -171q0 -103 -45 -207.5t-125.5 -183t-175.5 -103.5q-81 21 -122 86t-41 156q0 166 105.5 321.5t253.5 194.5zM253 51q97 29 161.5 141.5t64.5 236.5q0 94 -33 166t-101 102q-102 -31 -170.5 -150.5t-68.5 -249.5q0 -87 36.5 -153t110.5 -93z M299 924l-15 39q49 2 86 -20q32 -19 58.5 -50t71.5 -94l-15 -18q-75 87 -123 116q-10 6 -25 12.5t-25.5 10.5t-12.5 4z" />
<glyph unicode="&#xd3;" horiz-adv-x="609" d="M397 753q76 -22 113 -93t37 -171q0 -103 -45 -207.5t-125.5 -183t-175.5 -103.5q-81 21 -122 86t-41 156q0 166 105.5 321.5t253.5 194.5zM253 51q97 29 161.5 141.5t64.5 236.5q0 94 -33 166t-101 102q-102 -31 -170.5 -150.5t-68.5 -249.5q0 -87 36.5 -153t110.5 -93z M514 960l-15 -39q-29 -6 -63 -27q-56 -36 -124 -115l-14 17q45 63 71.5 94t58.5 50q37 22 86 20z" />
<glyph unicode="&#xd4;" horiz-adv-x="587" d="M397 753q76 -22 113 -93t37 -171q0 -103 -45 -207.5t-125.5 -183t-175.5 -103.5q-81 21 -122 86t-41 156q0 166 105.5 321.5t253.5 194.5zM253 51q97 29 161.5 141.5t64.5 236.5q0 94 -33 166t-101 102q-102 -31 -170.5 -150.5t-68.5 -249.5q0 -87 36.5 -153t110.5 -93z M430 918q23 -9 60.5 -36t55.5 -46l-35 -33q-64 62 -109 76q-46 -23 -106 -74l-10 9q40 44 72.5 69.5t71.5 34.5z" />
<glyph unicode="&#xd5;" horiz-adv-x="579" d="M388 753q76 -22 113 -93t37 -171q0 -103 -45 -207.5t-125.5 -183t-175.5 -103.5q-81 21 -122 86t-41 156q0 166 105.5 321.5t253.5 194.5zM244 51q97 29 161.5 141.5t64.5 236.5q0 94 -33 166t-101 102q-102 -31 -170.5 -150.5t-68.5 -249.5q0 -87 36.5 -153t110.5 -93z M572 920l8 -11q-56 -57 -119 -72q-22 0 -60.5 18.5t-62.5 18.5q-20 0 -50.5 -13.5t-47.5 -28.5l-5 15q49 50 115 76q22 0 60.5 -17.5t62.5 -17.5q21 0 52.5 10.5t46.5 21.5z" />
<glyph unicode="&#xd6;" horiz-adv-x="557" d="M397 753q76 -22 113 -93t37 -171q0 -103 -45 -207.5t-125.5 -183t-175.5 -103.5q-81 21 -122 86t-41 156q0 166 105.5 321.5t253.5 194.5zM253 51q97 29 161.5 141.5t64.5 236.5q0 94 -33 166t-101 102q-102 -31 -170.5 -150.5t-68.5 -249.5q0 -87 36.5 -153t110.5 -93z M265 867l54 50q33 -26 48 -52l-51 -55q-37 45 -51 57zM454 867l54 50q28 -18 47 -52l-45 -55q-30 38 -56 57z" />
<glyph unicode="&#xd7;" horiz-adv-x="551" d="M102 501q62 -97 185 -211l190 211l22 -14l-194 -216l40 -40l43.5 -43.5t38.5 -39.5t41.5 -45.5t35.5 -43.5v-1l-53 -52q-21 26 -48 55t-46.5 49t-52 52.5l-48.5 48.5l-194 -214l-17 18l194 215q-124 115 -190 219z" />
<glyph unicode="&#xd8;" horiz-adv-x="587" d="M506 817l32 -29q-8 -15 -24.5 -47t-25.5 -49q59 -72 59 -203q0 -103 -45 -207.5t-125.5 -183t-175.5 -103.5q-33 8 -65 28q-20 -36 -55 -106l-43 59q9 15 26.5 44.5t25.5 43.5q-52 65 -52 173q0 166 105.5 321.5t253.5 194.5q36 -11 60 -30q32 62 49 94zM253 51 q97 29 161.5 141.5t64.5 236.5q0 102 -38 174q-187 -355 -265 -503q31 -33 77 -49zM106 297q0 -84 34 -148q143 250 275 495q-30 34 -70 53q-102 -31 -170.5 -150.5t-68.5 -249.5z" />
<glyph unicode="&#xd9;" horiz-adv-x="803" d="M320 750h94l1 -3q-10 -7 -24 -29.5t-22 -51.5q-72 -392 -72 -479q0 -122 80 -122q34 0 71.5 35.5t66.5 86t50 100.5t28 84l64 323q7 18 27 31t34.5 17t39.5 9l1 -3q-38 -24 -49 -88q-6 -35 -23 -132.5t-31 -183t-24 -161.5q-2 -20 -2 -27q0 -46 20.5 -68t49.5 -22 q40 0 87 28l4 -8q-54 -48 -117 -86q-103 1 -103 141q0 43 12 115h-5q-35 -96 -116 -176.5t-143 -80.5q-95 0 -95 160q0 53 9 105q9 61 19.5 134.5l16 112t13 79.5t15 64.5t17.5 40.5h-80q-95 0 -134.5 -56.5t-39.5 -186.5l-69 -54q0 114 41 195t140 138q33 19 148 19z M404 919l-15 39q49 2 86 -20q32 -19 58.5 -50t71.5 -94l-15 -18q-75 87 -123 116q-10 6 -25 12.5t-25.5 10.5t-12.5 4z" />
<glyph unicode="&#xda;" horiz-adv-x="803" d="M320 750h94l1 -3q-10 -7 -24 -29.5t-22 -51.5q-72 -392 -72 -479q0 -122 80 -122q34 0 71.5 35.5t66.5 86t50 100.5t28 84l64 323q7 18 27 31t34.5 17t39.5 9l1 -3q-38 -24 -49 -88q-6 -35 -23 -132.5t-31 -183t-24 -161.5q-2 -20 -2 -27q0 -46 20.5 -68t49.5 -22 q40 0 87 28l4 -8q-54 -48 -117 -86q-103 1 -103 141q0 43 12 115h-5q-35 -96 -116 -176.5t-143 -80.5q-95 0 -95 160q0 53 9 105q9 61 19.5 134.5l16 112t13 79.5t15 64.5t17.5 40.5h-80q-95 0 -134.5 -56.5t-39.5 -186.5l-69 -54q0 114 41 195t140 138q33 19 148 19z M695 961l-15 -39q-29 -6 -63 -27q-56 -36 -124 -115l-14 17q45 63 71.5 94t58.5 50q37 22 86 20z" />
<glyph unicode="&#xdb;" horiz-adv-x="803" d="M320 750h94l1 -3q-10 -7 -24 -29.5t-22 -51.5q-72 -392 -72 -479q0 -122 80 -122q34 0 71.5 35.5t66.5 86t50 100.5t28 84l64 323q7 18 27 31t34.5 17t39.5 9l1 -3q-38 -24 -49 -88q-6 -35 -23 -132.5t-31 -183t-24 -161.5q-2 -20 -2 -27q0 -46 20.5 -68t49.5 -22 q40 0 87 28l4 -8q-54 -48 -117 -86q-103 1 -103 141q0 43 12 115h-5q-35 -96 -116 -176.5t-143 -80.5q-95 0 -95 160q0 53 9 105q9 61 19.5 134.5l16 112t13 79.5t15 64.5t17.5 40.5h-80q-95 0 -134.5 -56.5t-39.5 -186.5l-69 -54q0 114 41 195t140 138q33 19 148 19z M586 926q23 -9 60.5 -36t55.5 -46l-35 -33q-64 62 -109 76q-46 -23 -106 -74l-10 9q40 44 72.5 69.5t71.5 34.5z" />
<glyph unicode="&#xdc;" horiz-adv-x="803" d="M320 750h94l1 -3q-10 -7 -24 -29.5t-22 -51.5q-72 -392 -72 -479q0 -122 80 -122q34 0 71.5 35.5t66.5 86t50 100.5t28 84l64 323q7 18 27 31t34.5 17t39.5 9l1 -3q-38 -24 -49 -88q-6 -35 -23 -132.5t-31 -183t-24 -161.5q-2 -20 -2 -27q0 -46 20.5 -68t49.5 -22 q40 0 87 28l4 -8q-54 -48 -117 -86q-103 1 -103 141q0 43 12 115h-5q-35 -96 -116 -176.5t-143 -80.5q-95 0 -95 160q0 53 9 105q9 61 19.5 134.5l16 112t13 79.5t15 64.5t17.5 40.5h-80q-95 0 -134.5 -56.5t-39.5 -186.5l-69 -54q0 114 41 195t140 138q33 19 148 19z M403 871l54 50q33 -26 48 -52l-51 -55q-37 45 -51 57zM592 871l54 50q28 -18 47 -52l-45 -55q-30 38 -56 57z" />
<glyph unicode="&#xdd;" horiz-adv-x="678" d="M646 961l-15 -39q-29 -6 -63 -27q-56 -36 -124 -115l-14 17q45 63 71.5 94t58.5 50q37 22 86 20zM226 757q33 0 61.5 -35.5t55.5 -123.5t38 -133.5t37 -165.5q10 -43 14 -63q8 14 73 128t105.5 193t40.5 99q0 15 -18.5 21.5t-73.5 6.5l-1 4l75 45h39q55 0 55 -40 q0 -25 -43.5 -111.5t-108.5 -201t-67 -118.5q-121 -227 -190 -313t-170 -132q-75 10 -167 82l58 42q65 -60 127 -60q48 0 94.5 59.5t127.5 213.5q-7 25 -30 117t-36.5 142.5t-34.5 122.5t-39.5 116.5t-35.5 65.5q-67 0 -99 -50.5t-32 -159.5l-69 -54q0 118 63 210.5 t151 92.5z" />
<glyph unicode="&#xde;" horiz-adv-x="626" d="M52 585l58 61q77 -79 182 -84q3 21 9 52q15 86 75 142.5t129 56.5q74 0 74 -67q0 -78 -69 -136t-164 -83q-25 -169 -33 -211l3 -1q43 74 100.5 130t111.5 73q18 -29 24.5 -63t6.5 -96q0 -71 -26 -152.5t-77.5 -143.5t-111.5 -62q-35 0 -64 28q-2 -7 -7 -28 q-62 -258 -238 -258q-21 0 -44 6l38 55q30 -8 61 -8q41 0 70.5 30.5t44.5 123.5q13 84 35 250.5t34 249.5q5 36 10 65q-13 -2 -37 -2q-118 0 -195 72zM283 70q8 -6 30 -11t33 -5q78 0 109.5 65.5t31.5 212.5q0 79 -9 97q-26 1 -90.5 -61.5t-78.5 -119.5q-21 -87 -26 -178z M365 659q-6 -37 -14 -93q67 10 120.5 41t53.5 79q0 34 -18.5 56.5t-51.5 22.5q-74 0 -90 -106z" />
<glyph unicode="&#xdf;" horiz-adv-x="466" d="M340 823q100 0 100 -105q0 -33 -16.5 -68.5t-40 -66t-47.5 -60.5t-40.5 -63.5t-16.5 -63.5q0 -20 23.5 -47t51 -51t51 -59.5t23.5 -69.5q0 -67 -58.5 -120t-127.5 -53q-62 0 -87 23l51 53q48 -38 96 -38q31 0 53.5 33.5t22.5 62.5t-25.5 63t-55.5 60.5t-55.5 61 t-25.5 63.5q0 27 16.5 57t40 58t47.5 58t40.5 68.5t16.5 79.5q0 97 -57 97q-61 0 -107 -63.5t-62 -154.5q-14 -80 -37.5 -270.5t-39.5 -290.5q-18 -107 -86.5 -170t-141.5 -63q-30 0 -58 14l40 51q37 -5 59 -5q63 0 86 29t43 137q15 81 37.5 274t42.5 297q21 109 86 175.5 t158 66.5z" />
<glyph unicode="&#xe0;" horiz-adv-x="408" d="M252 500q72 0 97 -5l-6 -29q-4 -21 -13 -71t-12 -67q-25 -168 -60 -274l3 -2q87 63 210 234l10 -7q-72 -105 -145 -186.5t-122 -102.5q-1 12 -1 38q0 45 5 82.5t16.5 90.5t17.5 87l-3 2q-62 -105 -114 -174.5t-121 -130.5q-13 45 -13 113q0 104 25 194q28 102 80 155 t146 53zM74 282q-11 -91 -11 -157q0 -40 6 -58q5 0 15.5 12t24.5 33.5t15 22.5q38 47 95.5 155.5t57.5 152.5q-21 6 -62 6q-80 0 -104 -31t-37 -136zM119 719l-15 39q49 2 86 -20q32 -19 58.5 -50t71.5 -94l-15 -18q-75 87 -123 116q-10 6 -25 12.5t-25.5 10.5t-12.5 4z" />
<glyph unicode="&#xe1;" d="M254 500q72 0 97 -5l-6 -29q-4 -21 -13 -71t-12 -67q-25 -168 -60 -274l3 -2q87 63 210 234l10 -7q-72 -105 -145 -186.5t-122 -102.5q-1 12 -1 38q0 45 5 82.5t16.5 90.5t17.5 87l-3 2q-62 -105 -114 -174.5t-121 -130.5q-13 45 -13 113q0 104 25 194q28 102 80 155 t146 53zM76 282q-11 -91 -11 -157q0 -40 6 -58q5 0 15.5 12t24.5 33.5t15 22.5q38 47 95.5 155.5t57.5 152.5q-21 6 -62 6q-80 0 -104 -31t-37 -136zM431 758l-15 -39q-29 -6 -63 -27q-56 -36 -124 -115l-14 17q45 63 71.5 94t58.5 50q37 22 86 20z" />
<glyph unicode="&#xe2;" d="M254 500q72 0 97 -5l-6 -29q-4 -21 -13 -71t-12 -67q-25 -168 -60 -274l3 -2q87 63 210 234l10 -7q-72 -105 -145 -186.5t-122 -102.5q-1 12 -1 38q0 45 5 82.5t16.5 90.5t17.5 87l-3 2q-62 -105 -114 -174.5t-121 -130.5q-13 45 -13 113q0 104 25 194q28 102 80 155 t146 53zM76 282q-11 -91 -11 -157q0 -40 6 -58q5 0 15.5 12t24.5 33.5t15 22.5q38 47 95.5 155.5t57.5 152.5q-21 6 -62 6q-80 0 -104 -31t-37 -136zM272 765q23 -9 60.5 -36t55.5 -46l-35 -33q-64 62 -109 76q-46 -23 -106 -74l-10 9q40 44 72.5 69.5t71.5 34.5z" />
<glyph unicode="&#xe3;" horiz-adv-x="412" d="M254 500q72 0 97 -5l-6 -29q-4 -21 -13 -71t-12 -67q-25 -168 -60 -274l3 -2q87 63 210 234l10 -7q-72 -105 -145 -186.5t-122 -102.5q-1 12 -1 38q0 45 5 82.5t16.5 90.5t17.5 87l-3 2q-62 -105 -114 -174.5t-121 -130.5q-13 45 -13 113q0 104 25 194q28 102 80 155 t146 53zM76 282q-11 -91 -11 -157q0 -40 6 -58q5 0 15.5 12t24.5 33.5t15 22.5q38 47 95.5 155.5t57.5 152.5q-21 6 -62 6q-80 0 -104 -31t-37 -136zM450 737l8 -11q-56 -57 -119 -72q-22 0 -60.5 18.5t-62.5 18.5q-20 0 -50.5 -13.5t-47.5 -28.5l-5 15q49 50 115 76 q22 0 60.5 -17.5t62.5 -17.5q21 0 52.5 10.5t46.5 21.5z" />
<glyph unicode="&#xe4;" d="M254 500q72 0 97 -5l-6 -29q-4 -21 -13 -71t-12 -67q-25 -168 -60 -274l3 -2q87 63 210 234l10 -7q-72 -105 -145 -186.5t-122 -102.5q-1 12 -1 38q0 45 5 82.5t16.5 90.5t17.5 87l-3 2q-62 -105 -114 -174.5t-121 -130.5q-13 45 -13 113q0 104 25 194q28 102 80 155 t146 53zM76 282q-11 -91 -11 -157q0 -40 6 -58q5 0 15.5 12t24.5 33.5t15 22.5q38 47 95.5 155.5t57.5 152.5q-21 6 -62 6q-80 0 -104 -31t-37 -136zM140 709l54 50q33 -26 48 -52l-51 -55q-37 45 -51 57zM329 709l54 50q28 -18 47 -52l-45 -55q-30 38 -56 57z" />
<glyph unicode="&#xe5;" d="M254 500q72 0 97 -5l-6 -29q-4 -21 -13 -71t-12 -67q-25 -168 -60 -274l3 -2q87 63 210 234l10 -7q-72 -105 -145 -186.5t-122 -102.5q-1 12 -1 38q0 45 5 82.5t16.5 90.5t17.5 87l-3 2q-62 -105 -114 -174.5t-121 -130.5q-13 45 -13 113q0 104 25 194q28 102 80 155 t146 53zM76 282q-11 -91 -11 -157q0 -40 6 -58q5 0 15.5 12t24.5 33.5t15 22.5q38 47 95.5 155.5t57.5 152.5q-21 6 -62 6q-80 0 -104 -31t-37 -136zM278 774q38 0 57.5 -16t19.5 -39q0 -33 -22 -60t-55 -27q-27 0 -45.5 16t-18.5 40q0 27 18.5 50.5t45.5 35.5zM298 664 q35 11 35 35q0 22 -17.5 35t-42.5 13q-26 -14 -32 -46q0 -12 18 -24.5t39 -12.5z" />
<glyph unicode="&#xe6;" horiz-adv-x="527" d="M254 500q72 0 97 -5l-6 -29q-1 -6 -5 -22t-5 -22q77 92 139 92q51 0 51 -40q0 -97 -221 -244q-1 -11 -1 -28q0 -105 69 -162q97 74 221 247l10 -7q-72 -105 -145 -186.5t-122 -102.5q-50 12 -75 67.5t-25 121.5q0 62 18 108l-3 2q-62 -105 -114 -174.5t-121 -130.5 q-13 45 -13 111q0 106 25 196q33 115 90 163q53 45 136 45zM217 449q-56 0 -81 -13q-27 -14 -39 -47.5t-21 -106.5q-11 -91 -11 -157q0 -40 6 -58q5 0 15.5 12t24.5 33.5t15 22.5q38 47 95.5 155.5t57.5 152.5q-21 6 -62 6zM440 465q-51 0 -83.5 -58.5t-47.5 -152.5 q62 40 110 97t48 93q0 21 -27 21z" />
<glyph unicode="&#xe7;" horiz-adv-x="310" d="M233 514q49 0 78 -27l-44 -52q-23 39 -60 39q-55 0 -95.5 -86t-40.5 -191q0 -118 66 -154q103 74 237 268l10 -6q-71 -107 -146 -194.5t-129 -115.5q-44 -37 -52 -45q30 -8 60 -33.5t30 -46.5q0 -36 -37.5 -65t-86.5 -29q-52 0 -73 40l45 39q21 -39 66 -39q41 0 41 15 q0 26 -32 52.5t-78 42.5l83 70q-72 33 -72 188q0 72 27 137t65.5 105.5t76 64t61.5 23.5z" />
<glyph unicode="&#xe8;" horiz-adv-x="298" d="M209 474q-50 0 -83 -62t-48 -158q62 40 110 97t48 93q0 30 -27 30zM243 514q51 0 51 -40q0 -97 -221 -244q-1 -11 -1 -28q0 -113 68 -163q99 76 222 247l10 -7q-72 -105 -145 -186.5t-122 -102.5q-50 12 -75 66.5t-25 123.5q0 79 38.5 158t94 127.5t105.5 48.5zM76 719 l-15 39q49 2 86 -20q32 -19 58.5 -50t71.5 -94l-15 -18q-75 87 -123 116q-10 6 -25 12.5t-25.5 10.5t-12.5 4z" />
<glyph unicode="&#xe9;" horiz-adv-x="305" d="M209 474q-50 0 -83 -62t-48 -158q62 40 110 97t48 93q0 30 -27 30zM243 514q51 0 51 -40q0 -97 -221 -244q-1 -11 -1 -28q0 -113 68 -163q99 76 222 247l10 -7q-72 -105 -145 -186.5t-122 -102.5q-50 12 -75 66.5t-25 123.5q0 79 38.5 158t94 127.5t105.5 48.5zM397 758 l-15 -39q-29 -6 -63 -27q-56 -36 -124 -115l-14 17q45 63 71.5 94t58.5 50q37 22 86 20z" />
<glyph unicode="&#xea;" horiz-adv-x="298" d="M208 474q-50 0 -83 -62t-48 -158q62 40 110 97t48 93q0 30 -27 30zM242 514q51 0 51 -40q0 -97 -221 -244q-1 -11 -1 -28q0 -113 68 -163q99 76 222 247l10 -7q-72 -105 -145 -186.5t-122 -102.5q-50 12 -75 66.5t-25 123.5q0 79 38.5 158t94 127.5t105.5 48.5zM264 762 q23 -9 60.5 -36t55.5 -46l-35 -33q-64 62 -109 76q-46 -23 -106 -74l-10 9q40 44 72.5 69.5t71.5 34.5z" />
<glyph unicode="&#xeb;" horiz-adv-x="300" d="M209 474q-50 0 -83 -62t-48 -158q62 40 110 97t48 93q0 30 -27 30zM243 514q51 0 51 -40q0 -97 -221 -244q-1 -11 -1 -28q0 -113 68 -163q99 76 222 247l10 -7q-72 -105 -145 -186.5t-122 -102.5q-50 12 -75 66.5t-25 123.5q0 79 38.5 158t94 127.5t105.5 48.5zM95 682 l54 50q33 -26 48 -52l-51 -55q-37 45 -51 57zM284 682l54 50q28 -18 47 -52l-45 -55q-30 38 -56 57z" />
<glyph unicode="&#xec;" horiz-adv-x="222" d="M152 515q-6 -39 -21 -151.5t-28.5 -186.5t-30.5 -122l2 -3q86 61 210 234l11 -7q-72 -105 -145 -186.5t-123 -102.5q-2 24 -2 38q0 52 8 109.5t26 155t28 160.5l-70 -51l2 11q7 10 19.5 25.5t47.5 43.5t66 33zM-43 724l-15 39q49 2 86 -20q32 -19 58.5 -50t71.5 -94 l-15 -18q-75 87 -123 116q-10 6 -25 12.5t-25.5 10.5t-12.5 4z" />
<glyph unicode="&#xed;" horiz-adv-x="219" d="M147 515q-6 -39 -21 -151.5t-28.5 -186.5t-30.5 -122l2 -3q86 61 210 234l11 -7q-72 -105 -145 -186.5t-123 -102.5q-2 24 -2 38q0 52 8 109.5t26 155t28 160.5l-70 -51l2 11q7 10 19.5 25.5t47.5 43.5t66 33zM294 760l-15 -39q-29 -6 -63 -27q-56 -36 -124 -115l-14 17 q45 63 71.5 94t58.5 50q37 22 86 20z" />
<glyph unicode="&#xee;" horiz-adv-x="221" d="M151 515q-6 -39 -21 -151.5t-28.5 -186.5t-30.5 -122l2 -3q86 61 210 234l11 -7q-72 -105 -145 -186.5t-123 -102.5q-2 24 -2 38q0 52 8 109.5t26 155t28 160.5l-70 -51l2 11q7 10 19.5 25.5t47.5 43.5t66 33zM153 766q23 -9 60.5 -36t55.5 -46l-35 -33q-64 62 -109 76 q-46 -23 -106 -74l-10 9q40 44 72.5 69.5t71.5 34.5z" />
<glyph unicode="&#xef;" horiz-adv-x="224" d="M155 515q-6 -39 -21 -151.5t-28.5 -186.5t-30.5 -122l2 -3q86 61 210 234l11 -7q-72 -105 -145 -186.5t-123 -102.5q-2 24 -2 38q0 52 8 109.5t26 155t28 160.5l-70 -51l2 11q7 10 19.5 25.5t47.5 43.5t66 33zM-15 708l54 50q33 -26 48 -52l-51 -55q-37 45 -51 57z M174 708l54 50q28 -18 47 -52l-45 -55q-30 38 -56 57z" />
<glyph unicode="&#xf0;" horiz-adv-x="370" d="M46 611l109 64q-81 102 -199 137l48 38q119 -26 205 -143l104 61l16 -46l-95 -52q97 -160 97 -366q0 -107 -53.5 -189.5t-170.5 -123.5q-42 18 -68.5 75.5t-26.5 111.5q0 92 44 173t111 128l16 -18q-53 -46 -82 -113t-29 -138q0 -108 62 -179q143 62 143 259 q0 205 -97 350l-119 -65z" />
<glyph unicode="&#xf1;" horiz-adv-x="452" d="M359 514q17 -14 17 -69q0 -75 -35 -228.5t-37 -162.5l3 -2q89 64 210 234l10 -7q-69 -102 -142.5 -185t-124.5 -104q-2 24 -2 38q0 64 22.5 193t22.5 197l-4 2q-60 -54 -130 -171.5t-115 -258.5q-23 26 -23 64q0 16 14 114.5t28 189.5l14 90l-3 2l-66 -48l2 11 q7 10 19.5 25.5t47.5 43.5t66 33q-7 -42 -21 -155.5t-24 -167.5l3 -2q59 115 125.5 206.5t122.5 117.5zM434 735l8 -11q-56 -57 -119 -72q-22 0 -60.5 18.5t-62.5 18.5q-20 0 -50.5 -13.5t-47.5 -28.5l-5 15q49 50 115 76q22 0 60.5 -17.5t62.5 -17.5q21 0 52.5 10.5 t46.5 21.5z" />
<glyph unicode="&#xf2;" horiz-adv-x="367" d="M246 512q36 -17 59 -76t23 -111q0 -103 -72 -205t-166 -129q-38 17 -60 74t-22 113q0 108 71.5 207.5t166.5 126.5zM219 472q-77 -35 -111 -95.5t-34 -149.5q0 -39 2 -63.5t12 -61t29 -71.5q145 62 145 245q0 39 -2 63.5t-12 61t-29 71.5zM85 719l-15 39q49 2 86 -20 q32 -19 58.5 -50t71.5 -94l-15 -18q-75 87 -123 116q-10 6 -25 12.5t-25.5 10.5t-12.5 4z" />
<glyph unicode="&#xf3;" horiz-adv-x="365" d="M243 512q36 -17 59 -76t23 -111q0 -103 -72 -205t-166 -129q-38 17 -60 74t-22 113q0 108 71.5 207.5t166.5 126.5zM216 472q-77 -35 -111 -95.5t-34 -149.5q0 -39 2 -63.5t12 -61t29 -71.5q145 62 145 245q0 39 -2 63.5t-12 61t-29 71.5zM407 760l-15 -39 q-29 -6 -63 -27q-56 -36 -124 -115l-14 17q45 63 71.5 94t58.5 50q37 22 86 20z" />
<glyph unicode="&#xf4;" horiz-adv-x="359" d="M243 512q36 -17 59 -76t23 -111q0 -103 -72 -205t-166 -129q-38 17 -60 74t-22 113q0 108 71.5 207.5t166.5 126.5zM216 472q-77 -35 -111 -95.5t-34 -149.5q0 -39 2 -63.5t12 -61t29 -71.5q145 62 145 245q0 39 -2 63.5t-12 61t-29 71.5zM273 765q23 -9 60.5 -36 t55.5 -46l-35 -33q-64 62 -109 76q-46 -23 -106 -74l-10 9q40 44 72.5 69.5t71.5 34.5z" />
<glyph unicode="&#xf5;" horiz-adv-x="364" d="M243 512q36 -17 59 -76t23 -111q0 -103 -72 -205t-166 -129q-38 17 -60 74t-22 113q0 108 71.5 207.5t166.5 126.5zM216 472q-77 -35 -111 -95.5t-34 -149.5q0 -39 2 -63.5t12 -61t29 -71.5q145 62 145 245q0 39 -2 63.5t-12 61t-29 71.5zM401 719l8 -11 q-56 -57 -119 -72q-22 0 -60.5 18.5t-62.5 18.5q-20 0 -50.5 -13.5t-47.5 -28.5l-5 15q49 50 115 76q22 0 60.5 -17.5t62.5 -17.5q21 0 52.5 10.5t46.5 21.5z" />
<glyph unicode="&#xf6;" horiz-adv-x="367" d="M245 512q36 -17 59 -76t23 -111q0 -103 -72 -205t-166 -129q-38 17 -60 74t-22 113q0 108 71.5 207.5t166.5 126.5zM218 472q-77 -35 -111 -95.5t-34 -149.5q0 -39 2 -63.5t12 -61t29 -71.5q145 62 145 245q0 39 -2 63.5t-12 61t-29 71.5zM107 682l54 50q33 -26 48 -52 l-51 -55q-37 45 -51 57zM296 682l54 50q28 -18 47 -52l-45 -55q-30 38 -56 57z" />
<glyph unicode="&#xf7;" horiz-adv-x="539" d="M208 489l72 69q29 -18 62 -81l-65 -63q-15 10 -36 36.5t-33 38.5zM208 134l72 68q16 -10 31.5 -40.5t30.5 -39.5l-65 -64q-13 9 -33 37.5t-36 38.5zM29 291l54 54q63 3 214.5 -1.5t210.5 1.5l-54 -54q-52 -8 -212.5 -3.5t-212.5 3.5z" />
<glyph unicode="&#xf8;" horiz-adv-x="365" d="M327 555l21 -15l-53 -89q30 -63 30 -126q0 -103 -72 -205t-166 -129q-23 10 -41 36l-37 -63l-21 23l42 70q-25 56 -25 121q0 108 71.5 207.5t166.5 126.5q21 -10 37 -35zM259 276q0 60 -8 100l-165 -281q13 -38 28 -64q145 62 145 245zM216 472q-77 -35 -111 -95.5 t-34 -149.5q0 -60 5 -92l166 278q-7 24 -26 59z" />
<glyph unicode="&#xf9;" horiz-adv-x="460" d="M154 515q-54 -276 -54 -408q0 -16 5 -41q49 48 107 140.5t102 207.5q11 30 18.5 45.5t21 32t29.5 22.5l-71 -406q-5 -27 -15 -54l3 -2q96 69 228 259l10 -6q-75 -112 -153.5 -202.5t-131.5 -112.5q-2 24 -2 38q0 31 5.5 74t11 73.5t14.5 77t12 60.5l-3 2 q-57 -115 -120.5 -206.5t-117.5 -117.5q-11 37 -11 89q0 58 15 165l27 204l-65 -47l2 11q7 10 19.5 25.5t47.5 43.5t66 33zM90 719l-15 39q49 2 86 -20q32 -19 58.5 -50t71.5 -94l-15 -18q-75 87 -123 116q-10 6 -25 12.5t-25.5 10.5t-12.5 4z" />
<glyph unicode="&#xfa;" horiz-adv-x="461" d="M154 515q-54 -276 -54 -408q0 -16 5 -41q49 48 107 140.5t102 207.5q11 30 18.5 45.5t21 32t29.5 22.5l-71 -406q-5 -27 -15 -54l3 -2q96 69 228 259l10 -6q-75 -112 -153.5 -202.5t-131.5 -112.5q-2 24 -2 38q0 31 5.5 74t11 73.5t14.5 77t12 60.5l-3 2 q-57 -115 -120.5 -206.5t-117.5 -117.5q-11 37 -11 89q0 58 15 165l27 204l-65 -47l2 11q7 10 19.5 25.5t47.5 43.5t66 33zM445 758l-15 -39q-29 -6 -63 -27q-56 -36 -124 -115l-14 17q45 63 71.5 94t58.5 50q37 22 86 20z" />
<glyph unicode="&#xfb;" horiz-adv-x="461" d="M154 515q-54 -276 -54 -408q0 -16 5 -41q49 48 107 140.5t102 207.5q11 30 18.5 45.5t21 32t29.5 22.5l-71 -406q-5 -27 -15 -54l3 -2q96 69 228 259l10 -6q-75 -112 -153.5 -202.5t-131.5 -112.5q-2 24 -2 38q0 31 5.5 74t11 73.5t14.5 77t12 60.5l-3 2 q-57 -115 -120.5 -206.5t-117.5 -117.5q-11 37 -11 89q0 58 15 165l27 204l-65 -47l2 11q7 10 19.5 25.5t47.5 43.5t66 33zM298 765q23 -9 60.5 -36t55.5 -46l-35 -33q-64 62 -109 76q-46 -23 -106 -74l-10 9q40 44 72.5 69.5t71.5 34.5z" />
<glyph unicode="&#xfc;" horiz-adv-x="461" d="M154 515q-54 -276 -54 -408q0 -16 5 -41q49 48 107 140.5t102 207.5q11 30 18.5 45.5t21 32t29.5 22.5l-71 -406q-5 -27 -15 -54l3 -2q96 69 228 259l10 -6q-75 -112 -153.5 -202.5t-131.5 -112.5q-2 24 -2 38q0 31 5.5 74t11 73.5t14.5 77t12 60.5l-3 2 q-57 -115 -120.5 -206.5t-117.5 -117.5q-11 37 -11 89q0 58 15 165l27 204l-65 -47l2 11q7 10 19.5 25.5t47.5 43.5t66 33zM142 728l54 50q33 -26 48 -52l-51 -55q-37 45 -51 57zM331 728l54 50q28 -18 47 -52l-45 -55q-30 38 -56 57z" />
<glyph unicode="&#xfd;" horiz-adv-x="421" d="M154 515q-58 -299 -53 -439l4 -10q49 47 106.5 140t101.5 208q1 2 8 19t9 21.5t9 17.5t12.5 19t14 13t17.5 10q-2 -15 -6.5 -35.5t-5.5 -27.5q-10 -51 -18.5 -106.5t-19 -141.5t-16.5 -128q-19 -139 -82.5 -214.5t-172.5 -75.5q-41 0 -77 9l39 61q43 -13 81 -13 q71 0 101 28.5t42 121.5q19 156 46 321l-3 2q-57 -115 -120.5 -206.5t-117.5 -117.5q-10 34 -10 86t3 81.5t13 102.5l25 188l-65 -47l2 11q7 10 19.5 25.5t47.5 43.5t66 33zM453 758l-15 -39q-29 -6 -63 -27q-56 -36 -124 -115l-14 17q45 63 71.5 94t58.5 50q37 22 86 20z " />
<glyph unicode="&#xfe;" horiz-adv-x="365" d="M318 851q29 0 49 -5l-41 -54q-28 6 -63 6q-43 0 -71 -44q-9 -15 -17 -35t-13.5 -37.5t-10.5 -44.5t-7.5 -41t-6.5 -43t-5 -35q-8 -49 -19 -114.5t-18 -109.5l3 -1q85 156 197 225q18 -29 24.5 -63t6.5 -96q0 -69 -26 -152t-72.5 -144.5t-96.5 -61.5q-35 0 -64 28 q-12 -42 -23 -91.5t-18 -71t-20 -38.5l3 -5q2 1 77 48l6 -15q-36 -21 -105 -57.5t-108 -58.5l-9 11q71 39 89 72.5t35 147.5q12 76 33 236t34 243l24 156q13 86 84 165q71 80 149 80zM70 70q8 -6 30 -11t33 -5q69 0 95 59t26 219q0 74 -9 97q-32 -13 -85.5 -81t-72.5 -152 q-14 -63 -17 -126z" />
<glyph unicode="&#xff;" horiz-adv-x="420" d="M154 515q-58 -299 -53 -439l4 -10q49 47 106.5 140t101.5 208q1 2 8 19t9 21.5t9 17.5t12.5 19t14 13t17.5 10q-2 -15 -6.5 -35.5t-5.5 -27.5q-10 -51 -18.5 -106.5t-19 -141.5t-16.5 -128q-19 -139 -82.5 -214.5t-172.5 -75.5q-41 0 -77 9l39 61q43 -13 81 -13 q71 0 101 28.5t42 121.5q19 156 46 321l-3 2q-57 -115 -120.5 -206.5t-117.5 -117.5q-10 34 -10 86t3 81.5t13 102.5l25 188l-65 -47l2 11q7 10 19.5 25.5t47.5 43.5t66 33zM135 690l54 50q33 -26 48 -52l-51 -55q-37 45 -51 57zM324 690l54 50q28 -18 47 -52l-45 -55 q-30 38 -56 57z" />
<glyph unicode="&#x127;" horiz-adv-x="455" d="M339 851q29 0 49 -5l-41 -54q-28 6 -63 6q-80 0 -111 -132q51 4 95 4q11 0 89 -3l-49 -45q-20 1 -58 1q-40 0 -85 -3q-3 -20 -7 -54t-4 -36l-45 -342q157 282 250 326q17 -13 17 -81q0 -74 -34 -214t-38 -165l2 -2q87 63 210 234l10 -7q-72 -105 -145 -186.5t-122 -102.5 q-2 24 -2 38q0 63 23 193.5t23 201.5q-63 -56 -133.5 -173.5t-115.5 -259.5q-23 26 -23 64q0 7 2 19l73 533q0 2 0.5 4t0.5 4q-33 -4 -94 -14l46 52q51 7 61 8q28 76 90 133.5t129 57.5z" />
<glyph unicode="&#x128;" horiz-adv-x="468" d="M329 751h90l1 -3q-38 -24 -49 -88q-7 -41 -21.5 -133.5t-29 -179t-27.5 -161.5q-14 -62 -76 -121l4 -8q76 -3 123 3.5t86 33.5l4 -8q-94 -79 -111 -86q-3 -1 -6 -1q-29 0 -101.5 0.5t-107.5 0.5l-4 8q87 18 115 169q18 98 35 203.5t25 156.5t18.5 94t22.5 63h-67 q-100 0 -140.5 -54.5t-40.5 -187.5l-69 -54q0 114 41 195t140 138q35 20 145 20zM511 912l8 -11q-56 -57 -119 -72q-22 0 -60.5 18.5t-62.5 18.5q-20 0 -50.5 -13.5t-47.5 -28.5l-5 15q49 50 115 76q22 0 60.5 -17.5t62.5 -17.5q21 0 52.5 10.5t46.5 21.5z" />
<glyph unicode="&#x129;" horiz-adv-x="237" d="M172 515q-7 -43 -20 -151t-26.5 -183.5t-33.5 -125.5l2 -3q86 61 210 234l11 -7q-72 -105 -145 -186.5t-123 -102.5q-2 24 -2 38q0 52 8 109.5t26 155t28 160.5l-70 -51l2 11q7 10 19.5 25.5t47.5 43.5t66 33zM317 737l8 -11q-56 -57 -119 -72q-22 0 -60.5 18.5 t-62.5 18.5q-20 0 -50.5 -13.5t-47.5 -28.5l-5 15q49 50 115 76q22 0 60.5 -17.5t62.5 -17.5q21 0 52.5 10.5t46.5 21.5z" />
<glyph unicode="&#x131;" horiz-adv-x="225" d="M156 515q-7 -43 -20 -151t-26.5 -183.5t-33.5 -125.5l2 -3q86 61 210 234l11 -7q-72 -105 -145 -186.5t-123 -102.5q-2 24 -2 38q0 52 8 109.5t26 155t28 160.5l-70 -51l2 11q7 10 19.5 25.5t47.5 43.5t66 33z" />
<glyph unicode="&#x132;" horiz-adv-x="810" d="M694 751h90l1 -3q-15 -9 -29 -32t-19 -56q-45 -304 -111 -649q-11 -55 -77 -124.5t-138 -88.5q-16 0 -33.5 4.5t-29 9t-31 16.5t-25.5 16t-26.5 19.5t-21.5 16.5l58 39q21 -20 34 -30.5t39.5 -23.5t51.5 -13q53 0 90.5 42t50.5 132q17 120 34.5 231t38 231.5t26.5 154.5 q6 33 21 51h-69q-80 0 -110.5 -28.5t-30.5 -103.5l-69 -54q0 83 31.5 133.5t109.5 89.5q41 20 144 20zM321 751h90l1 -3q-38 -24 -49 -88q-2 -11 -31.5 -192t-46.5 -282q-5 -31 -22 -58.5t-54 -62.5l4 -8q14 -1 40 -1q77 0 119 38l4 -8q-1 -1 -31 -28t-51.5 -42.5 t-34.5 -16.5q-21 0 -76.5 0.5t-82.5 0.5l-4 8q87 18 115 169q18 98 35 203.5t25 156.5t18.5 94t22.5 63h-67q-100 0 -140.5 -54.5t-40.5 -187.5l-69 -54q0 114 41 195t140 138q35 20 145 20z" />
<glyph unicode="&#x133;" horiz-adv-x="420" d="M377 515l-47 -349q-25 -186 -95.5 -284t-163.5 -98q-29 0 -49 5l41 64q28 -6 63 -6q21 0 38 6.5t29 15.5t22 28t15.5 33.5t11 43.5t8 47t7.5 55t8 57l18 123q-70 -98 -138 -172t-114 -94q-2 24 -2 38q0 52 8 109.5t26 155t28 160.5l-70 -51l2 11q7 10 19.5 25.5 t47.5 43.5t66 33q-6 -39 -21 -151.5t-28.5 -186.5t-30.5 -122l2 -3q85 60 209 233l25 168l-70 -51l2 11q7 10 19.5 25.5t47.5 43.5t66 33zM352 684l53 48q1 -8 1 -25q0 -41 -14.5 -67t-51.5 -45q10 27 12 89zM125 687l53 48q1 -8 1 -25q0 -41 -14.5 -67t-51.5 -45 q10 27 12 89z" />
<glyph unicode="&#x134;" horiz-adv-x="534" d="M378 751h90l1 -3q-15 -9 -29 -32t-19 -56q-45 -304 -111 -649q-11 -55 -77 -124.5t-138 -88.5q-16 0 -33.5 4.5t-29 9t-31 16.5t-25.5 16t-26.5 19.5t-21.5 16.5l58 39q21 -20 34 -30.5t39.5 -23.5t51.5 -13q53 0 90.5 42t50.5 132q17 120 34.5 231t38 231.5t26.5 154.5 q6 33 21 51h-69q-100 0 -140.5 -54.5t-40.5 -187.5l-69 -54q0 114 41 195t140 138q35 20 144 20zM426 912q23 -9 60.5 -36t55.5 -46l-35 -33q-64 62 -109 76q-46 -23 -106 -74l-10 9q40 44 72.5 69.5t71.5 34.5z" />
<glyph unicode="&#x135;" horiz-adv-x="195" d="M152 515l-47 -349q-25 -186 -95.5 -284t-163.5 -98q-29 0 -49 5l41 64q28 -6 63 -6q21 0 38 6.5t29 15.5t22 28t15.5 33.5t11 43.5t8 47t7.5 55t8 57l47 320l-70 -51l2 11q7 10 19.5 25.5t47.5 43.5t66 33zM166 765q23 -9 60.5 -36t55.5 -46l-35 -33q-64 62 -109 76 q-46 -23 -106 -74l-10 9q40 44 72.5 69.5t71.5 34.5z" />
<glyph unicode="&#x137;" horiz-adv-x="438" d="M340 851q29 0 49 -5l-41 -54q-28 6 -63 6q-28 0 -49.5 -16.5t-34 -38.5t-21.5 -58t-13 -60t-8 -60v-3t-0.5 -3t-0.5 -3l-27 -219q38 77 95 127t117 50q48 0 48 -50q0 -109 -148 -185q14 -34 38 -115.5t30 -111.5q38 21 106.5 92.5t118.5 141.5l10 -7 q-72 -105 -145 -186.5t-122 -102.5q-24 41 -66.5 144t-54.5 129q78 32 127.5 77.5t49.5 96.5q0 37 -30 37q-35 0 -63 -26t-66 -92q-21 -36 -38 -85t-26 -87t-22.5 -100.5t-21.5 -92.5q-35 23 -35 67q0 10 1 15l73 533q12 86 82.5 165.5t150.5 79.5zM144 -38q36 -48 51 -78 q-2 -16 -27.5 -65t-66.5 -102l-18 15q38 49 38 77q0 36 -47 90q33 38 70 63z" />
<glyph unicode="&#x138;" horiz-adv-x="460" d="M155 515q-42 -293 -80 -460q-3 -14 -8.5 -33.5t-8.5 -31.5q-30 16 -30 55q0 44 8 98.5t25.5 148t28.5 161.5l-70 -51l2 11q7 10 19.5 25.5t47.5 43.5t66 33zM242 447l-9 11q60 57 102 57q48 0 48 -50q0 -109 -148 -185q14 -34 38 -115.5t30 -111.5q38 21 106.5 92.5 t118.5 141.5l10 -7q-72 -105 -145 -186.5t-122 -102.5q-24 41 -66.5 144t-54.5 129q78 32 127.5 77.5t49.5 96.5q0 37 -34 37q-12 0 -51 -28z" />
<glyph unicode="&#x13f;" horiz-adv-x="522" d="M369 752q55 0 100 -35l-59 -50q-61 46 -107 46q-75 0 -96 -124q-16 -91 -37 -232t-27 -171q-12 -60 -76 -121l4 -8q47 0 94.5 -20t87.5 -48.5t79.5 -57.5t85 -49t89.5 -20q51 0 85 54l12 -3q-13 -47 -60.5 -77.5t-103.5 -30.5q-37 0 -81 21t-86 50.5t-84.5 59.5t-87.5 51 t-82 21q-29 0 -61 -8l-4 8q87 18 115 169q17 90 28.5 164.5t19.5 133t12 85.5q12 74 85.5 133t154.5 59zM300 309l68 74q30 -20 59 -67l-66 -67q-8 12 -61 60z" />
<glyph unicode="&#x140;" horiz-adv-x="396" d="M346 851q29 0 49 -5l-41 -54q-28 6 -63 6q-27 0 -48 -15t-33 -35t-21.5 -54t-13 -56.5t-8 -60t-6.5 -47.5q-7 -43 -20 -154.5t-27 -191t-35 -130.5l3 -2q31 23 108 101l9 -12q-96 -121 -164 -151q-2 24 -2 38q0 50 13.5 149t36 237t30.5 192q12 85 82 165t151 80z M241 309l67 73q23 -16 58 -66l-65 -66q-8 14 -60 59z" />
<glyph unicode="&#x141;" horiz-adv-x="448" d="M360 752q55 0 100 -35l-59 -50q-61 46 -107 46q-75 0 -96 -124l-20 -119q78 44 137 69l-25 -60q-62 -29 -120 -63q-6 -37 -14 -91.5t-13 -87t-9 -51.5q-12 -60 -76 -121l4 -8q46 0 93 -20t87 -48.5t80 -57.5t86 -49t90 -20q51 0 85 54l12 -3q-13 -47 -60.5 -77.5 t-103.5 -30.5q-36 0 -80.5 21t-86.5 50.5t-84 59.5t-87.5 51t-82.5 21q-29 0 -61 -8l-4 8q87 18 115 169q17 94 32 189q-75 -50 -99 -67l23 67q20 14 84 55q2 13 9 64t11 75q12 74 85.5 133t154.5 59z" />
<glyph unicode="&#x142;" horiz-adv-x="261" d="M30 -10q-1 11 -1 35q0 27 3 58.5t6.5 54.5t10.5 62.5t10 60.5l10 66q-5 -4 -27 -20.5t-36 -26.5l14 61l56 39l32 226q12 91 82 168t151 77q29 0 49 -5l-41 -54q-28 6 -63 6q-27 0 -48 -15t-33 -35t-21.5 -54t-13 -56.5t-8 -60t-6.5 -47.5q-6 -39 -16 -115q58 39 113 62 l-17 -56q-49 -23 -102 -58q-28 -229 -60 -309l3 -2q87 63 258 264l10 -6q-218 -279 -315 -320z" />
<glyph unicode="&#x143;" horiz-adv-x="784" d="M252 750h94q126 -363 184 -648q14 73 36 221.5t39.5 241t37.5 129.5q-82 3 -146 -6l-1 2q31 37 70 49t122 12h54l1 -3q-38 -24 -49 -88l-76 -442q-17 -99 -45.5 -150.5t-86.5 -77.5l-4 8l27 15q-48 147 -116 337t-103 293q-17 -72 -34 -212t-28 -203 q-21 -115 -78.5 -172.5t-142.5 -55.5l-54 1l47 64q36 -9 76 -9q25 0 40 16t25 66q25 129 44 264.5t29 201.5t22 90l-65 1q-97 1 -138 -55t-41 -188l-69 -54q0 114 41 195t140 138q33 19 148 19zM634 947l-15 -39q-29 -6 -63 -27q-56 -36 -124 -115l-14 17q45 63 71.5 94 t58.5 50q37 22 86 20z" />
<glyph unicode="&#x144;" horiz-adv-x="455" d="M338 757l50 -22q-86 -60 -136 -165l-32 10q46 148 118 177zM372 514q17 -14 17 -69q0 -75 -35 -228.5t-37 -162.5l3 -2q89 64 210 234l10 -7q-69 -102 -142.5 -185t-124.5 -104q-2 24 -2 38q0 64 22.5 193t22.5 197l-4 2q-60 -54 -130 -171.5t-115 -258.5q-23 26 -23 64 q0 16 14 114.5t28 189.5l14 90l-3 2l-66 -48l2 11q7 10 19.5 25.5t47.5 43.5t66 33q-7 -42 -21 -155.5t-24 -167.5l3 -2q59 115 125.5 206.5t122.5 117.5z" />
<glyph unicode="&#x152;" horiz-adv-x="797" d="M458 751h193q119 0 152 1l-56 -59q-20 0 -106.5 0.5t-125.5 0.5q-7 -19 -10 -34l-34 -215q29 1 71.5 -1.5t60.5 -2.5q52 0 97 10l5 -4q-18 -26 -47.5 -46t-63.5 -20q-9 0 -50 1t-84 1q-23 -146 -33 -197q-12 -60 -76 -121l5 -11h226q91 0 146 40l4 -8q-81 -62 -117 -87 h-342q-66 0 -114.5 20.5t-74.5 56t-38.5 75.5t-12.5 86q0 119 52 236t152 197.5t221 80.5zM454 695q-44 5 -114 2q-102 -31 -170.5 -150.5t-68.5 -249.5q0 -59 17.5 -111.5t61 -91.5t105.5 -39q53 37 68 122q21 112 40.5 245.5t31 188.5t29.5 84z" />
<glyph unicode="&#x153;" horiz-adv-x="533" d="M243 512q49 -25 74 -123q34 56 80.5 90.5t82.5 34.5q51 0 51 -40q0 -97 -221 -244q-2 -11 -2 -34q0 -94 69 -157q98 75 222 248l10 -7q-72 -105 -145 -186.5t-122 -102.5q-37 8 -60 42t-33 81q-73 -98 -162 -123q-38 17 -60 74t-22 113q0 108 71.5 207.5t166.5 126.5z M216 472q-77 -35 -111 -95.5t-34 -149.5q0 -39 2 -63.5t12 -61t29 -71.5q145 62 145 245q0 39 -2 63.5t-12 61t-29 71.5zM446 465q-99 0 -130 -211q61 41 109 97.5t48 92.5q0 21 -27 21z" />
<glyph unicode="&#x154;" horiz-adv-x="567" d="M324 754q111 0 169.5 -39t58.5 -104q0 -73 -56 -134.5t-147 -82.5q52 -108 133.5 -243t151.5 -229l-35 -35q-198 215 -355 496l33 35h39q76 0 118.5 40.5t42.5 93.5q0 65 -48.5 109t-136.5 44h-19q-11 -23 -15 -45q-7 -41 -21.5 -133.5t-29 -179t-27.5 -161.5 q-10 -58 -76 -121l4 -8h61q72 0 127 37l4 -8q-11 -9 -26 -21.5t-23 -19.5t-19 -16t-17 -13t-13 -8.5t-11.5 -6.5t-7.5 -2q-122 0 -188 1l-4 8q87 18 115 169q17 94 35 203t26 159t20.5 95.5t29.5 67.5q-112 0 -184.5 -74.5t-72.5 -223.5l-65 -56q0 86 26 158.5t77.5 128.5 t135 87.5t190.5 31.5zM511 954l-15 -39q-29 -6 -63 -27q-56 -36 -124 -115l-14 17q45 63 71.5 94t58.5 50q37 22 86 20z" />
<glyph unicode="&#x156;" horiz-adv-x="599" d="M324 754q111 0 169.5 -39t58.5 -104q0 -73 -56 -134.5t-147 -82.5q52 -108 133.5 -243t151.5 -229l-35 -35q-198 215 -355 496l33 35h39q76 0 118.5 40.5t42.5 93.5q0 65 -48.5 109t-136.5 44h-19q-11 -23 -15 -45q-7 -41 -21.5 -133.5t-29 -179t-27.5 -161.5 q-10 -58 -76 -121l4 -8h61q72 0 127 37l4 -8q-11 -9 -26 -21.5t-23 -19.5t-19 -16t-17 -13t-13 -8.5t-11.5 -6.5t-7.5 -2q-122 0 -188 1l-4 8q87 18 115 169q17 94 35 203t26 159t20.5 95.5t29.5 67.5q-112 0 -184.5 -74.5t-72.5 -223.5l-65 -56q0 86 26 158.5t77.5 128.5 t135 87.5t190.5 31.5zM265 -39q36 -48 51 -78q-2 -16 -27.5 -65t-66.5 -102l-18 15q38 49 38 77q0 36 -47 90q33 38 70 63z" />
<glyph unicode="&#x157;" horiz-adv-x="312" d="M154 515q-7 -43 -19.5 -137.5t-19.5 -139.5h7q53 136 105.5 206.5t112.5 70.5q21 0 35 -10l-33 -56q-11 10 -35 10q-47 0 -109 -111t-114 -311l-55 -47q-2 24 -2 38q0 52 8 109.5t26 155t28 160.5l-70 -51l2 11q7 10 19.5 25.5t47.5 43.5t66 33zM42 -38q36 -48 51 -78 q-2 -16 -27.5 -65t-66.5 -102l-18 15q38 49 38 77q0 36 -47 90q33 38 70 63z" />
<glyph unicode="&#x158;" horiz-adv-x="567" d="M324 754q111 0 169.5 -39t58.5 -104q0 -73 -56 -134.5t-147 -82.5q52 -108 133.5 -243t151.5 -229l-35 -35q-198 215 -355 496l33 35h39q76 0 118.5 40.5t42.5 93.5q0 65 -48.5 109t-136.5 44h-19q-11 -23 -15 -45q-7 -41 -21.5 -133.5t-29 -179t-27.5 -161.5 q-10 -58 -76 -121l4 -8h61q72 0 127 37l4 -8q-11 -9 -26 -21.5t-23 -19.5t-19 -16t-17 -13t-13 -8.5t-11.5 -6.5t-7.5 -2q-122 0 -188 1l-4 8q87 18 115 169q17 94 35 203t26 159t20.5 95.5t29.5 67.5q-112 0 -184.5 -74.5t-72.5 -223.5l-65 -56q0 86 26 158.5t77.5 128.5 t135 87.5t190.5 31.5zM221 930l45 21q63 -66 113 -82q46 23 126 91l10 -9q-96 -105 -164 -121q-26 11 -63.5 39t-66.5 61z" />
<glyph unicode="&#x159;" horiz-adv-x="297" d="M131 515q-7 -43 -19.5 -137.5t-19.5 -139.5h7q53 136 105.5 206.5t112.5 70.5q21 0 35 -10l-33 -56q-11 10 -35 10q-47 0 -109 -111t-114 -311l-55 -47q-2 24 -2 38q0 52 8 109.5t26 155t28 160.5l-70 -51l2 11q7 10 19.5 25.5t47.5 43.5t66 33zM61 735l45 21 q63 -66 113 -82q46 23 126 91l10 -9q-96 -105 -164 -121q-26 11 -63.5 39t-66.5 61z" />
<glyph unicode="&#x160;" horiz-adv-x="483" d="M180 936l45 21q63 -66 113 -82q46 23 126 91l10 -9q-96 -105 -164 -121q-26 11 -63.5 39t-66.5 61zM334 760q74 0 144 -26l-57 -66q-66 30 -134 30q-127 0 -127 -57q0 -37 32.5 -88.5t71.5 -96t71.5 -98t32.5 -92.5q0 -111 -72 -192.5t-174 -81.5q-93 0 -152 46l57 64 q84 -53 151 -53q48 0 88.5 43t40.5 90q0 44 -31.5 99.5t-69.5 100t-69.5 98.5t-31.5 96q0 78 68 131t161 53z" />
<glyph unicode="&#x161;" horiz-adv-x="298" d="M205 514q49 0 78 -27l-47 -55q-12 42 -70 42q-32 0 -52 -18.5t-20 -43.5q0 -11 1.5 -20.5t6 -19t7.5 -15.5t10.5 -16.5t11 -14t13.5 -15t13 -14.5q38 -44 55.5 -76.5t17.5 -67.5q0 -52 -66.5 -106.5t-128.5 -54.5q-53 0 -77 27l50 46q35 -31 84 -31q30 0 59.5 25.5 t29.5 54.5q0 51 -77 135q-23 25 -35 39t-25.5 39t-13.5 44q0 50 74 108q44 35 101 35zM62 716l45 21q63 -66 113 -82q46 23 126 91l10 -9q-96 -105 -164 -121q-26 11 -63.5 39t-66.5 61z" />
<glyph unicode="&#x178;" horiz-adv-x="607" d="M257 862l54 50q33 -26 48 -52l-51 -55q-37 45 -51 57zM446 862l54 50q28 -18 47 -52l-45 -55q-30 38 -56 57zM160 757q33 0 61.5 -35.5t55.5 -123.5t38 -133.5t37 -165.5q10 -43 14 -63q8 14 73 128t105.5 193t40.5 99q0 15 -18.5 21.5t-73.5 6.5l-1 4l75 45h39 q55 0 55 -40q0 -25 -43.5 -111.5t-108.5 -201t-67 -118.5q-121 -227 -190 -313t-170 -132q-75 10 -167 82l58 42q65 -60 127 -60q48 0 94.5 59.5t127.5 213.5q-7 25 -30 117t-36.5 142.5t-34.5 122.5t-39.5 116.5t-35.5 65.5q-67 0 -99 -50.5t-32 -159.5l-69 -54 q0 118 63 210.5t151 92.5z" />
<glyph unicode="&#x17b;" horiz-adv-x="537" d="M278 759q50 0 117 -20.5t104 -20.5q63 0 145 37l7 -7q-56 -51 -135 -152t-144 -192.5t-141.5 -180.5t-132.5 -125l4 -8q54 0 113 -27.5t102 -60t101 -60t110 -27.5q51 0 85 54l12 -3q-13 -47 -60.5 -77.5t-103.5 -30.5q-44 0 -102.5 30t-106.5 66.5t-107.5 66.5 t-104.5 30q-29 0 -61 -8l-4 8q133 141 207 221.5t166.5 192t153.5 201.5q-26 -3 -46 -3q-55 0 -125 25.5t-118 25.5q-22 0 -43 -6q-50 -46 -50 -169l-69 -54q0 52 11.5 98t36.5 87t71 65t108 24zM377 899l66 62q21 -17 61 -74l-64 -57q-51 59 -63 69z" />
<glyph unicode="&#x17c;" horiz-adv-x="336" d="M139 506q12 0 53 -4.5t66 -4.5q61 0 72 17l6 -3q-130 -176 -307 -438q-6 -10 -18 -22l3 -3q18 8 75 8q25 0 76 -8t81 -8q23 0 62 25l5 -6q-25 -19 -42 -35t-21.5 -22t-11.5 -9t-20 -3q-28 0 -89 9t-83 9q-53 0 -94 -17l-10 9q153 213 300 430q3 4 3 8q0 2 -10.5 5.5 t-29.5 6t-38 2.5q-79 0 -159 -51l-6 10q24 34 62.5 64.5t74.5 30.5zM142 709l66 62q21 -17 61 -74l-64 -57q-51 59 -63 69z" />
<glyph unicode="&#x17d;" horiz-adv-x="515" d="M256 759q50 0 117 -20.5t104 -20.5q63 0 145 37l7 -7q-56 -51 -135 -152t-144 -192.5t-141.5 -180.5t-132.5 -125l4 -8q54 0 113 -27.5t102 -60t101 -60t110 -27.5q51 0 85 54l12 -3q-13 -47 -60.5 -77.5t-103.5 -30.5q-44 0 -102.5 30t-106.5 66.5t-107.5 66.5 t-104.5 30q-29 0 -61 -8l-4 8q133 141 207 221.5t166.5 192t153.5 201.5q-25 -3 -46 -3q-55 0 -125 25.5t-118 25.5q-22 0 -43 -6q-50 -46 -50 -169l-69 -54q0 52 11.5 98t36.5 87t71 65t108 24zM292 928l45 21q63 -66 113 -82q46 23 126 91l10 -9q-96 -105 -164 -121 q-26 11 -63.5 39t-66.5 61z" />
<glyph unicode="&#x17e;" horiz-adv-x="324" d="M139 506q12 0 53 -4.5t66 -4.5q61 0 72 17l6 -3q-130 -176 -307 -438q-6 -10 -18 -22l3 -3q18 8 75 8q25 0 76 -8t81 -8q23 0 62 25l5 -6q-25 -19 -42 -35t-21.5 -22t-11.5 -9t-20 -3q-28 0 -89 9t-83 9q-53 0 -94 -17l-10 9q153 213 300 430q3 4 3 8q0 2 -10.5 5.5 t-29.5 6t-38 2.5q-79 0 -159 -51l-6 10q24 34 62.5 64.5t74.5 30.5zM126 724l45 21q63 -66 113 -82q46 23 126 91l10 -9q-96 -105 -164 -121q-26 11 -63.5 39t-66.5 61z" />
<glyph unicode="&#x192;" horiz-adv-x="377" d="M362 691q42 0 69 -15l-41 -54q-36 16 -83 16q-48 0 -68 -47.5t-36 -178.5h174l-26 -36q-56 -12 -155 -16q-16 -123 -28 -205q-22 -144 -83 -217t-156 -73q-20 0 -44 6l38 55q30 -8 61 -8q91 0 115 154l43 289h-29q-40 0 -108 -2l21 40q36 9 124 12q16 137 71 208.5 t141 71.5z" />
<glyph unicode="&#x237;" horiz-adv-x="199" d="M152 515l-47 -349q-25 -186 -95.5 -284t-163.5 -98q-29 0 -49 5l41 64q28 -6 63 -6q21 0 38 6.5t29 15.5t22 28t15.5 33.5t11 43.5t8 47t7.5 55t8 57l47 320l-70 -51l2 11q7 10 19.5 25.5t47.5 43.5t66 33z" />
<glyph unicode="&#x2c6;" d="M190 765q23 -9 60.5 -36t55.5 -46l-35 -33q-64 62 -109 76q-46 -23 -106 -74l-10 9q40 44 72.5 69.5t71.5 34.5z" />
<glyph unicode="&#x2c7;" horiz-adv-x="382" d="M99 756q63 -66 113 -82q46 23 126 91l10 -9q-96 -105 -164 -121q-26 11 -63.5 39t-66.5 61z" />
<glyph unicode="&#x2d8;" d="M292 863l7 -8q-44 -66 -134 -66q-61 0 -107 31l43 44q49 -28 102 -28q50 0 89 27z" />
<glyph unicode="&#x2d9;" horiz-adv-x="375" d="M179 836q26 -20 64 -77l-67 -60q-5 5 -17 19t-24.5 28t-24.5 25z" />
<glyph unicode="&#x2da;" horiz-adv-x="344" d="M169 840q38 0 57.5 -16t19.5 -39q0 -33 -22 -60t-55 -27q-27 0 -45.5 16t-18.5 40q0 27 18.5 50.5t45.5 35.5zM189 730q35 11 35 35q0 22 -17.5 35t-42.5 13q-26 -14 -32 -46q0 -12 18 -24.5t39 -12.5z" />
<glyph unicode="&#x2db;" horiz-adv-x="375" d="M227 24l17 -14q-111 -94 -111 -158q0 -36 33 -36q30 0 106 50l10 -17q-51 -42 -121 -73q-41 0 -62.5 18.5t-21.5 51.5q0 43 32.5 80t117.5 98z" />
<glyph unicode="&#x2dc;" horiz-adv-x="414" d="M370 695l8 -11q-56 -57 -119 -72q-22 0 -60.5 18.5t-62.5 18.5q-20 0 -50.5 -13.5t-47.5 -28.5l-5 15q49 50 115 76q22 0 60.5 -17.5t62.5 -17.5q21 0 52.5 10.5t46.5 21.5z" />
<glyph unicode="&#x2dd;" horiz-adv-x="531" d="M273 758l-15 -39q-9 0 -63 -27q-55 -28 -127 -111l-11 13q45 63 71.5 94t58.5 50q37 22 86 20zM480 758l-15 -39q-9 0 -63 -27q-55 -28 -127 -111l-11 13q45 63 71.5 94t58.5 50q37 22 86 20z" />
<glyph unicode="&#x307;" horiz-adv-x="320" d="M188 836q26 -20 64 -77l-67 -60q-5 5 -17 19t-24.5 28t-24.5 25z" />
<glyph unicode="&#x394;" horiz-adv-x="643" d="M431 726l63 28q1 -99 28.5 -320.5t55.5 -389.5l-93 -65l-465 1q383 706 411 746zM439 674q0 1 -80.5 -145t-168.5 -307.5t-104 -194.5q26 0 69.5 1t135 2.5t152 3t60.5 2.5q-37 209 -64 638z" />
<glyph unicode="&#x3a9;" horiz-adv-x="814" d="M524 759q124 0 202 -87.5t78 -215.5q0 -134 -71.5 -234t-180.5 -167h187l-38 -55h-193l-5 19q49 61 82 108.5t67 109.5t51 128t17 136q0 112 -50.5 170t-150.5 58q-131 0 -209.5 -112t-78.5 -265q0 -144 98 -333l-11 -19h-229l45 55h156q-72 54 -112.5 116.5t-40.5 157.5 q0 117 53 216t142 156.5t192 57.5z" />
<glyph unicode="&#x3bc;" horiz-adv-x="464" d="M199 515q-47 -241 -72 -453l9 -8q59 55 118 149t104 211q1 2 8 19t9 21.5t9 17.5t12.5 19t14 13t17.5 10q-2 -15 -6.5 -35.5t-5.5 -27.5q-34 -205 -59 -343q-7 -35 -19 -65l3 -2q109 100 178 186l4 -4q-41 -60 -110 -135t-117 -97q7 122 43 322l-3 2q-103 -210 -215 -310 q-6 -34 -17 -115t-18 -126l-46 1q14 106 42.5 328.5t46.5 355.5l-65 -47l2 11q7 10 19.5 25.5t47.5 43.5t66 33z" />
<glyph unicode="&#x3c0;" horiz-adv-x="567" d="M260 514q71 0 147 -8t101 -8q58 0 96 35l8 -9q-25 -46 -50 -63.5t-60 -17.5q-20 -32 -37.5 -139.5t-17.5 -184.5q0 -44 7 -59q55 36 99 94l11 -17q-30 -44 -67.5 -76.5t-107.5 -82.5q-8 21 -8 78q0 103 21 214.5t67 173.5q-32 0 -88 3.5t-88 3.5q-10 -66 -25 -146 t-26 -127l-10 -48q-14 -64 -42 -103.5t-53 -39.5q-47 0 -72 51l12 11q5 -1 15 -1q38 0 66 33.5t42.5 87.5t23 106.5t15 106.5t10.5 71q-63 0 -94.5 -16.5t-65.5 -77.5l-8 10q20 63 74.5 104t104.5 41z" />
<glyph unicode="&#x2013;" horiz-adv-x="524" d="M89 329h377l-33 -54h-398z" />
<glyph unicode="&#x2014;" horiz-adv-x="718" d="M103 332h589l-54 -54h-589z" />
<glyph unicode="&#x2018;" horiz-adv-x="222" d="M163 866l15 -11q-53 -79 -53 -97q6 -10 33.5 -38.5t33.5 -44.5q-8 -10 -23.5 -29t-24 -28t-12.5 -10q-21 17 -41 44t-26 39q2 16 27.5 65.5t70.5 109.5z" />
<glyph unicode="&#x2019;" horiz-adv-x="236" d="M140 866q21 -17 41 -44t26 -39q-2 -16 -27.5 -65.5t-70.5 -109.5l-15 11q53 79 53 97q-6 10 -33.5 38.5t-33.5 44.5q8 10 23.5 29t24 28t12.5 10z" />
<glyph unicode="&#x201a;" horiz-adv-x="327" d="M160 150q21 -17 41 -44t26 -39q-2 -16 -27.5 -65.5t-70.5 -109.5l-15 11q53 79 53 97q-6 10 -33.5 38.5t-33.5 44.5q8 10 23.5 29t24 28t12.5 10z" />
<glyph unicode="&#x201c;" horiz-adv-x="435" d="M384 866l15 -11q-53 -79 -53 -97q6 -10 33.5 -38.5t33.5 -44.5q-8 -10 -23.5 -29t-24 -28t-12.5 -10q-21 17 -41 44t-26 39q2 16 27.5 65.5t70.5 109.5zM163 866l15 -11q-53 -79 -53 -97q6 -10 33.5 -38.5t33.5 -44.5q-8 -10 -23.5 -29t-24 -28t-12.5 -10q-21 17 -41 44 t-26 39q2 16 27.5 65.5t70.5 109.5z" />
<glyph unicode="&#x201d;" horiz-adv-x="486" d="M127 866q21 -17 41 -44t26 -39q-2 -16 -27.5 -65.5t-70.5 -109.5l-15 11q53 79 53 97q-6 10 -33.5 38.5t-33.5 44.5q8 10 23.5 29t24 28t12.5 10zM348 866q21 -17 41 -44t26 -39q-2 -16 -27.5 -65.5t-70.5 -109.5l-15 11q53 79 53 97q-6 10 -33.5 38.5t-33.5 44.5 q8 10 23.5 29t24 28t12.5 10z" />
<glyph unicode="&#x201e;" horiz-adv-x="533" d="M155 150q21 -17 41 -44t26 -39q-2 -16 -27.5 -65.5t-70.5 -109.5l-15 11q53 79 53 97q-6 10 -33.5 38.5t-33.5 44.5q8 10 23.5 29t24 28t12.5 10zM376 150q21 -17 41 -44t26 -39q-2 -16 -27.5 -65.5t-70.5 -109.5l-15 11q53 79 53 97q-6 10 -33.5 38.5t-33.5 44.5 q8 10 23.5 29t24 28t12.5 10z" />
<glyph unicode="&#x2020;" horiz-adv-x="528" d="M328 755q-14 -144 -31 -260h140l-26 -40q-54 -10 -121 -13q-34 -235 -91 -522l-51 -23q49 265 80 545l-137 1l40 50h102q11 102 18 198z" />
<glyph unicode="&#x2021;" horiz-adv-x="506" d="M339 755q-14 -144 -31 -260h118l-22 -38q-49 -15 -103 -15q-8 -62 -25 -162h133l-23 -40q-56 -13 -118 -13q-20 -121 -54 -295l-52 -34q32 171 53 329q-30 0 -68 0.5t-52 0.5l40 50h87q8 56 20 164q-27 0 -70.5 0.5t-59.5 0.5l40 50h95q9 88 20 212z" />
<glyph unicode="&#x2022;" horiz-adv-x="522" d="M281 443q51 1 85 -35t34 -90q0 -75 -47.5 -117t-105.5 -42q-51 0 -84.5 35t-33.5 88q0 71 45.5 115.5t106.5 45.5z" />
<glyph unicode="&#x2026;" horiz-adv-x="728" d="M61 65l72 69q31 -24 67 -81l-70 -64q-1 1 -26.5 31t-42.5 45zM284 65l72 69q31 -24 67 -81l-70 -64q-1 1 -26.5 31t-42.5 45zM504 65l72 69q31 -24 67 -81l-70 -64q-1 1 -26.5 31t-42.5 45z" />
<glyph unicode="&#x2030;" horiz-adv-x="973" d="M785 348q63 0 92 -40t29 -104q0 -72 -61.5 -133t-134.5 -61q-30 0 -55 18.5t-37 53.5q-28 -33 -67 -52.5t-78 -19.5q-42 0 -71.5 35.5t-29.5 97.5q0 40 19.5 86t61.5 82.5t95 36.5q82 0 109 -72q51 72 128 72zM215 781q63 0 92 -40t29 -104q0 -72 -61.5 -133t-134.5 -61 q-42 0 -71.5 35.5t-29.5 97.5q0 40 19.5 86t61.5 82.5t95 36.5zM639 818l49 -50q-78 -129 -267.5 -365.5t-339.5 -396.5l-19 21q15 20 159 204t237.5 315t180.5 272zM531 319q-47 0 -77.5 -47.5t-30.5 -108.5q0 -111 74 -111q114 0 114 158q0 39 -20 74t-60 35zM198 752 q-47 0 -77.5 -47.5t-30.5 -108.5q0 -111 74 -111q114 0 114 158q0 39 -20 74t-60 35zM768 319q-47 0 -77.5 -47.5t-30.5 -108.5q0 -111 74 -111q114 0 114 158q0 39 -20 74t-60 35z" />
<glyph unicode="&#x2039;" horiz-adv-x="491" d="M305 483l42 -49q-27 -32 -82 -80t-101 -76q45 -26 98 -68.5t81 -71.5l-38 -58q-75 105 -211 198q138 98 211 205z" />
<glyph unicode="&#x203a;" horiz-adv-x="435" d="M146 480l5 -1q74 -107 209 -201q-70 -47 -125 -101t-86 -97l-39 58q29 29 82 71t99 68h-1q-45 28 -100.5 77t-82.5 80z" />
<glyph unicode="&#x2044;" horiz-adv-x="839" d="M700 818l49 -50q-78 -129 -267.5 -365.5t-339.5 -396.5l-19 21q15 20 159 204t237.5 315t180.5 272z" />
<glyph unicode="&#x20ac;" horiz-adv-x="631" d="M510 751q69 0 136 -20l-58 -75q-55 39 -113 52q-84 -1 -158 -88.5t-102 -207.5h201l-26 -36q-64 -14 -184 -16q-4 -25 -4 -57q0 -16 1 -24h202l-26 -36q-64 -14 -169 -16q14 -64 50.5 -111t94.5 -61q68 12 176 93l9 -8q-36 -45 -95 -90t-108 -58q-69 0 -116.5 36t-67 87 t-19.5 111v1q-35 1 -91 1l34 51h59q5 47 13 81q-20 0 -54 0.5t-41 0.5l34 51h74q43 144 135 241.5t213 97.5z" />
<glyph unicode="&#x2122;" horiz-adv-x="667" d="M411 721q18 0 44 -4q0 -12 5 -72t5 -93q0 -8 -1 -18v-10l4 -1q28 64 66 128t62 71l-3 -49q-11 -162 -11 -173q0 -27 1 -44q25 15 42 35l11 -13q-30 -31 -86 -64q-3 29 -3 84q0 69 8 141l-4 2q-11 -13 -47.5 -95t-68.5 -135l-4 1q-4 40 -4 144v85l-4 1l-54 -141 q-32 -83 -109 -83q-10 0 -15 5l23 33q9 -3 20 -3q21 0 33.5 12t26.5 48q21 52 61 172q-3 0 -16 1.5t-19 1.5q-11 0 -18 -2t-17.5 -9.5t-16 -28t-5.5 -52.5l-37 -26q0 65 31 108t100 43zM170 720h129l1 -4l-26 -27h-69q-9 -30 -15 -64.5t-10.5 -74t-6.5 -53.5q-6 -39 -19 -52 l2 -6q29 0 46 14l9 -10q-33 -29 -86 -29h-14q-3 0 -10.5 0.5t-9.5 0.5l2 13q19 6 29.5 18.5t13 22t5.5 28.5l22 160q2 20 9 27l-2 5q-8 0 -26 1.5t-31 1.5q-50 0 -50 -47v-26l-29 -25l-4 2v46q0 33 36 55.5t104 22.5z" />
<glyph unicode="&#x212e;" horiz-adv-x="994" d="M912 341h-670q-6 0 -6 -5v-202q0 -16 10 -23q108 -111 253 -111q78 0 147 33t119 90h61q-57 -67 -143.5 -105.5t-184.5 -38.5q-172 0 -292.5 108.5t-120.5 263.5q0 154 120.5 263t292.5 109q171 0 292.5 -109t121.5 -263v-10zM760 367v205q0 12 -10 24q-108 106 -251 106 q-144 0 -252 -110q-11 -10 -11 -25v-200q0 -6 6 -6h513q5 0 5 6z" />
<glyph unicode="&#x2202;" horiz-adv-x="545" d="M272 738q86 0 138 -68t52 -178q0 -131 -34.5 -246.5t-103 -189.5t-156.5 -74q-51 0 -84.5 36.5t-33.5 89.5q0 106 63.5 188t157.5 82q80 0 135 -55q11 66 11 111q0 113 -50.5 178.5t-144.5 65.5q-39 0 -84 -12l-14 29q80 43 148 43zM204 37q65 0 111 58.5t72 149.5 q-24 39 -64.5 64t-79.5 25q-65 0 -99.5 -48.5t-34.5 -114.5q0 -57 22 -95t73 -39z" />
<glyph unicode="&#x220f;" horiz-adv-x="659" d="M221 759h373l-117 -862h-53l90 785q-22 12 -94 19t-132 7h-48l-106 -811h-57l92 814z" />
<glyph unicode="&#x2211;" horiz-adv-x="633" d="M181 755q45 0 126 -2.5t121 -2.5q48 0 83.5 2t53 3.5t21.5 1.5q12 0 12 -10v-2l-38 -169h-20q2 16 2 22q0 26 -10.5 45.5t-30.5 31t-42 19.5t-53 11.5t-54.5 4.5t-54.5 1q-49 0 -61 -13q8 -24 56 -143.5t83 -195.5q-3 -5 -112 -170.5t-132 -205.5q70 -1 151.5 -11 t116.5 -10q49 0 80 25.5t68 102.5l16 -10q-14 -78 -57 -131.5t-87 -53.5q-31 0 -139 5t-131 5q-79 0 -141 -8l-8 6q76 93 169 230t128 205q-18 56 -75.5 192t-87.5 195q-3 6 -3 11q0 19 50 19z" />
<glyph unicode="&#x2212;" horiz-adv-x="539" d="M83 345q63 3 214.5 -1.5t210.5 1.5l-54 -54q-52 -8 -212.5 -3.5t-212.5 3.5z" />
<glyph unicode="&#x221a;" horiz-adv-x="562" d="M469 814q-25 -160 -81 -475.5t-84 -456.5l-31 -44q-33 81 -77 206t-60 180q-4 15 -20 9l-74 -30q0 1 0.5 2t0.5 4t1 5v1l22 15q23 14 53 34t43 28q10 6 14 -6q11 -30 56 -169t58 -173h2q124 709 143 856z" />
<glyph unicode="&#x221e;" horiz-adv-x="801" d="M224 484q35 0 70 -22.5t56 -46.5t49 -60q5 -7 8 -11q70 73 101 94q65 46 148 46q61 0 93.5 -40t32.5 -107q0 -70 -58 -133.5t-123 -63.5q-56 0 -108 38t-108 109q-32 -35 -53 -55.5t-53.5 -44.5t-67.5 -35.5t-74 -11.5q-46 0 -88.5 32.5t-42.5 102.5q0 80 64.5 144.5 t153.5 64.5zM187 432q-76 0 -110 -42t-34 -94q0 -32 38.5 -66.5t97.5 -34.5q99 0 188 111q-98 126 -180 126zM745 307q0 50 -35 87.5t-89 37.5q-58 0 -104 -28t-95 -78q73 -79 115.5 -105.5t86.5 -26.5q57 0 89 32t32 81z" />
<glyph unicode="&#x222b;" horiz-adv-x="478" d="M433 923q23 0 45 -19t36 -47l-48 -49q-48 64 -79 64q-15 0 -24 -19.5t-17 -68.5q-26 -153 -62.5 -378.5t-40.5 -251.5q-36 -214 -113 -286q-68 -65 -136 20q-5 6 -9 12l70 42q74 -136 110 73q20 116 64.5 385.5t57.5 345.5q14 82 57.5 129.5t88.5 47.5z" />
<glyph unicode="&#x2248;" horiz-adv-x="750" d="M274 466q31 0 125.5 -30.5t163.5 -30.5q42 0 100 28l13 -12q-54 -67 -138 -67q-62 0 -148 29t-126 29q-100 0 -175 -55l-9 18q115 91 194 91zM274 252q31 0 125.5 -30.5t163.5 -30.5q42 0 100 28l13 -12q-54 -67 -138 -67q-62 0 -148 29t-126 29q-100 0 -175 -55l-9 18 q115 91 194 91z" />
<glyph unicode="&#x2260;" horiz-adv-x="632" d="M332 516v-153h269l-54 -54h-215v-134h232l-54 -54h-178v-86l-54 -54v140h-249l54 54h195v134h-212l54 54h158v99z" />
<glyph unicode="&#x2264;" horiz-adv-x="701" d="M145 59h481l-54 -54h-481zM540 649l39 -40q-184 -70 -369 -180v-18q189 -115 381 -202l-35 -30q-286 125 -447 240v10q213 140 431 220z" />
<glyph unicode="&#x2265;" horiz-adv-x="687" d="M55 5l54 54h481l-54 -54h-481zM127 599l39 40q218 -80 431 -220v-10q-161 -115 -447 -240l-35 30q192 87 381 202v18q-185 110 -369 180z" />
<glyph unicode="&#x25ca;" horiz-adv-x="524" d="M270 639q2 0 4 -6q15 -66 67.5 -176t97.5 -180q-101 -155 -168 -317q-17 -21 -38 -36q-4 -2 -6 -2q-7 0 -8 6q-17 64 -70 173t-95 173q102 163 172 330q4 9 41 34q1 1 3 1zM252 3q26 41 67 136t62 132q-56 84 -139 283q-24 -41 -66 -134.5t-64 -134.5v-5q68 -99 140 -277 z" />
<glyph unicode="&#xe000;" horiz-adv-x="515" d="M0 515h515v-515h-515v515z" />
<glyph unicode="&#xfb00;" horiz-adv-x="492" d="M352 851h49l-40 -53h-64q-16 0 -30.5 -5.5t-25 -14t-20 -23.5t-16 -27t-12 -33t-9 -34.5t-7 -36.5t-4.5 -33.5t-3 -33t-3 -27.5q-1 -11 -3.5 -29.5t-3.5 -26.5q107 13 185 21q2 25 10 75q17 127 82.5 204t151.5 77h49l-40 -53h-50q-28 0 -50 -10.5t-36.5 -32t-24.5 -43 t-16 -54.5t-9 -54.5t-6.5 -56t-4.5 -46.5l139 14l-19 -47q-19 -2 -58.5 -6t-68.5 -8q-10 -87 -34 -249.5t-33 -228.5q-2 -10 -5 -30.5t-5 -31t-7 -26t-13 -30t-21 -29.5l5 -5q8 4 78 48l8 -17l-209 -123l-11 21q31 13 51.5 27.5t32 27t18.5 34t9 35.5t5.5 44.5t6.5 49.5 q9 58 66 479q-112 -14 -181 -21q-17 -140 -47 -354q-21 -144 -82.5 -217t-156.5 -73q-21 0 -44 6l38 55q30 -8 61 -8q95 0 115 154q34 268 56 430q-84 -9 -93 -10q22 45 23 45q27 3 77 9q9 68 16 104q17 126 83 203.5t151 77.5z" />
<glyph unicode="&#xfb01;" horiz-adv-x="451" d="M327 851h49l-40 -53h-50q-32 0 -56.5 -15t-38 -35.5t-23.5 -53.5t-13 -57t-7 -59.5t-6 -47.5q-4 -19 -5 -32l244 17q-6 -39 -21 -151.5t-28.5 -186.5t-30.5 -122l2 -3q86 61 210 234l11 -7q-72 -105 -145 -186.5t-123 -102.5q-2 24 -2 38q0 52 8 110t28.5 166t32.5 180 q-16 -8 -80.5 -17t-110.5 -13q-10 -87 -34 -249.5t-33 -228.5q-2 -10 -5 -30.5t-5 -31t-7 -26t-13 -30t-21 -29.5l5 -5q8 4 78 48l8 -17l-209 -123l-11 21q31 13 51.5 27.5t32 27t18.5 34t9 35.5t5.5 44.5t6.5 49.5q9 58 66 479l-89 -7q21 43 22 43q35 5 76 9q6 50 10 75 q17 126 83 203.5t151 77.5z" />
<glyph unicode="&#xfb02;" horiz-adv-x="465" d="M257 28q0 77 61 454q-49 -17 -186 -28q-10 -87 -34 -249.5t-33 -228.5q-2 -10 -5 -30.5t-5 -31t-7 -26t-13 -30t-21 -29.5l5 -5q8 4 78 48l8 -17l-209 -123l-11 21q31 13 51.5 27.5t32 27t18.5 34t9 35.5t5.5 44.5t6.5 49.5q9 58 66 479l-89 -7q21 43 22 43q35 5 76 9 q23 193 89.5 274.5t214.5 81.5q76 0 121 -12q11 5 26.5 8t25.5 3l10 1h-1h1q29 0 49 -5l-41 -54q-28 6 -63 6q-19 0 -35 -8.5t-27 -21t-21 -34t-16 -39t-11.5 -45t-8 -43t-6.5 -42.5t-5 -35q-7 -43 -20 -154.5t-27 -191t-35 -130.5l3 -2q96 69 228 259l10 -6 q-75 -112 -153.5 -202.5t-131.5 -112.5q-2 24 -2 38zM137 498q28 2 185 13q8 43 15 95q8 54 43.5 112.5t84.5 94.5q-112 -1 -164 -9t-87 -32q-16 -11 -26.5 -27t-18 -45t-11 -50.5t-10 -71.5t-11.5 -80z" />
<glyph unicode="&#xfb03;" horiz-adv-x="717" d="M352 851h49l-40 -53h-64q-25 0 -44.5 -11t-32.5 -34t-22 -44t-15 -55t-8.5 -52.5t-5.5 -50.5q0 -3 -0.5 -10.5t-1.5 -10.5q-4 -36 -6 -53q39 5 78 8.5t68.5 6t37.5 3.5q6 50 10 75q17 126 83 203.5t151 77.5q56 0 83 -15l-41 -54q-36 16 -83 16q-32 0 -56.5 -15 t-38 -35.5t-23.5 -53.5t-13 -57t-7 -59.5t-6 -47.5q-4 -19 -5 -32l244 17q-6 -39 -21 -151.5t-28.5 -186.5t-30.5 -122l2 -3q86 61 210 234l11 -7q-72 -105 -145 -186.5t-123 -102.5q-2 24 -2 38q0 52 8 110t28.5 166t32.5 180q-16 -8 -80.5 -17t-110.5 -13 q-8 -69 -19.5 -147.5t-26.5 -175.5t-23 -155q-1 -8 -3.5 -30.5t-4.5 -31.5t-7 -25.5t-13 -30.5t-21 -29l5 -5q8 4 78 48l8 -17l-209 -123l-11 21q31 13 51.5 27.5t32 27t18.5 34t9 35.5t5.5 44.5t6.5 49.5q9 58 66 479q-14 -1 -78 -5.5t-102 -8.5q-10 -89 -48 -361 q-21 -144 -82.5 -217t-156.5 -73q-21 0 -44 6l38 55q30 -8 61 -8q95 0 115 154q8 62 59 437q-11 -1 -96 -13q21 43 22 43q64 9 80 11l14 100q17 126 83 203.5t151 77.5z" />
<glyph unicode="&#xfb04;" horiz-adv-x="729" d="M659 851q76 0 121 -12q11 5 26.5 8t25.5 3l10 1q29 0 49 -5l-41 -54q-28 6 -63 6q-19 0 -35 -8.5t-27 -21t-21 -34t-16 -39t-11.5 -45t-8 -43t-6.5 -42.5t-5 -35q-7 -43 -20 -154.5t-27 -191t-35 -130.5l3 -2q96 69 228 259l10 -6q-75 -112 -153.5 -202.5t-131.5 -112.5 q-2 24 -2 38q0 77 61 454q-49 -17 -186 -28q-8 -69 -19.5 -147.5t-26.5 -175.5t-23 -155q-1 -8 -3.5 -30.5t-4.5 -31.5t-7 -25.5t-13 -30.5t-21 -29l5 -5q8 4 78 48l8 -17l-209 -123l-11 21q31 13 51.5 27.5t32 27t18.5 34t9 35.5t5.5 44.5t6.5 49.5q9 58 66 479 q-48 -5 -190 -17q-11 -96 -48 -358q-21 -144 -82.5 -217t-156.5 -73q-21 0 -44 6l38 55q30 -8 61 -8q95 0 115 154q10 80 59 436q-11 -1 -44 -3.5t-53 -3.5q20 47 21 47q39 3 82 6l14 96q20 146 101 224q30 29 71 43t111 14l-40 -53q-61 0 -85 -5t-37 -17q-24 -22 -40 -68 t-20.5 -77.5t-9.5 -82.5q0 -3 -0.5 -9t-1.5 -9q-2 -18 -6 -52q133 10 194 17q23 193 89.5 274.5t214.5 81.5zM409 498q28 2 185 13q8 43 15 95q8 54 43.5 112.5t84.5 94.5q-112 -1 -164 -9t-87 -32q-16 -11 -26.5 -27t-18 -45t-11 -50.5t-10 -71.5t-11.5 -80z" />
<glyph horiz-adv-x="450" d="M360 851h49l-40 -53h-58q-48 0 -81 -35q-20 -22 -33.5 -60.5t-18 -64.5t-10.5 -79.5t-7 -60.5l245 17l-52 -349q-28 -187 -95.5 -284.5t-159.5 -97.5q-17 0 -29 5l41 64q20 -6 43 -6q24 0 42.5 7t31 23t20.5 32t14.5 46t10 51.5t8.5 61.5t9 65q33 208 58 351 q-16 -7 -81.5 -16.5t-112.5 -13.5q-29 -244 -48 -379q-21 -144 -82.5 -217t-156.5 -73q-21 0 -44 6l38 55q30 -8 61 -8q95 0 115 154q3 24 62 458l-89 -7q21 43 22 43q35 5 76 9q6 50 10 75q20 141 92 216q62 65 150 65z" />
<glyph horiz-adv-x="200" d="M109 240q36 -48 51 -78q-2 -16 -27.5 -65t-66.5 -102l-18 15q38 49 38 77q0 36 -47 90q33 38 70 63z" />
<glyph horiz-adv-x="1241" d="M186 157l-146 143l146 141l40 -32l-88 -84h248q-6 30 -6 62q0 82 42.5 132t112.5 50q49 0 78.5 -16.5t54.5 -51.5q46 68 136 68q71 0 112 -50t41 -132q0 -27 -7 -62h201v116h50v-284h-50v116h-216q-40 -102 -131 -176t-137 -74q-49 0 -138 73.5t-128 176.5h-262l87 -85z M668 73q27 4 66 30.5t77.5 66.5t66 96.5t27.5 111.5q0 66 -30 104.5t-85 38.5q-83 0 -114 -84h-16q-31 84 -114 84q-54 0 -84 -39t-30 -106q0 -24 5 -51h198v-52h-180q33 -77 99.5 -135t113.5 -65z" />
<glyph horiz-adv-x="0" />
</font>
</defs>
</svg>
