<?xml version="1.0" standalone="no"?>
<!DOCTYPE svg PUBLIC "-//W3C//DTD SVG 1.1//EN" "http://www.w3.org/Graphics/SVG/1.1/DTD/svg11.dtd" >
<svg xmlns="http://www.w3.org/2000/svg">
<metadata></metadata>
<defs>
<font id="narnia_bllregular" horiz-adv-x="1594" >
<font-face units-per-em="2048" ascent="1638" descent="-410" />
<missing-glyph horiz-adv-x="1397" />
<glyph horiz-adv-x="2048" />
<glyph horiz-adv-x="2048" />
<glyph unicode="&#xd;" horiz-adv-x="569" />
<glyph unicode=" "  horiz-adv-x="1397" />
<glyph unicode="&#x09;" horiz-adv-x="1397" />
<glyph unicode="&#xa0;" horiz-adv-x="1397" />
<glyph unicode="!" horiz-adv-x="1228" d="M-1284.5 1565q-8.5 194 75.5 342.5t178 188t170.5 35.5t109 7t37 36.5t-26.5 65.5q48 11 97.5 -24.5t62.5 -93.5t-8.5 -124.5t-72.5 -102t-106.5 -40t-93.5 5.5t-72 30q-102 -19 -155 -84.5t-59.5 -202.5t53 -257t118 -185.5t173.5 -158t302.5 -192t347.5 -139t265 -48.5 q3 449 -10 486t-78 38t-146 31t-101 129q77 -82 163.5 -75t218.5 17t214 16t204 -3t227 -45.5t189 -149t91 -157.5t58 -48q-17 -20 -45 -43q-26 -88 -82.5 -169t-194.5 -139t-335 -40l-155 7q0 -504 6 -538t54 -52.5t145 -112.5q-40 17 -84 24.5t-154.5 7.5t-217 -9 t-140.5 23q23 3 57 5.5t63.5 34t38.5 138.5l8 492q-133 2 -391 84t-454 215.5t-285.5 223t-170 223t-89 327.5zM329 590q151 -22 284.5 -3.5t204.5 196.5q25 94 -3 182q-63 145 -261 156h-225v-531z" />
<glyph unicode="&#x22;" horiz-adv-x="727" d="M96.5 713q2.5 162 60 246.5t124 122t89 63.5t12 52t-53.5 38q32 39 93 33t103.5 -48t59.5 -107t-6.5 -122t-68 -92t-82 -44.5t-74.5 -14.5q-95 -130 -96.5 -186t17 -144.5t118 -211t256 -194.5t224.5 -85.5t214.5 -27.5t354.5 5.5t367 65t377.5 144t387 260.5t306.5 388 t229 638l113 27q-11 -431 -196.5 -723t-369.5 -458t-408 -276t-489.5 -169t-504 -52t-433.5 57t-337 136.5t-226 184.5t-123.5 215t-37 279z" />
<glyph unicode="#" horiz-adv-x="1797" d="M-101 -288q60 146 156 171t110.5 50t17.5 128q4 1501 -6.5 1561.5t-142.5 128.5q125 -14 207 -60.5t345 -374.5l410 -532q65 8 132 40q-28 -82 -60 -125l495 -613l8 1016q-13 497 200.5 738.5t438 329t450.5 94.5t374 -71t198 -169t50 -166t14.5 -109t44.5 -37.5t62 32.5 q18 -50 -16 -103.5t-91 -73t-121 -2t-107 65.5t-53.5 105.5t2 94.5t26.5 70q-18 135 -98 178t-256 59t-405.5 -81t-378.5 -276.5t-174.5 -364t-17.5 -305.5l4 -1132q0 -250 150 -396q-75 0 -153.5 23.5t-321.5 304.5l-481 620q-50 0 -128 -28q17 100 46 132l-481 599v-1116 q0 -54 3.5 -105.5t42.5 -97.5t112 -55t162 48q-28 -93 -87 -100t-253 -3.5t-258.5 -12.5t-170.5 -80z" />
<glyph unicode="$" horiz-adv-x="1627" d="M-8 1320q214 0 408 -210l466 -507q49 25 77 102q20 -49 0 -179l393 -445v927q-4 154 -114 191q-85 20 -182 -37q53 106 148 101.5t176 -16.5t247 29q-20 -49 -46.5 -61t-54.5 -42.5t-34 -115.5l10 -1001q0 -89 32 -133q243 -206 506.5 -240.5t492 -8t445.5 127.5 t356.5 202t281 247t227 263.5t117.5 180t78.5 226.5t14.5 328t-85 233t-103.5 99.5t-208.5 58.5q-28 -48 -52.5 -66.5t-85 -32.5t-123.5 6t-99.5 73t-42.5 113.5t26.5 107t97.5 58.5q-25 -44 -12.5 -70.5t42.5 -26.5t107 26.5t180.5 18.5t227 -105.5t190.5 -207t87 -235 t-4.5 -291.5t-111.5 -348t-230.5 -370.5t-358 -354t-441.5 -269t-474 -142t-595.5 8t-789.5 423.5l-417 417q-61 -21 -126 -65q33 101 77 125l-433 458l-4 -842q12 -142 103 -178.5t168 0.5q-16 -49 -50.5 -67t-117.5 -8t-137.5 16t-107 2t-93.5 57q65 -8 81 14t24 135 l-4 830q4 288 -44 361t-105 109z" />
<glyph unicode="%" horiz-adv-x="1491" d="M-38.5 -163q-12.5 22 25.5 12.5t88 59.5l220 487q-44 34 -116 0q53 88 160 69l402 892l414 -901q110 11 156 -89q-69 38 -116 11q159 -387 323.5 -614.5t332.5 -342.5t323.5 -129t322 17.5t298.5 129t185.5 201t53.5 177.5t-44 136q-63 4 -99 30t-63 68.5t-36.5 100.5 t23.5 121t83.5 90t113 19t88.5 -65q-54 10 -69.5 -12t1.5 -55t72 -88t86.5 -149t-9.5 -251t-113 -261t-177.5 -177.5t-242 -124t-306 -56.5t-334.5 41t-367.5 210.5t-341 384.5t-288.5 523q-110 -7 -279 -151q-148 138 -296 204q-110 -245 -125.5 -295.5t-20.5 -97 t12.5 -62.5t39.5 -23.5t56.5 -14t116.5 6.5q-41 -44 -74 -57t-58 -5t-86.5 19t-99 11t-128.5 -28q-95 6 -107.5 28zM475 438q140 -30 254 -92q112 62 234 78l-242 585z" />
<glyph unicode="&#x26;" horiz-adv-x="1686" d="M-60 447q60 88 144 100q18 312 211.5 517.5t487.5 208.5q292 3 478 -205.5t216 -394.5q81 3 153 -54q-99 -39 -153 -84q-15 -322 -222 -541q-72 -81 -120 -105q159 -141 375 -238.5t377 -141t368 -64.5t355.5 -6t213.5 27t227 87t258 198t114 208.5t15 141t-93 187.5 q-42 0 -81 12t-81 48t-67.5 93.5t-6 122t61.5 106.5t105 48t102 -36q-51 0 -63 -30t12 -55.5t90 -66t124.5 -125t57 -243.5t-37.5 -276t-123 -217.5t-226.5 -186t-338 -133.5t-432.5 -55.5t-503 51t-489.5 165t-445.5 310.5q-100 -33 -223 -36q-294 9 -475.5 222t-211.5 414 q-90 52 -153 27zM309 538q84 -21 189 -12q-60 -73 -174 -106q18 -186 171 -346.5t406 -129.5q-76 89 -139 140t-144 60q78 33 159 18t241 -168q48 6 141 153q111 192 90 379q-66 12 -150 78q87 0 144 42q-24 192 -180.5 355.5t-351.5 145.5q-192 -24 -300 -211.5 t-102 -397.5z" />
<glyph unicode="'" horiz-adv-x="498" d="M154 1354l3 232q3 68 46 100t71 103q84 -91 69.5 -188t-172.5 -272z" />
<glyph unicode="(" horiz-adv-x="1425" d="M55 -189q96 11 139 34t47 77q10 621 3 1149q-7 40 -73 79t-116 29l11 39q364 -29 542 18q-17 -32 -71 -52t-82 -102q-22 -203 -11 -657l347 371q178 197 169 254t-59 94.5t-114 26.5l25 29q136 0 303.5 -2t242.5 70q-60 -93 -128 -120t-372 -398l-121 -146q43 -50 82 -43 q29 14 61 25q-22 -43 -16.5 -91.5t129 -230.5t261 -308.5t330 -205t458.5 -94.5t498.5 32t437.5 173t330 228.5t264.5 264t211 289t96.5 196.5t64 221.5t-14.5 323.5t-114 236t-107 98t-210.5 28q-32 -32 -61 -60.5t-80.5 -41t-112.5 -3.5t-107 61t-57 118t17.5 117.5 t82.5 55.5q-14 -54 2 -75.5t51.5 -16t105 37.5t171.5 32t237.5 -91t218 -201.5t114.5 -244.5t26.5 -280.5t-85.5 -335.5t-209 -391t-332.5 -387.5t-419.5 -308.5t-455 -184t-550 -54t-555.5 109t-400 229t-405.5 551q-46 97 -148 4t-102 -122q-3 -292 13 -351t148 -109 q-304 21 -543 -18z" />
<glyph unicode="," horiz-adv-x="1701" d="M257 543q0 155 80 298.5t222.5 220t293.5 76.5q150 0 292 -76.5t223 -220t81 -298.5t-78.5 -296.5t-220.5 -220t-297 -78.5t-297 78.5t-220.5 220t-78.5 296.5zM586.5 669.5q10.5 -87.5 84 -152.5t165.5 -64q79 -58 63.5 -196.5t-63.5 -197.5q141 -7 250 60 q20 38 32.5 192t-36 273.5t-116 166.5t-81 74.5t6.5 57t77 32.5q-29 58 -107 67.5t-142.5 -31.5t-104 -117.5t-29 -164z" />
<glyph unicode="." horiz-adv-x="1701" d="M257 543q0 155 80 298.5t222.5 220t293.5 76.5q150 0 292 -76.5t223 -220t81 -298.5t-78.5 -296.5t-220.5 -220t-297 -78.5t-297 78.5t-220.5 220t-78.5 296.5zM365 543q0 -127 64.5 -242.5t180.5 -180t243 -64.5q126 0 242.5 64.5t180.5 180t64 242.5t-66 244 t-182.5 180t-238.5 63q-124 0 -240.5 -63t-182 -180t-65.5 -244zM586.5 669.5q10.5 -87.5 84 -152.5t165.5 -64q79 -58 63.5 -196.5t-63.5 -197.5q141 -7 250 60q20 38 32.5 192t-36 273.5t-116 166.5t-81 74.5t6.5 57t77 32.5q-29 58 -107 67.5t-142.5 -31.5t-104 -117.5 t-29 -164z" />
<glyph unicode="0" horiz-adv-x="1108" d="M85 113q11 21 36 35l59 -20l-36 -35zM212 255l23 28l40 15l36 4l174 -27l11 8l16 35l36 -20l-20 -35l-39 -16l-76 8l4 -222l32 -23l-36 -12l-47 -4l-48 8l24 31l4 210l-24 28l-47 -4l-16 -16l24 -32l-12 -8l-32 -3l-12 7zM508 85l12 20l36 27v52q-10 16 -16 39l95 -4 l-12 -19l-8 -52l40 -20l59 -4l8 52l-20 39l56 8l39 -4l-16 -55v-40h16l24 16l12 -12l-44 -23l-8 -12l4 -36l16 -43q-7 -17 -28 -20h-55l-24 12l16 16l12 47l-32 28l-59 4l-12 -40l20 -63l-83 -4l-24 8l16 20l12 47q-9 15 -28 20l-16 -8zM857 105q26 21 31 63l-12 55h166 l8 -15q-4 -32 -35 -36l-4 16l-44 4l-16 -8l8 -52l52 16l4 -51l-12 -12l-52 12l-3 -56l7 -11h52l28 15l19 4l-19 -51h-171q19 29 24 71z" />
<glyph unicode="1" horiz-adv-x="2680" d="M85 131l12 56l20 44l32 31l40 28l103 28l60 -8q25 -7 32 -36l-28 -35l-4 -40l8 -16l-28 -20l-12 32l8 36l-16 39l-51 12l-40 -27l-52 -76l-8 -60l8 -56l24 -44l36 -27l47 -20l32 -4l52 20l12 -12l-40 -28l-52 -12l-51 8l-88 44l-28 39l-20 44zM376 67l8 20l36 24v56 l-16 44h96l-20 -72l36 -24l72 -4v76l-16 8q16 15 43 16l52 -12l-16 -48l-4 -36l16 -4l32 16l-12 -24l-32 -28l4 -60l16 -19l-12 -12l-44 -4l-47 16l24 35l-16 44l-48 12l-48 -12l4 -60l12 -31l-52 -4l-44 12l20 39v40l-16 4zM739 95q29 20 36 56q-6 25 -20 60h148l20 -12 q18 -27 19 -64l-23 -36l43 -76l40 -12l-12 -23l-48 -8l-75 95l-32 -8v-48l20 -19l-4 -20l-100 4l16 23l12 80l-36 -12zM835 127l8 -16l28 8l12 52q-19 10 -44 16zM1002 99l20 60l32 28l40 24h64l52 -12l32 -32l24 -36l7 -40l-23 -56l-32 -28l-96 -23l-52 12l-32 27l-28 36z M1070 87l24 -52l56 -20l40 36l12 64l-24 52q-24 12 -52 20l-44 -36zM1281 195l20 28l44 -12l24 -28l120 -100l8 40v52l-24 32h84l-20 -52v-155l-8 -16l-24 8l-112 99l-36 12v-52l24 -67l-72 -4l-8 16l16 39l-4 156zM1616 -20l16 67v96q-3 32 -16 68l96 -4l-20 -28l4 -144 l24 -47l-20 -8h-84zM1748 119l8 24l44 48l72 20h67l16 4l16 -60l-28 -32l-8 16l4 8q-11 31 -47 40q-31 -5 -60 -28l-20 -68q6 -30 28 -60q32 -15 76 -16l55 20q-16 -28 -47 -43l-60 -12l-72 35l-40 52zM2007 -12l12 19l12 48l4 120q-13 14 -20 36h96l4 -12l-8 -8l-12 -48 v-124l56 -4l40 24l8 -12l-12 -31l-52 -12l-40 4l-64 -8zM2231 87q23 20 31 56q-1 32 -11 68l175 -4v-16l-28 -36l-8 24l-40 8l-24 -4l4 -68l60 16l4 -52l-68 4l-4 -32l8 -32l56 -4l40 24l-8 -47l-40 -8l-44 4l-79 -8l-16 12l27 43q-2 38 -35 52zM2470 47l20 8l48 -40l28 -8 l23 28q-19 28 -51 44l-52 40l-8 48l16 24l60 32l35 -8l40 4l-4 -32l8 -24l-12 -8l-59 36l-32 -20l8 -28l67 -24l44 -52q-5 -33 -28 -67l-67 -24l-72 24z" />
<glyph unicode="2" horiz-adv-x="756" d="M85 124l20 43l31 31l35 24h63l51 -12l36 -28l23 -35l8 -39l-23 -55l-32 -32l-94 -27l-47 16l-36 27l-27 32zM148 143l4 -43l23 -55l51 -16l44 32l12 66q-6 26 -24 52q-26 13 -55 19l-43 -35zM388 96l15 24l20 11l-4 40l-12 51h154l19 -8l-15 -51l-36 -4l-43 12v-28l16 -8 l35 16l8 -59l-8 -8l-55 12v-67l24 -19l-16 -12l-87 -4l-7 8l19 23l8 63zM675 112q0 24 31 31l59 -16q-11 -22 -39 -31z" />
<glyph unicode="3" horiz-adv-x="2118" d="M14 540l45 67l75 30l97 -7l188 -53l60 15q26 23 30 60l37 -60l-75 -37h-105l-82 22l-8 -412l23 -83l75 -22l-38 -23l-142 23l-38 -45l-15 45l75 30v487l-22 15l-90 -15l-68 -37l60 -23l8 -45l-38 -7zM351 487l128 -7l-30 -15l-15 -120l135 -8l7 120l-37 23l120 7l7 -22 l-52 -23l15 -67l-8 -188l38 -82l-128 7l38 45l-8 158h-120v-180l-75 -23l23 90v173q-12 55 -38 112zM689 105l37 37q-9 301 -30 345l211 -7l-8 -60l-82 37q-28 -37 -30 -90l60 -15l30 -60l-90 23v-180l75 7l45 83l-15 -113zM1019 15v30l23 22q29 58 30 135v330 q-7 58 -38 113l143 -8l-45 -105l15 -420l15 -15l202 -45l68 15l-15 -52l-60 -8l-195 68l-120 -38l7 -37zM1259 487h105l23 -15q-36 -44 -38 -105v-232l30 -23l-82 -7l-23 15l23 120v150q-13 47 -38 97zM1432 270v105q57 76 105 112q58 -8 112 -52q35 -50 45 -120l-30 -135 l-82 -75l-105 45zM1492 330l22 -158l68 -37l30 37l22 158q-5 65 -52 127l-8 -127l-37 -45l15 60l-15 112q-39 -51 -45 -127zM1702 510q60 -20 105 -75l142 -195l8 157l-38 83h105l-37 -53v-307l-15 -23l-135 210l-60 60v-217l37 -38l-52 -7l-38 30l23 52v195q-6 66 -45 128z M2062 112q0 36 15 75l30 -60l-30 -75z" />
<glyph unicode="4" horiz-adv-x="2367" d="M20 519l29 73l74 37l103 -7l192 -52l59 15q20 25 29 59l44 -37l-66 -59h-110l-82 22l-14 -88l-8 -280l15 -117l81 -15l-37 -29l-154 22l-8 -15l-22 15l66 44l8 471l-37 7l-96 -15l-44 -29l-7 -37l51 8l22 -23l-36 -29zM344 482l125 -7l-44 -37l15 -103h118l7 22l-29 125 l117 -7l-22 -22l-22 -140v-169l44 -30h-132l37 74v132l-133 -7l7 -177l-58 -22l7 258q-3 52 -37 110zM675 114l37 30v250l-29 88l206 -7l-7 -52l-67 30q-45 -8 -51 -59v-59l66 7l22 -14l-15 -37l-73 22v-147l22 -30l59 15l37 66l-8 -103h-199zM926 629l51 -37l81 -22h295 l74 30l37 29l22 -22l-118 -81l-52 -434l-29 -81l-74 324l-29 37l-67 -339l-29 52l-66 346l-8 95l-59 44q-21 22 -29 59zM1081 534l44 -317l95 302l74 -265l22 52l37 235zM1412 482l125 -7l-7 -15q-35 -44 -37 -103v-140q0 -56 37 -110l-103 15l22 125v139q-12 48 -37 96z M1552 423q14 31 37 59h110l81 -29l147 29l23 -7l36 -59l-44 -22l15 37l-81 22l-22 -37l29 7l-51 -37l-8 -95l15 -96l44 -59h67l44 59l-15 -37l-66 -51l-81 29l-44 66l-23 81l23 96q-9 29 -45 44l-59 15v-243l30 -81l-103 -7l29 66v280h-44l-29 -30l29 -14l-37 -23zM2038 114 q43 46 44 192v80l-37 96h118l-44 -51l15 -103h125v36q-2 59 -37 111l125 7l8 -15l-45 -22v-279l37 -52l-125 -7l37 73v126l-133 -8v-162l22 -14l-22 -23z" />
<glyph unicode="5" horiz-adv-x="779" d="M79 198l89 -30l450 67l96 -15l22 -37l-22 -15l-59 37l-458 -59l-81 7zM79 279l37 -15l15 15l37 118q26 41 66 81q37 -25 37 -89l37 -118l-74 -14l22 44l-7 37l-81 -8q-18 -51 -67 -88zM86 544l45 37v-29h192q217 32 258 44h104l66 -37l-22 -15l-29 22h-104l-340 -59h-103 zM182 382l30 -22l22 59l-22 22zM338 271l14 148l-14 74l96 -96l44 -30v96l29 15l-14 -44v-155l-126 118v-96l15 -30h-44zM544 279l23 44l-8 162l22 15l96 -15l45 -51l7 -59l-59 -81zM603 294l52 14l30 118q-22 48 -82 59v-191z" />
<glyph unicode="6" horiz-adv-x="3350" d="M27 548l53 59l74 30l104 -7l82 -30l112 -23l59 15q13 28 15 60l30 -52l-67 -45h-97l-82 22l-15 -89l8 -395l74 -30l30 8l-7 -23l-30 -14l-157 29l-52 -37l8 45l59 52l8 462l-23 7l-97 -15l-59 -44l67 -23l-15 -44l-37 15zM362 488l134 -7l-22 -15l-30 -120l142 -7v119 l-37 15l111 15l15 -7l-7 -15l-30 -8v-290l37 -53h-134l45 60v127l-22 15h-120v-149l23 -38l-75 -15l15 343q-25 8 -45 30zM705 108l37 37v261l-37 82l216 -7l-7 -38q-2 -19 -23 -22l-29 37l-45 8l-30 -15l8 -112h37l45 22l7 -59l-89 15l7 -179l67 7l45 90l-15 -127h-194z M958 607l8 30l45 -30l171 -37h104l179 22q23 24 38 53l29 -15l-29 -38l-68 -37l-29 -74l-53 -462l-37 59l-52 261l-37 45l-60 -358l-30 52l-82 440l-29 52zM1115 548l45 -246l22 -60l75 283l37 -82l59 -231l45 343l-119 -15zM1435 108l127 291l23 89l119 -328l30 -52h-112 l22 22l-15 75l-89 15l-45 -37l-22 -53l30 -7zM1532 272l45 -30l30 30q-24 57 -52 82zM1748 496l164 -8q56 -29 75 -97l-52 -97l37 -111l67 -105q51 -37 119 -44l45 44l8 -44l-82 -23l-53 15l-97 67l-67 104q-17 54 -74 75v-142l-75 -22l23 119v172zM1830 294l53 23l44 89 q-32 40 -89 45zM2032 488h134l119 -97l15 -89l-8 -60q-17 -57 -67 -104l-119 -37h-59l22 96v172q-6 59 -37 119zM2114 145l15 -22l89 37l30 179l-52 104l-82 15v-313zM2315 108l37 52l-7 246l-30 82h134l82 -45l-45 -178l38 -97l67 -53l-45 -14l-67 67l-52 119l-30 -30v-112 l30 -37h-112zM2389 294l53 30l44 97q-40 24 -89 37zM2591 346l14 53l68 89q58 -2 111 -45l45 -119l-22 -134l-82 -82q-48 9 -90 52l-37 105zM2650 257l45 -119q46 17 74 67v141q-1 61 -52 105l8 -127l-30 37l-8 82l-37 -29v-157zM2859 115l30 75v171l-23 127h134l68 -52 l-15 -75l-38 -44l53 -38l14 -67l-29 -67l-127 -37zM2941 302l7 -172l60 23l15 104q-35 29 -82 45zM2941 361l15 -29l44 14l15 53l-7 22q-25 24 -60 37zM3105 115l45 30v246q-15 49 -45 97l216 -7v-60l-67 37q-54 -13 -60 -74l8 -52l59 14l23 -59l-67 22l-23 -15v-134l23 -30 l67 15l37 75l-15 -112z" />
<glyph unicode="@" horiz-adv-x="1379" d="M-151 1308q105 -82 182 -74.5t205 16.5t210 15.5t202.5 -2.5t227 -46t188.5 -147.5t89.5 -158t51.5 -52.5q-13 -23 -38 -41q-24 -90 -81.5 -169.5t-198.5 -133.5q172 -84 210 -79q26 13 52 13q-18 -36 -1.5 -123.5t98.5 -229.5t216.5 -269t331 -206.5t462.5 -93.5 t496 33.5t436.5 173t334.5 231.5t263 267t206.5 290.5t98.5 193.5t66.5 217.5t-15.5 323t-117.5 235t-110 96t-209.5 25.5q-25 -28 -54.5 -53.5t-83.5 -42.5t-114.5 -4t-105 64t-55 110t19 113t80.5 59q-15 -43 0.5 -66.5t50 -19.5t103.5 37.5t172 33.5t238.5 -90 t220.5 -200t114.5 -246t24 -282t-85 -336t-209 -391.5t-329.5 -388t-419 -310t-461.5 -181.5t-551.5 -52.5t-550 109.5t-401 229.5t-350 416.5t-251.5 332t-223.5 49l-35 71q100 -12 233 9.5t205 201.5q26 97 0 179q-64 141 -264 159h-221q0 -1153 5.5 -1184t51.5 -50 t146 -109q-39 15 -83.5 20.5t-155 5.5t-218 -5.5t-137.5 20.5q17 8 52 11.5t65.5 32t40.5 135.5l13 536q5 538 -9 574t-82 37.5t-143.5 33.5t-98.5 127z" />
<glyph unicode="A" horiz-adv-x="1803" d="M-84 -154h5q100 0 152 83l269 599q-37 20 -74 20q-34 0 -68 -17q56 92 161 92q16 0 33 -2l507 1119l481 -1119h6q117 0 179 -112q-37 29 -73 29q-29 0 -57 -18l249 -545q46 -70 84.5 -97t106.5 -37q-15 -24 -18 -50q-99 8 -186 8t-163 -8q-39 -4 -70 -4q-91 0 -120 34 q54 4 77.5 18.5t37.5 52.5q10 26 10 57q-1 14 -3 28q-6 46 -78 186l-124 261q-132 -15 -342 -196q-221 178 -402 246q-132 -303 -153 -369q-21 -65 -29 -113q-2 -12 -1 -22q0 -32 17 -50q23 -24 58 -38q36 -12 72 -20q13 -3 34 -4q37 0 98 9q-48 -49 -84 -61 q-32 -10 -62 -11q-4 1 -8 1q-34 2 -108 16q-74 13 -120 17q-8 1 -16 1q-39 0 -85 -16q-41 -15 -82 -15q-14 -1 -27 1q-54 6 -84 46zM550 588q176 -38 348 -112q143 74 295 93l-315 736z" />
<glyph unicode="B" horiz-adv-x="1701" d="M-117 1740q73 -77 155 -77q5 1 11 1q88 6 219 16q132 10 348 18q85 3 155 2q108 0 180 -6q119 -12 228.5 -47t187 -145.5t89.5 -157t62 -54.5q-24 -18 -50 -35q-21 -89 -70 -178.5t-129 -126.5q178 -32 280 -164t113 -386q-10 -302 -128 -451t-279 -149h-33 q-250 6 -588 6t-450 -6q-18 -1 -35 -1q-82 0 -108 26q18 -4 55.5 1.5t66 34.5t40.5 137l11 967q2 180 2 304q0 248 -9 273q-14 38 -83.5 38t-143 31.5t-97.5 128.5zM427 1043q5 -1048 11 -1082t211 -34q3 0 7 1h213.5h219.5q1 0 1 -1q222 -1 310 221q48 122 48 243 q0 99 -32 197q-72 218 -305 230h-247h-27q-194 0 -344 -93q101 231 359 231h9q153 5 220 44t112 212q11 45 11 87q0 53 -17 103q-63 137 -256 152h-497z" />
<glyph unicode="C" horiz-adv-x="1687" d="M-12 839l62 60l63 15q18 260 249.5 514t685.5 254q100 0 184 -12t212 -48q118 -30 185 -32h4q53 0 132 47l52 -11q-220 -103 -245 -311q-44 -2 -72 -34q-6 60 -88 160q-54 64 -169 105.5t-221 43.5q-137 0 -375 -126.5t-291 -625.5q53 -566 208 -706q156 -141 278 -194 q114 -49 280 -49h25q183 4 295 59.5t249 248.5q-4 -26 6 -47l-21 -46q-77 -165 -224.5 -243t-401.5 -78q-239 0 -435 86q-213 92 -348.5 330.5t-152.5 557.5z" />
<glyph unicode="D" horiz-adv-x="1664" d="M-3 1749q97 -61 145 -61h2q48 2 176 14q109 10 285 11q29 0 60 -1h15q432 0 684 -170q256 -172 287 -762q66 -36 138 -77q-66 -13 -138 -49q-51 -464 -253 -664q-196 -194 -642 -193h-27q-208 6 -336.5 5.5t-177.5 -5.5q-64 -7 -101 -7q-19 0 -30 2q-36 5 -54 44 q45 -10 69 -10q17 0 25 4q18 12 38.5 36t34.5 44.5t16 85.5l10 849v185q1 529 -15 555q-18 30 -60.5 35t-83.5 28t-67 101zM438 -48h169q52 -5 101 -4q266 0 454 137q222 163 227 560q-74 21 -140 93q18 -4 35 -4q60 0 109 44q-14 544 -243 672q-189 105 -464 105 q-58 0 -121 -5h-125z" />
<glyph unicode="E" horiz-adv-x="1374" d="M5 1698l572 -2q189 -1 321 -1q286 1 306 5q28 6 101 37q-115 -116 -115 -276v-13l-26 -18q-22 73 -79 89q-48 13 -283 13h-95l-287 -3l1 -558q34 8 74 8q47 -1 103 -11q104 -20 201 -132q-76 17 -140 17q-153 0 -238 -98l3 -788q489 1 688 5q37 6 80 75t90 102 q34 24 79 24q18 0 37 -4q-57 -33 -81.5 -103t-30.5 -140q-1 -12 0 -23q0 -57 23 -102l-604 -1q-198 4 -341 4q-222 0 -308 -9l-3 30q115 43 139 102l8 867q-39 50 -160 65q69 90 164 90h2l-5 518q0 100 -34 148.5t-157 48.5z" />
<glyph unicode="F" horiz-adv-x="1217" d="M22 1693l572 -2q191 -1 325 -1q289 0 309 4q28 6 101 38q-115 -116 -115 -276v-13l-26 -18q-22 73 -79 89q-48 13 -250 13h-81l-341 -3l1 -546q34 8 87 8q61 0 149 -10q164 -20 262 -184q-113 48 -223 48q-140 0 -275 -78l-7 -795v-8q0 -80 82 -114q21 -12 47 -12 q31 0 69 17q-11 -48 -87 -56q-169 8 -289 8q-112 0 -180 -7l-3 30q149 54 147 143v833q-39 50 -160 65q69 90 164 90h2l-5 506q0 100 -34 148.5t-147 58.5z" />
<glyph unicode="G" horiz-adv-x="1918" d="M23 723l101 77l84 22q10 195 91 430q99 228 321 367q170 93 347 96h14q133 0 336 -53q161 -54 243 -54q12 0 22 2q82 8 138 104l37 14q-59 -104 -121 -256.5t-76 -231.5q-26 105 -108 215q-141 80 -231 95.5t-203 25.5q-211 -3 -350 -155q-93 -102 -127 -217 q-47 -230 -50 -430q0 -869 741 -869h130q102 0 102 177v587h-460q-193 0 -205 145q-1 15 -1 29q0 81 40 115q31 26 81 26q27 0 59 -7q-57 -11 -67 -45q-4 -15 -4 -29q0 -18 7 -34q12 -29 35 -53.5t68 -31.5t133 -7h756q-189 -48 -189 -212v-623q0 -144 172 -144h-702 q-264 0 -326 11.5t-187 45.5q-234 112 -361 351q-101 306 -103 460l-70 38z" />
<glyph unicode="H" horiz-adv-x="1678" d="M29 1641q65 89 159 89q9 0 18 -1q106 -9 166 -21q42 -9 75 -9q15 -1 27 1q42 6 115 30l-4 -22q-22 -31 -60 -42q-39 -10 -73 -24q-29 -12 -29 -87q0 -13 1 -28v-603q198 -23 430 -142q226 118 328 134q90 14 134 14h10v604q0 100 -40 118q-34 15 -61 15h-9 q-32 -3 -71 -25q85 89 165 89q12 0 25 -2q91 -15 153 -25q37 -6 65 -6q19 0 34 2q37 6 126 37q-22 -57 -65 -69q-42 -12 -76 -30q-30 -16 -30 -52v-8q4 -44 4 -658q98 -26 135 -106q-45 37 -95 37q-21 0 -42 -6v-818q4 -97 27.5 -133.5t46 -43.5t73.5 -11l-10 -29 q-46 -5 -90 -5q-49 0 -95 6q-88 11 -149 15q-9 1 -19 1q-53 0 -111 -21q14 49 42.5 68.5t49.5 45.5t21 99v767q-188 -39 -476 -246q-282 202 -430 246v-760q0 -108 28.5 -133.5t68.5 -34.5t67 -9t60 18q-18 -26 -28 -37q-12 -12 -36 -24q-20 -10 -84 -10q-16 0 -34 1 q-94 3 -132 14t-108 13h-8q-66 0 -124 -32q32 67 53 82.5t40 40.5t21 95v845q-30 9 -59 9q-44 0 -86 -21q59 89 145 96v598q0 95 -46 112.5t-73.5 17.5t-59.5 -26z" />
<glyph unicode="I" horiz-adv-x="754" d="M87 1637q70 70 171 70h6q104 -3 162 -15q40 -8 72 -8q15 0 28 2q41 6 121 25q-23 -50 -66 -61q-43 -12 -73 -28q-26 -14 -26 -83q0 -12 1 -25l2 -1507q0 -93 28 -121.5t70 -38t67.5 -9.5t51.5 19q-11 -29 -22 -41.5t-35 -23.5q-20 -9 -69 -9h-19q-65 3 -133 19 q-55 13 -114 13q-14 0 -30 -1q-76 -4 -176 -36q27 54 67 73.5t67.5 47t27.5 98.5l-1 1519v11q1 71 -37 97q-26 19 -78 19q-28 0 -63 -6z" />
<glyph unicode="J" horiz-adv-x="652" d="M-98 -467q137 4 214 52t129.5 171.5t65.5 364.5v659l-120 56l118 67v465q0 155 -20.5 191t-62 43t-107.5 10.5t-109.5 33.5t-68.5 64q102 -25 218 -25q39 0 81 3q91 6 166 6q58 0 107 -4q29 -2 61 -2q88 0 193 18q-44 -70 -109.5 -80t-99.5 -38q-28 -21 -28 -84 q0 -17 2 -36v-562q55 -27 120 -33q-47 -61 -120 -81v-687q-13 -268 -77.5 -376.5t-146 -155.5t-157.5 -62t-232 -17q-2 13 -17 39z" />
<glyph unicode="K" horiz-adv-x="1527" d="M55 -186h12q27 0 60 6q40 8 85.5 34t45.5 81q8 343 8 747t-8 868q0 44 -74 86q-62 36 -103 35q-8 0 -14 -1l13 30q153 -11 275 -11q190 0 304 26q-18 -27 -70.5 -52t-90.5 -108q-11 -184 -11 -539q0 -118 1 -256q38 46 371 389q177 201 177 270q0 66 -55 112 q-42 35 -98 35q-10 0 -19 -1l18 22q146 1 330 -3q8 0 15 -1q172 0 257 74q-71 -105 -144.5 -131t-377.5 -431l-85 -133q200 -629 362 -873q163 -244 307 -306q116 -50 202 -50q21 0 40 3q-53 -40 -115 -40q-392 43 -578 277t-409 818q-200 -196 -203 -239v-129 q0 -457 13 -509q15 -60 160 -110q-122 6 -236 6q-189 0 -353 -16z" />
<glyph unicode="L" horiz-adv-x="1448" d="M19 1604q65 112 153 114h24q74 0 134 -14q70 -16 148 -18h5q76 0 163 59q-10 -66 -56 -101t-75 -44.5t-47 -45.5q-15 -29 -15 -100q0 -19 1 -42v-446q33 14 69 14q42 0 87 -20q-110 -47 -156 -136v-620q0 -100 40.5 -166.5t118.5 -66.5q164 -1 289 -1q209 0 312 3l91 13 q88 37 164 131l-8 -67q-49 -94 -58 -144q-3 -17 -3 -48q0 -58 11 -166q-55 82 -134 100t-277 22q-39 1 -80 1q-174 1 -411 -13q-167 -9 -263 -10q-72 0 -103 6q-72 12 -88 44q21 -3 40 -3q48 1 78 21q42 28 65 102.5t23 266.5v1226q-7 179 -99 190q-11 2 -22 2 q-56 0 -121 -43z" />
<glyph unicode="M" horiz-adv-x="2096" d="M-8 -134q48 -12 82 -12q50 0 72 26q36 42 44.5 107t66.5 843l-28 37l-48 27l84 42l35 507q-1 130 -52.5 208t-158.5 108q17 1 33 1q218 0 356 -139l575 -584l614 578q128 145 346 145q16 0 33 -1q-118 -32 -162.5 -109t-57.5 -205l47 -515l96 -61l-86 -56 q72 -741 84 -812t48 -117q26 -33 89 -32q25 0 56 5q-53 -48 -126 -48q-8 1 -15 1q-82 6 -137 8q-26 2 -50 2q-28 0 -54 -2q-50 -4 -34 22q17 28 16 114q0 93 -66 815l-41 34l-52 35l85 57l-36 469l-597 -626l-570 626l-29 -455l29 -29l47 -23l-50 -41l-35 -17 q-49 -664 -49 -804v-29q8 -80 40 -104q21 -16 67 -16q24 0 54 4q-46 -53 -93 -53h-1q-47 0 -87 10q-27 7 -74 7q-20 0 -46 -2q-80 -4 -146 -6h-5q-63 0 -113 60z" />
<glyph unicode="N" horiz-adv-x="1797" d="M-101 -288q65 142 156.5 166.5t108.5 54t20 123.5q0 1502 -8.5 1563.5t-137.5 126.5h13q109 0 186 -48q81 -50 351 -387l404 -521q69 8 134 34q-28 -77 -62 -123l497 -614v1494q-20 97 -129 102q-60 6 -61.5 31.5t27.5 31.5q88 -21 188 -21q113 0 240 27q4 1 7 1 q13 0 21 -21q8 -26 -8 -34q-126 -29 -126 -180v-1544q0 -225 143 -388q-74 0 -144 24.5t-327 303.5l-483 613q-45 -3 -134 -32q29 95 60 129l-488 611v-1117q0 -51 3 -104.5t41.5 -96.5t112.5 -53q12 -2 24 -2q64 0 142 44q-29 -100 -149 -106q-83 1 -152 1q-262 1 -305 -9 q-54 -12 -165 -80z" />
<glyph unicode="O" horiz-adv-x="1836" d="M-60 710q66 92 149 103q61 459 277 672.5t547 231.5q378 -11 582 -225t271 -628q78 -2 149 -57q-99 -41 -151 -86q-38 -461 -246.5 -694.5t-590.5 -237.5q-394 20 -586.5 229t-242.5 663q-70 37 -118 37q-23 0 -40 -8zM326 794q58 -16 144 -16q29 0 60 2 q-72 -73 -193 -105q23 -403 157.5 -552t435.5 -179q319 24 446.5 228t133.5 529q-70 17 -147 79q81 4 138 45q-13 389 -154 561q-139 170 -437 170h-7q-275 -16 -419.5 -207t-157.5 -555z" />
<glyph unicode="P" horiz-adv-x="1318" d="M-151 1758q70 -76 149 -76q7 0 14 1q87 7 219.5 16.5t284.5 15.5q61 2 117 2q84 0 156 -5q121 -9 227 -46t188 -168.5t100 -232.5q13 -51 91 -80q-63 -29 -87 -61q-14 -66 -80 -160q-67 -94 -200 -148q-71 -28 -221 -29q-132 0 -324 22l-33 75q80 -3 150 -3q140 0 238 13 q148 20 221 175q35 75 35 153q0 84 -40 172q-78 170 -393 180l-260 -13q-12 -755 -12 -1136q-1 -299 7 -368q16 -156 63.5 -175.5t146.5 -107.5q-39 14 -108 22q-58 6 -127 6h-28q-86 -2 -194 -8q-20 -1 -37 -1q-77 0 -101 22q19 6 52.5 10t64.5 32.5t39 135.5l15 690 q1 226 1 394q1 453 -9 482q-14 39 -81.5 39t-143.5 32t-100 128z" />
<glyph unicode="Q" horiz-adv-x="1920" d="M-60 680q66 92 149 103q61 489 277 702.5t547 231.5q378 -11 582 -225t271 -678q78 -2 149 -57q-99 -41 -151 -86q-38 -411 -246.5 -644.5t-590.5 -237.5q-394 20 -586.5 229t-242.5 633q-70 37 -118 37q-23 0 -40 -8zM316 764q58 -16 144 -16q28 0 60 2 q-72 -73 -193 -105q23 -373 162.5 -522t440.5 -189q319 34 451.5 238t138.5 479q-70 17 -147 79q81 4 138 45q-13 439 -159 611q-144 170 -442 170h-7q-275 -16 -424.5 -207t-162.5 -585zM959 -316q139 25 273 25q237 0 461 -78q-24 -50 -97 -109q25 -6 48 -6q88 0 164 85 q163 -80 382 -83q6 -1 13 -1q210 0 344 112q-93 -19 -188 -19q-240 0 -498 117q15 78 69 144q-128 -17 -186 -102q-148 36 -289 36q-259 0 -496 -121z" />
<glyph unicode="R" horiz-adv-x="1785" d="M-151 1745q70 -76 154 -76q7 0 14 1q92 7 219.5 16.5t294.5 15.5q67 2 126 2q89 0 162 -5q121 -9 241.5 -46t202.5 -147t91 -157t74 -63q-44 -32 -61 -74q-24 -127 -80.5 -197t-200.5 -155q160 -77 205 -77q4 0 7 1q25 10 50 10q-9 -19 -9 -51q0 -30 8 -72 q16 -87 98.5 -403t166.5 -409.5t240 -118.5l13 -34q-54 -8 -108 -8q-56 0 -103 16q-51 9 -115 42q-113 60 -188 194.5t-212.5 446.5t-240.5 370t-401 75l-64 22l37 41q266 13 405.5 55t215.5 209q9 64 9 116q0 68 -16 116q-51 144 -289 157h-394q0 -1586 6 -1618.5t53 -52 t146 -107.5q-39 14 -83 20t-155 6t-219 -6q-20 -1 -37 -1q-77 0 -101 22q19 6 52.5 10t64.5 32.5t39 135.5l15 911q1 161 1 282q1 326 -9 354q-14 39 -81.5 39t-143.5 32t-100 128z" />
<glyph unicode="S" horiz-adv-x="1358" d="M-20 -205l4 51q89 86 139 200t81 216q25 -112 84.5 -156.5t169.5 -100.5q126 -64 288 -64q145 0 243 59.5t113 215.5q4 43 4 81q0 98 -28 158q-39 83 -123 134t-153 66t-264 37q-55 -91 -173 -97l50 132l-140 102q-158 136 -158 372q0 222 161 387q137 110 346 110 q206 0 320 -64q88 -50 136 -50q16 0 26 4q48 20 211 115q-137 -150 -174 -219.5t-51 -151.5l-40 -24q-21 54 -68 114t-138 104q-94 56 -203 56q-137 0 -227 -70q-79 -109 -79 -223q0 -210 191 -306q73 78 174 84l-58 -127q57 -10 220 -40q230 -57 333 -168 q118 -160 118 -335q0 -297 -142 -436q-165 -163 -347 -171q-41 -2 -77 -2q-123 0 -185 20q-80 26 -347 192q-104 -99 -237 -205z" />
<glyph unicode="T" horiz-adv-x="1487" d="M21 1493l60 237l34 -18q306 -16 614 -16q318 0 638 17l36 17l13 -104l44 -134l-34 -22q-39 94 -101 96l-175 6q-235 -4 -274 -20q-35 -15 -35 -90q0 -10 1 -20v-593l52 -16l66 -46l-118 -41v-772q0 -48 27.5 -76.5t49.5 -38t58 -19.5q12 -3 24 -3q22 0 40 12 q-24 -39 -59 -47q-19 -5 -51 -5q-29 -1 -69 3q-84 8 -132 14q-34 4 -71 4h-31q-54 -2 -127 -27q25 63 50.5 82.5t48 47t22.5 118.5v707l-40 14l-60 54l100 36v594q0 97 -39.5 112.5t-253.5 22.5l-166 -7q-57 -1 -113 -102z" />
<glyph unicode="U" horiz-adv-x="1680" d="M-60 1682l32 25q67 -8 121 -8q35 -1 63 3q66 8 149 8h20q95 -1 126 -69q-39 11 -67 11q-34 0 -54 -16q-35 -29 -35 -159v-486l107 -54l-69 -35l-38 -45v-438q-1 -16 -1 -31q0 -248 156 -349q165 -107 346 -112q295 5 424 162q120 146 120 314q0 13 -1 26v427l-56 25 l-61 51l117 41v506v14q0 89 -35 132q-29 35 -68 35q-12 0 -24 -3l1 14q45 26 103 26q14 1 28 -1q74 -8 123 -12q12 -1 24 0q39 0 86 8q12 2 23 2q48 0 89 -37q-71 -5 -115 -30.5t-44 -155.5v-496l108 -51l-74 -39l-34 -38v-425q-12 -303 -183.5 -473.5t-549.5 -170.5h-9 q-330 0 -505 152q-178 154 -192 479v445l-101 84l107 50l1 493q-2 70 -20.5 121t-137.5 80z" />
<glyph unicode="V" horiz-adv-x="1833" d="M-51 1666q25 31 69 36q11 1 21 1q34 1 74 -11q44 -13 87 -13h16q52 3 123 14.5t98 12.5h5q24 0 51 -8q29 -9 67 -49q-48 7 -78 7q-18 0 -28 -2q-30 -6 -58 -16.5t-46.5 -30t-12.5 -57.5t22.5 -90.5t141.5 -311.5l135 -16l-90 -81l395 -850l375 845l-24 39l-64 53l131 19 q160 361 165 398q2 12 2 23q0 24 -8 45q-11 31 -30 42t-62 15q23 26 109 26q30 0 78 -3q78 -6 156.5 -6t157.5 6q3 -20 15 -39q-55 -8 -86.5 -29.5t-67.5 -77.5l-204 -433l78 -88l-129 -16l-584 -1274l-591 1254l-51 17l-76 14l70 92l-225 477q-42 66 -122 66h-5z" />
<glyph unicode="W" horiz-adv-x="2468" d="M-35 1660q23 30 67 38q13 3 27 2q34 0 75 -14q29 -10 67.5 -10t86.5 10q76 16 122 16q14 0 24 -2q48 -6 93 -54q-64 6 -87 6h-6q-20 -1 -42.5 -15.5t-39 -34.5t-9 -54.5t22 -83.5t136.5 -310l145 -38q-58 -29 -96 -73l322 -754l262 611l-231 509q-30 69 -112 69 q-15 0 -31 -2q40 42 90 42q19 0 39 -6q40 -12 75 -13q28 1 53 9q19 7 42 6q41 0 94 -21q-77 -17 -77 -63q1 -8 3 -18q16 -60 145 -321l102 267q8 33 8 58q0 64 -53 78q26 14 60 14q28 0 62 -9q39 -11 72 -11q30 0 55 9q53 19 99 23h7q43 0 94 -48q-33 16 -56 16h-7 q-24 -3 -55 -19.5t-82 -110.5l-205 -450l240 -622l379 776q-43 46 -76 122q50 -17 101 -17q10 0 21 1q169 373 175 411q1 6 0 11q0 32 -26 60q-22 24 -71 24q-19 0 -42 -4q37 35 94 35h16q67 -6 124 -15q21 -3 41 -3q36 0 70 10q48 13 85 13h9q40 -2 87 -56q-29 6 -52 6 t-38 -6q-30 -12 -72 -79l-207 -453q38 -25 76 -89q-18 3 -37 3q-42 0 -90 -16l-561 -1268l-336 925l-356 -925l-502 1244q-64 22 -131 29l76 91l-229 479q-40 65 -120 65h-9z" />
<glyph unicode="X" horiz-adv-x="1685" d="M22 -169q19 -3 36 -3q83 0 128 77l466 802q-69 55 -170 55q-31 0 -65 -5q100 106 239 106h8l-427 760q-42 51 -73 51h-1q-31 -1 -71 -15q58 45 114 45q18 0 36 -5q74 -19 168 -20h12q86 0 151 13q24 5 42 5q35 0 49 -18q22 -27 0 -23q-13 3 -34 3q-16 1 -37 -1 q-48 -4 -68 -22t-10.5 -56t26 -62t308.5 -571q393 652 393 691q0 32 -48 44q-32 9 -64 9l-22 -1q67 28 123 28q16 0 33 -2q68 -12 142 -16q32 -2 60 -1q36 1 64 3q16 1 29 1q27 -1 43 -7q24 -10 39 -42q-36 12 -63 12q-21 0 -37 -8q-35 -16 -64 -66l-451 -729 q90 -77 180 -77h11q-62 -60 -191 -84l463 -800q48 -57 80.5 -68t92.5 -11q-29 -19 -31 -33q-87 10 -156 10q-48 0 -87 -5q-73 -9 -116 -9h-22q-44 4 -34.5 24.5t23.5 39.5t2 50t-404 688l-353 -584q-48 -76 -48 -102q0 -4 1 -6q6 -22 30 -42q25 -21 59 -28q9 -2 21 -2 q34 0 91 14q-65 -46 -112 -46h-8q-50 4 -144 13q-39 3 -73 3q-49 0 -89 -6q-68 -12 -108 -14h-4q-38 0 -78 43z" />
<glyph unicode="Y" horiz-adv-x="1372" d="M-27 1677q28 24 59 24t70 -11q37 -10 83 -10h9q52 1 100.5 8t74.5 11t49 -3t52 -33q-41 5 -65 5q-15 0 -23 -2q-21 -5 -42 -9t-36 -16t-10 -43t18 -50.5t137 -208.5h101l-64 -66l206 -318l225 322q-44 30 -54 80q43 -13 75 -13q8 0 15 1q169 240 175 264t-5 45t-25 26 t-51 9q16 14 65 16q12 1 26 1q42 0 115 -8q28 -4 63 -4q58 0 136 9q0 -16 16 -28q-47 -2 -73 -14t-56 -54l-211 -298q44 -22 70 -78l-106 14l-203 -336q-86 -105 -86 -249v-13v-631v-11q0 -83 28 -114q30 -33 93 -41q16 -2 30 -2q42 0 66 18q-12 -32 -48 -52 q-30 -18 -108 -18h-24q-96 3 -168 12q-16 1 -34 1q-64 0 -155 -24q0 41 32.5 64t53.5 55t25 108v632q1 12 1 24q0 141 -89 243l-177 314q-34 20 -103 20l59 58l-211 332q-29 42 -101 42z" />
<glyph unicode="Z" horiz-adv-x="1482" d="M36 -214q216 279 566 1000q-64 52 -161 55q79 61 177 61q32 0 65 -6l351 651q-112 10 -224 13q-206 -3 -403 -3.5t-284 -144.5q3 35 3 67q0 131 -42 231q415 -4 705 -4q500 0 624 12l-456 -828q37 -70 142 -70q12 0 25 1q-89 -55 -190 -55q-27 0 -55 4 q-335 -679 -434 -825q492 3 643.5 24t222 92.5t93.5 193.5l19 -70q-42 -105 -42 -201q1 -7 1 -15q4 -103 96 -177q-482 9 -818 9q-432 0 -624 -15z" />
<glyph unicode="`" horiz-adv-x="759" d="M140 1852q71 -29 120 -20.5t103 -36.5l181 -158l10 -29q-225 10 -308.5 66.5t-105.5 177.5z" />
<glyph unicode="a" horiz-adv-x="1491" d="M-51 -152h5q79 0 120 66l214 477q-30 16 -59 16q-27 0 -54 -14q45 73 129 73q12 0 25 -1l404 890l421 -890h4q95 0 143 -89q-29 23 -57 23q-23 0 -46 -15l198 -433q36 -56 67 -77.5t85 -29.5q-12 -19 -15 -39q-78 6 -153 6t-147 -6q-37 -3 -67 -3q-85 0 -108 26 q43 4 61.5 15t29.5 42q8 21 8 45q0 11 -2 23q-5 37 -62 147l-99 208q-105 -12 -271 -156q-153 142 -297 196q-105 -241 -121.5 -293.5t-22.5 -90.5t12.5 -57.5t45.5 -29.5q28 -11 57 -17q11 -2 28 -2q29 0 77 7q-37 -40 -66 -49t-55.5 -8t-86.5 12.5t-96 14.5h-12 q-32 -1 -76 -13q-39 -12 -73 -11q-11 0 -21 1q-43 5 -67 36zM469 438q140 -30 254 -92q112 62 234 78l-242 585z" />
<glyph unicode="b" horiz-adv-x="1355" d="M-117 1310q73 -77 155 -77q5 1 11 1q88 6 219.5 16t213.5 18q32 3 70 2q58 0 130 -6q119 -12 228.5 -47t187 -145.5t89.5 -157t62 -54.5q-24 -18 -50 -35q-21 -89 -70 -163.5t-129 -111.5q178 -32 243 -134t66 -243q0 -143 -67 -262q-64 -111 -256 -111h-33 q-250 6 -453.5 6t-315.5 -6q-18 -1 -35 -1q-82 0 -108 26q18 -4 55.5 1.5t66 34.5t40.5 137l11 537q2 180 2 304q0 248 -9 273q-14 38 -83.5 38t-143 31.5t-97.5 128.5zM428 613q6 -618 12 -652t79 -34q1 0 3 1h106h166q1 0 2 -1q195 0 259 94q39 57 39 139q0 54 -17 120 q-42 164 -231 166l-201 -4h-9q-79 0 -145 -65q28 173 141 179q95 5 171 44t121 182q11 45 11 87q0 53 -17 103q-63 137 -256 152h-227z" />
<glyph unicode="c" d="M-32 574l52 56l61 29q8 142 137 341q242 326 696 326q100 0 170.5 -12.5t198.5 -49.5q118 -31 185 -33h4q53 0 132 48l52 -11q-220 -106 -245 -321q-44 -2 -72 -35q-6 62 -88 165q-54 66 -155.5 109t-207.5 45q-137 0 -259 -76q-311 -142 -311 -567q0 -311 185 -498 q82 -92 196 -151q121 -60 273 -60q187 18 304 75t254 257q-4 -27 6 -49l-21 -47q-77 -170 -224.5 -251t-374.5 -81q-239 0 -435 89q-213 95 -319 302q-73 175 -83 346z" />
<glyph unicode="d" horiz-adv-x="1484" d="M-3 1317q95 -61 142 -61h3q46 2 172 14q108 10 279 10h59q338 -7 494 -135q238 -186 238 -525q65 -36 136 -77q-65 -13 -136 -49q-20 -351 -204 -537q-101 -89 -205 -122.5t-260 -37.5q-204 6 -330.5 5.5t-173.5 -5.5q-63 -7 -99 -7q-19 0 -30 2q-35 5 -53 44 q44 -10 68 -10q16 0 24 4q18 12 38 36t34 44.5t16 85.5l9 573v148q0 411 -15 436q-18 30 -59 35t-81.5 28t-65.5 101zM430 -108h165h29q151 0 212 20q67 22 126 78q166 177 166 495q-73 21 -138 93q18 -4 35 -4q59 0 106 44q-13 337 -178 473q-113 87 -399 87h-122z" />
<glyph unicode="e" horiz-adv-x="1347" d="M12 1292l572 -2q174 -1 296 -1q264 1 284 5q28 6 101 37q-115 -116 -115 -257v-12l-26 -18q-22 73 -79 89q-48 13 -250 13h-81l-297 -3l1 -424q34 8 75 8q49 -1 107 -11q110 -20 206 -132q-79 17 -145 17q-158 0 -243 -98l-7 -536q446 1 645 5q37 6 80 75t90 102 q34 24 79 24q18 0 37 -4q-57 -33 -81.5 -103t-30.5 -140q-1 -12 0 -23q0 -57 23 -102l-448 9q-164 2 -293 2q-346 0 -449 -17l-3 30q115 43 159 102l8 615q-39 50 -160 65q69 90 164 90h2l-5 364q0 100 -44 148.5t-167 48.5z" />
<glyph unicode="f" horiz-adv-x="1240" d="M22 1292l572 -2q174 -1 296 -1q265 0 284 5q29 6 101 37q-115 -116 -115 -276v-13l-26 -18q-22 73 -79 89q-48 13 -250 13h-81l-287 -3l1 -404q34 8 74 8q47 0 102 -11q105 -19 202 -132q-76 17 -140 17q-153 0 -238 -98l-7 -536v-8q0 -80 82 -114q21 -12 47 -12 q31 0 69 17q-11 -48 -87 -56q-169 8 -289 8q-111 0 -180 -7l-3 30q149 54 147 143v574q-39 50 -160 65q69 90 164 90h2l-5 364q0 100 -34 148.5t-147 58.5z" />
<glyph unicode="g" horiz-adv-x="1547" d="M37 507l77 62l72 19q7 167 77 317q85 196 277 288q145 80 298 83h9q113 0 255 -46q137 -44 212 -44q31 0 52 8q70 26 119 108l31 13q-51 -90 -104 -221t-65 -199q-22 90 -92 184q-122 70 -199.5 83.5t-174.5 21.5q-181 -3 -300 -134q-80 -87 -109 -186q-41 -146 -44 -318 q0 -656 533 -656h112q87 0 87 152v415h-395q-153 0 -163 157q10 56 39.5 82.5t75.5 26.5q36 0 9.5 -14.5t-34.5 -49.5q-4 -13 -4 -25q0 -22 10 -42q14 -31 52.5 -37t113.5 -6h677q-163 -41 -163 -182v-445q0 -124 148 -124h-603q-102 0 -187 10t-150 39q-201 97 -311 302 q-87 172 -88 305l-60 32z" />
<glyph unicode="h" horiz-adv-x="1546" d="M29 1193q65 89 159 89q9 0 18 -1q106 -9 166 -21q42 -9 75 -9q15 -1 27 1q42 6 115 30l-4 -22q-22 -31 -60 -42q-39 -10 -73 -24q-29 -12 -29 -87q0 -13 1 -28v-363q198 -69 332 -146q134 74 236 112q97 37 140 36h4v365q0 101 -40 119q-34 15 -61 14h-9q-32 -3 -71 -25 q85 89 165 89q12 0 25 -2q91 -16 153 -26q37 -6 65 -5q19 1 34 3q37 6 126 36q-22 -57 -65 -69q-42 -11 -76 -29q-30 -16 -30 -53v-9q4 -44 4 -418q98 -26 135 -106q-45 37 -95 37q-21 0 -42 -6v-609q4 -98 27.5 -134.5t46 -43.5t73.5 -11l-10 -29q-46 -5 -90 -5 q-49 0 -95 6q-88 11 -149 15q-9 1 -19 1q-53 0 -111 -21q14 49 42.5 68.5t49.5 45.5t21 100v558q-191 -63 -384 -246q-187 181 -332 250v-552q0 -108 28.5 -133.5t68.5 -34.5t67 -9t60 18q-18 -26 -28 -37q-12 -12 -36 -24q-20 -10 -84 -10q-16 0 -34 1q-94 3 -132 14 t-108 13h-8q-66 0 -124 -32q32 67 53 82.5t40 40.5t21 95v637q-30 9 -59 9q-44 0 -86 -21q59 89 145 96v358q0 95 -46 112.5t-73.5 17.5t-59.5 -26z" />
<glyph unicode="i" horiz-adv-x="723" d="M61 1196q58 85 155 85q126 -8 184 -20q39 -8 71 -8q16 0 29 2q41 6 121 25l-8 -24q-15 -26 -58 -37t-73 -27q-26 -14 -26 -85q0 -12 1 -25v-1061q0 -95 27.5 -123.5t69.5 -38t68 -9.5t54 19q-14 -29 -25 -41t-35 -24q-20 -9 -87 -9q-15 1 -31 1q-94 2 -132.5 13 t-107.5 13q-5 0 -9 1q-64 0 -123 -32q25 63 50.5 82.5t43 42t17.5 94.5v1074q0 96 -43 112q-42 15 -72 16h-2q-30 0 -59 -16z" />
<glyph unicode="j" horiz-adv-x="652" d="M-98 1313q102 -25 218 -25q39 0 80 2q92 7 167 7q58 0 107 -4q29 -2 61 -2q88 0 193 18q-44 -70 -109.5 -80t-100.5 -37q-27 -22 -27 -85q0 -17 2 -36v-451q55 -27 120 -33q-47 -61 -120 -81v-401q0 -205 -53.5 -293t-129 -146t-151.5 -73t-232 -17q-2 13 -17 39 q137 4 214 52t112.5 141.5t35.5 312.5v373l-120 56l118 67v354q0 155 -20.5 191t-62 43t-107.5 10.5t-109.5 33.5t-68.5 64z" />
<glyph unicode="k" horiz-adv-x="1425" d="M55 -187q8 -1 16 0q23 -1 51 5q36 8 77.5 31.5t41.5 73.5q7 315 7 603t-7 549q0 39 -68 78q-59 34 -95 34q-6 0 -11 -1l11 27q140 -10 252 -10q174 0 279 24q-16 -25 -64 -48t-83 -99q-10 -153 -10 -439q0 -102 1 -221q34 41 340 377q163 185 163 248q0 60 -51 103 q-38 32 -88 32q-9 0 -19 -1l16 20q134 1 303 -3q8 0 15 -1q157 0 234 69q-64 -97 -132 -121t-376 -404l-48 -50q184 -401 309 -587t211 -232q66 -35 135 -35q21 0 42 3q-49 -37 -106 -37q-267 19 -414.5 195.5t-301.5 540.5q-234 -242 -237 -281v-70q0 -233 12 -281 q14 -55 147 -101q-108 5 -208 5q-178 0 -332 -15z" />
<glyph unicode="l" horiz-adv-x="1196" d="M26 1168q50 84 108 88l30 2q49 0 114 -10q60 -9 109 -10q21 0 41 2q64 6 157 39q-32 -55 -66 -78.5t-61.5 -32t-39 -37t-11.5 -108.5v-385q8 -3 17 -3q31 0 74 36q-12 -62 -29 -83t-62 -43v-407q1 -65 11 -116q10 -49 103 -49h7q261 -9 400 -9q46 0 79 1l61 4 q62 104 131 122q-43 -57 -50 -139q-4 -52 -4 -137q0 -48 1 -107l-47 20q-12 51 -57 62q-46 10 -196 16q-41 2 -90 2q-130 0 -318 -10q-138 -8 -217 -8q-68 0 -93 6q-53 12 -63 28q65 0 90.5 20.5t40 77t14.5 196.5v934q0 127 -72 145q-8 1 -16 1q-47 0 -96 -30z" />
<glyph unicode="m" horiz-adv-x="1818" d="M-8 -138q47 -11 81 -11q51 1 73 25q36 40 44.5 102t32.5 437l-28 35l-48 26l84 40l35 483q-1 124 -52.5 198.5t-159.5 102.5q17 1 34 1q218 0 356 -132l472 -567l501 561q128 138 346 138q16 0 33 -1q-118 -30 -162.5 -103.5t-57.5 -195.5l37 -491l96 -58l-86 -53 q27 -340 39 -408t48 -111q26 -31 89 -31q25 0 56 5q-53 -46 -125 -46h-16q-82 6 -137 9q-10 1 -22 1q-52 0 -139 -11q7 38 22.5 46.5t26.5 104.5q4 32 4 89q0 116 -15 338l-41 33l-52 33l85 54l-26 447l-504 -625l-487 625l-29 -443l29 -27l47 -22l-50 -39l-35 -17 q-12 -195 -12 -309q-1 -89 7 -127q18 -86 50 -110q21 -16 67 -16q24 0 54 5q-46 -51 -93 -51h-1q-47 0 -87 10q-27 6 -73 7q-21 1 -47 -1q-80 -4 -146 -7h-5q-63 0 -113 57z" />
<glyph unicode="n" horiz-adv-x="1627" d="M-8 1320h16q210 0 399 -209l464 -505q49 22 65 98q18 -26 18 -83q0 -41 -9 -97l393 -440v922q-2 160 -107 187q-28 7 -56 7q-64 0 -128 -38q45 102 137 102h6q96 -4 182 -14q35 -4 67 -4q46 0 86 8q69 14 84 26q-13 -54 -38.5 -65t-53.5 -41t-28 -119v-1173 q0 -78 31 -102t74 -42q-40 -12 -76 -12q-40 0 -74 15q-66 30 -161 123l-518 502q-60 -13 -125 -55q31 86 69 120l-429 457v-835q10 -146 104 -182q51 -19 94 -20q37 0 69 15q-16 -52 -48 -68q-19 -9 -55 -10q-26 0 -62 5q-84 11 -138 17q-41 5 -81 5h-25h-4q-51 0 -89 53h6 q63 0 79 22q16 23 17 125v836v22q1 262 -45 332q-48 72 -110 115z" />
<glyph unicode="o" horiz-adv-x="1606" d="M-44 446q65 91 147 102q23 310 214.5 514t484.5 212q293 0 477.5 -207.5t218.5 -391.5q77 -2 147 -57q-98 -40 -149 -85q-15 -316 -210 -530t-482 -214q-291 0 -476 215t-216 413q-70 37 -117 37q-22 0 -39 -8zM332 539q58 -16 131 -16q24 0 50 2q-49 -73 -170 -105 q23 -186 178 -345q142 -146 318 -146q15 0 31 1q192 26 306 219q96 163 96 316q0 28 -3 57q-70 17 -147 79q81 4 138 45q-25 192 -180 356q-137 145 -305 145q-21 0 -43 -2q-190 -24 -300 -213q-100 -173 -101 -359q0 -17 1 -34z" />
<glyph unicode="p" horiz-adv-x="1219" d="M-151 1309q70 -76 149 -76q7 0 14 1q87 7 219.5 16.5t214.5 15.5q33 2 72 2q58 0 131 -5q121 -9 227 -46t188 -147t91 -157t52 -53q-15 -23 -39 -42q-24 -89 -80.5 -168.5t-194.5 -137.5q-77 -33 -194 -33q-95 0 -216 21l-33 75q33 -3 70 -3q74 0 163 13q133 20 206 199 q12 45 12 87q0 49 -16 94q-60 141 -260 157h-224q0 -1150 6 -1182.5t53 -52t146 -107.5q-39 14 -83 20l-44 6h-111t-219 -6q-20 -1 -37 -1q-76 0 -101 22q19 6 52.5 10t64.5 32.5t39 135.5l15 536q1 145 1 253q0 294 -9 322q-14 39 -81.5 39t-143.5 32t-100 128z" />
<glyph unicode="q" horiz-adv-x="1686" d="M-60 446q65 91 147 102q23 310 214.5 514t484.5 212q293 0 477.5 -207.5t218.5 -391.5q77 -2 147 -57q-98 -40 -149 -85q-15 -316 -210 -530t-482 -214q-291 0 -476 215t-216 413q-70 37 -117 37q-22 0 -39 -8zM316 539q58 -16 131 -16q24 0 50 2q-49 -73 -170 -105 q23 -186 178 -345q142 -146 318 -146q15 0 31 1q193 26 306 219q96 163 96 316q0 29 -3 57q-70 17 -147 79q81 4 138 45q-25 193 -180 356q-137 145 -305 145q-21 0 -43 -2q-191 -24 -300 -213q-101 -173 -101 -359q0 -17 1 -34zM811 -316q139 25 273 25q237 0 461 -78 q-24 -50 -97 -109q25 -6 48 -6q88 0 164 85q163 -80 382 -83q6 -1 13 -1q210 0 344 112q-93 -19 -188 -19q-240 0 -498 117q15 78 69 144q-128 -17 -186 -102q-148 36 -289 36q-259 0 -496 -121z" />
<glyph unicode="r" horiz-adv-x="1462" d="M-151 1309q70 -76 154 -76q7 0 14 1q92 7 219.5 16.5t209.5 15.5q33 2 72 2q59 0 131 -5q121 -9 227 -46t188 -147t91 -157t52 -53q-15 -23 -39 -42q-24 -89 -80.5 -168.5t-200.5 -134.5q160 -77 205 -77q4 0 7 1q25 10 50 10q-9 -19 -9 -51q0 -30 8 -72 q16 -87 98.5 -230.5t166.5 -217.5q79 -69 220 -68h20l13 -34q-54 -8 -142 -18q-21 -2 -43 -2q-74 0 -168 26q-124 34 -196 120.5t-209.5 298t-199 253.5t-225.5 46l-33 75q33 -3 70 -3q74 0 163 13q133 20 206 199q12 45 12 87q0 49 -16 94q-60 141 -260 157h-224 q0 -1150 6 -1182.5t53 -52t146 -107.5q-39 14 -83 20t-155 6t-219 -6q-20 -1 -37 -1q-77 0 -101 22q19 6 52.5 10t64.5 32.5t39 135.5l15 536q1 145 1 253q1 293 -9 322q-14 39 -81.5 39t-143.5 32t-100 128z" />
<glyph unicode="s" horiz-adv-x="1146" d="M-20 -205l4 43q76 74 118.5 171t68.5 184q22 -95 72.5 -149.5t144.5 -102.5q107 -55 245 -55q141 0 219 63q89 72 89 184q0 68 -38 129t-104 100q-52 29 -114.5 48t-229.5 38q-46 -77 -147 -83l43 112l-119 70q-135 134 -135 290q0 189 137 299q117 94 295 94 q175 0 273 -55q75 -42 116 -42q12 -1 22 3q40 16 179 113q-116 -143 -148 -202t-43 -130l-34 -20q-18 46 -58 97.5t-118 88.5q-80 48 -173 48q-116 0 -193 -60q-67 -62 -67 -159q0 -134 162 -216q62 66 149 71l-50 -108q49 -8 188 -34q196 -48 283 -143q101 -111 101 -260 q0 -167 -121 -286q-140 -139 -362 -139q-73 0 -165 15t-166 41t-157 75q-53 -42 -167 -133z" />
<glyph unicode="t" horiz-adv-x="1361" d="M19 1093l60 237l34 -18q277 -16 558 -16q290 0 584 17l36 17l13 -104l44 -134l-34 -22q-39 94 -101 96l-175 6q-195 -4 -229 -20q-30 -14 -30 -87q0 -11 1 -23v-443l52 -16l66 -46l-118 -41v-522q0 -48 27.5 -76.5t49.5 -38t58 -19.5q12 -3 24 -3q22 0 40 12 q-24 -39 -59 -47q-19 -5 -51 -5q-29 -1 -69 3q-84 8 -132 14q-34 4 -71 4h-31q-54 -2 -127 -27q25 63 50.5 82.5t48 47t22.5 118.5v457l-40 14l-60 54l100 36v444q0 97 -34.5 112.5t-198.5 22.5l-166 -7q-57 -1 -113 -102z" />
<glyph unicode="u" horiz-adv-x="1492" d="M-60 1257l32 24q65 -7 117 -7q37 0 67 4q66 8 149 7h20q95 -1 126 -69q-39 11 -67 11q-35 -1 -54 -17q-35 -30 -35 -158v-364l107 -55l-69 -34l-38 -45v-135q-1 -16 -1 -31q0 -248 156 -349q165 -107 304 -112q215 5 344 162q120 146 120 314q0 13 -1 26v124l-56 24 l-61 51l117 42v400v14q0 89 -35 132q-29 35 -67 35q-12 0 -24 -3v14q45 26 103 26q14 0 28 -2q76 -8 124 -10q12 -1 24 -1q39 0 85 8q12 2 23 2q48 0 89 -37q-70 -5 -114 -30.5t-44 -155.5v-390l107 -52l-73 -38l-34 -38v-122q-12 -303 -184 -473.5t-470 -170.5h-7 q-289 0 -465 152q-178 154 -192 479v141l-101 85l107 50l1 370q-2 70 -20.5 121.5t-137.5 80.5z" />
<glyph unicode="v" horiz-adv-x="1491" d="M-51 1259q25 31 69 36q11 1 21 1q34 0 74 -12q44 -13 76 -12h13q36 3 97 14.5t88 12.5t56 -8t67 -49q-48 7 -78 7q-18 -1 -28 -3q-30 -6 -58 -16t-46.5 -29.5t-12.5 -57.5t22.5 -90.5t141.5 -311.5l135 -16l-90 -81l240 -524l227 525l-24 39l-64 53l131 19 q160 361 165 398q2 12 2 23q0 24 -8 45q-11 31 -30 42t-62 15q23 26 109 26q30 0 68 -3q73 -6 149 -6t155 6q3 -20 15 -39q-55 -8 -86.5 -29.5t-67.5 -77.5l-204 -433l78 -88l-129 -16l-416 -867l-386 841l-51 17l-76 14l70 92l-225 477q-42 66 -122 66h-5z" />
<glyph unicode="w" horiz-adv-x="2265" d="M6 1259q22 29 66 37q13 3 28 3q34 0 75 -14q29 -10 67 -10q40 0 88 10q76 16 121 16q13 1 23 -1q48 -6 94 -55q-64 6 -95 6h-8q-30 -1 -62.5 -15.5t-49 -34.5t-9 -54.5t22 -83.5t136.5 -310l145 -38q-58 -29 -96 -73l244 -524l262 577l-211 459q-31 69 -113 69 q-15 0 -31 -2q40 42 90 42q19 -1 40 -7q41 -12 74 -12q27 0 49 8q18 7 39 7q39 0 92 -21q-77 -17 -77 -63q0 -7 2 -17q16 -60 126 -283l102 228q8 33 8 58q0 64 -53 78q26 14 57 14q24 0 54 -9q34 -11 65 -11q28 0 53 9q52 20 98 24q4 0 8 -1q43 0 94 -48q-33 16 -56 16h-6 q-24 -3 -55.5 -19.5t-82.5 -110.5l-195 -430l260 -558l233 549q-43 46 -76 122q50 -17 101 -17q10 0 21 1q168 373 174 411q1 6 1 11q0 32 -26 60q-22 24 -71 24q-19 0 -42 -4q37 35 94 35q8 -1 16 -1q68 -6 124 -14q21 -3 41 -3q35 -1 70 9q48 14 85 14h9q40 -2 87 -56 q-29 6 -52 6t-38 -6q-30 -12 -72 -79l-207 -453q38 -25 76 -89q-18 3 -37 3q-42 0 -90 -16l-415 -870l-346 747l-346 -747l-384 843q-64 22 -131 29l76 91l-229 479q-40 65 -120 65h-9z" />
<glyph unicode="x" horiz-adv-x="1295" d="M-51 -177q16 -3 30 -3q70 0 107 65l392 634q-58 46 -144 46q-26 0 -54 -4q84 89 203 89h5l-359 581q-35 43 -61 43h-1q-26 -1 -60 -13q48 38 96 38q15 0 30 -4q63 -16 141 -17h11q71 0 126 11q20 4 36 4q30 0 41 -15q18 -23 -1 -19t-59 1t-57 -18t-9 -47t22 -52t259 -423 q329 491 329 523q0 27 -40 38q-26 7 -51 7l-21 -1q56 24 103 24q15 0 28 -2q57 -10 119 -13q27 -1 49 -1q31 0 55 2q42 4 61.5 -4t31.5 -36q-30 10 -53 10q-18 0 -30 -6q-30 -14 -54 -56l-379 -555q77 -65 152 -65h9q-52 -50 -161 -70l389 -632q40 -48 67.5 -57t77.5 -9 q-24 -16 -26 -28q-73 8 -130 8q-41 0 -74 -4q-61 -8 -97 -8q-11 0 -19 1q-37 3 -29 20t20 33t2 42t-339 538l-297 -450q-40 -65 -40 -87q0 -2 1 -4q5 -19 25 -36t49 -23q8 -2 19 -2q28 0 76 12q-55 -38 -94 -38h-7q-41 5 -121 11q-32 3 -60 2q-42 0 -76 -6q-57 -10 -91 -11 h-3z" />
<glyph unicode="y" horiz-adv-x="1178" d="M-51 1275q28 24 59 24t70 -11q37 -10 83 -10h9q52 1 100.5 8t74.5 11t49 -3t52 -33q-41 5 -65 5q-15 0 -23 -2q-21 -5 -42 -9t-36 -16t-10 -43t18 -50.5t107 -168.5h101l-64 -66l166 -258l165 262q-44 30 -54 80q43 -13 75 -13q8 0 15 1q119 200 125 224t-5 45t-25 26 t-51 9q16 14 65 16q12 1 26 1q42 0 104 -5q35 -3 78 -3q58 0 132 5q0 -16 16 -28q-47 -2 -73 -14t-56 -54l-161 -258q44 -22 70 -78l-106 14l-173 -276q-66 -76 -66 -189v-13v-389v-11q0 -83 28 -114q30 -33 93 -41q16 -2 30 -2q42 0 66 18q-12 -32 -48 -52 q-30 -18 -108 -18h-24q-96 3 -164 12q-14 1 -31 1q-61 0 -152 -24q0 41 32.5 64t53.5 55t25 108v390q1 12 1 24q0 111 -69 183l-157 254q-34 20 -103 20l59 58l-181 292q-29 42 -101 42z" />
<glyph unicode="z" horiz-adv-x="1301" d="M36 -214q187 243 493 736q-56 45 -140 48q57 37 134 37q32 0 67 -6l296 460q-79 9 -177 11q-179 -2 -350.5 -3t-247.5 -152q2 26 2 49q0 133 -55 164l19 46q355 -3 605 -3q443 0 552 10l-406 -588q39 -43 125 -43q14 0 29 1q-77 -49 -164 -49q-24 0 -48 4 q-292 -456 -407 -618q457 2 588.5 20.5t193 98t81.5 185.5l17 -61q-37 -92 -37 -177v-10q2 -90 85 -154q-411 8 -700 8q-385 0 -555 -14z" />
<glyph unicode="&#xa9;" horiz-adv-x="1462" d="M-151 1018q0 199 139.5 339.5t338.5 140.5q202 0 341.5 -140.5t139.5 -339.5q0 -198 -140.5 -338t-340.5 -140q-197 0 -337.5 140t-140.5 338zM5 1012l40 -19q4 -62 30 -126q39 -75 116 -119q71 -33 158 -33q82 10 135.5 39.5t81.5 91.5l8 17q-4 8 -2 18 q-50 -73 -92.5 -93.5t-110.5 -27.5q-55 0 -99 22q-41 21 -71 55q-56 68 -56 181q0 154 102 206q44 27 94 27q38 -1 75 -16.5t57 -39.5q29 -37 31 -60q11 12 27 13q9 78 89 116l-19 5q-30 -19 -50 -18q-24 1 -67 12q-46 13 -72 17.5t-62 4.5q-165 0 -253 -118 q-46 -72 -49 -123l-23 -11z" />
<glyph unicode="&#xae;" horiz-adv-x="1462" d="M-151 1018q0 199 139.5 339.5t338.5 140.5q202 0 341.5 -140.5t139.5 -339.5q0 -198 -140.5 -338t-340.5 -140q-197 0 -337.5 140t-140.5 338zM-19 1307q9 -37 38 -49t54.5 -12t31 -15t3.5 -219l-6 -204q-3 -41 -15 -52t-24.5 -12.5t-19.5 -3.5q11 -11 52 -8.5t83.5 2.5 t59 -2.5t31.5 -7.5q-38 34 -55.5 41t-20 19.5t-2.5 451.5h85q77 -6 99 -60q11 -32 2 -69q-28 -68 -78.5 -76t-88.5 -4l12 -28q63 -2 86.5 -18t75.5 -96.5t79.5 -113.5t74.5 -46q36 -10 64 -10q9 0 17 1q33 3 54 7l-5 12q-60 -1 -91.5 27t-63 82.5t-38 87.5t0.5 47 q-10 0 -19 -4q-15 -2 -81 29q55 21 76.5 51.5t30.5 64.5q9 7 15 16q-16 2 -19.5 20t-35 60t-71.5 56t-86.5 17.5t-77.5 1t-79.5 -6t-83.5 -6t-64 28.5z" />
<glyph unicode="&#xb4;" horiz-adv-x="759" d="M140 1608l10 29l181 158q54 45 103 36.5t120 20.5q-22 -121 -105.5 -177.5t-308.5 -66.5z" />
<glyph unicode="&#xc0;" horiz-adv-x="1942" d="M-84 -154q103 -2 157 83l269 599q-72 39 -142 3q64 106 194 90l507 1119l481 -1119q122 3 185 -112q-66 52 -130 11l249 -545q46 -70 84.5 -97t106.5 -37q-15 -24 -18 -50q-198 16 -348.5 0t-190.5 30q54 4 77.5 18.5t37.5 53t7.5 84.5t-78.5 186l-124 261 q-132 -15 -342 -196q-221 178 -402 246q-132 -303 -153 -369t-28.5 -113.5t15.5 -72t58 -37.5t71.5 -20.5t132.5 5.5q-47 -50 -83.5 -61.5t-70 -10t-108.5 15.5t-120.5 18t-100.5 -15.5t-109 -13t-84 45.5zM1 2082q71 -29 120 -20.5t103 -36.5l181 -158l10 -29 q-225 10 -308.5 66.5t-105.5 177.5zM550 588q176 -38 348 -112q143 74 295 93l-315 736z" />
<glyph unicode="&#xc1;" horiz-adv-x="1366" d="M-84 -154q103 -2 157 83l269 599q-72 39 -142 3q64 106 194 90l507 1119l481 -1119q122 3 185 -112q-66 52 -130 11l249 -545q46 -70 84.5 -97t106.5 -37q-15 -24 -18 -50q-198 16 -348.5 0t-190.5 30q54 4 77.5 18.5t37.5 53t7.5 84.5t-78.5 186l-124 261 q-132 -15 -342 -196q-221 178 -402 246q-132 -303 -153 -369t-28.5 -113.5t15.5 -72t58 -37.5t71.5 -20.5t132.5 5.5q-47 -50 -83.5 -61.5t-70 -10t-108.5 15.5t-120.5 18t-100.5 -15.5t-109 -13t-84 45.5zM280 1823l10 29l181 158q54 45 103 36.5t120 20.5 q-22 -121 -105.5 -177.5t-308.5 -66.5zM550 588q176 -38 348 -112q143 74 295 93l-315 736z" />
<glyph unicode="&#xc2;" horiz-adv-x="1958" d="M-84 -154q103 -2 157 83l269 599q-72 39 -142 3q64 106 194 90l507 1119l481 -1119q122 3 185 -112q-66 52 -130 11l249 -545q46 -70 84.5 -97t106.5 -37q-15 -24 -18 -50q-198 16 -348.5 0t-190.5 30q54 4 77.5 18.5t37.5 53t7.5 84.5t-78.5 186l-124 261 q-132 -15 -342 -196q-221 178 -402 246q-132 -303 -153 -369t-28.5 -113.5t15.5 -72t58 -37.5t71.5 -20.5t132.5 5.5q-47 -50 -83.5 -61.5t-70 -10t-108.5 15.5t-120.5 18t-100.5 -15.5t-109 -13t-84 45.5zM61 1826q239 39 407 305q162 -276 356 -288q-66 -23 -131 -23 q-114 0 -227 70q-125 -76 -279 -76q-61 0 -126 12zM550 588q176 -38 348 -112q143 74 295 93l-315 736z" />
<glyph unicode="&#xc8;" horiz-adv-x="1384" d="M5 1698l572 -2q599 -3 627.5 3.5t100.5 37.5q-120 -121 -115 -289l-26 -18q-22 73 -79 89t-378 13l-287 -3l1 -558q72 17 176.5 -2.5t201.5 -132.5q-258 58 -378 -81l3 -788q489 1 688 5q37 6 80 75t90 102t116 20q-57 -33 -81.5 -103t-30 -140.5t22.5 -124.5l-604 -1 q-507 9 -649 -5l-3 30q115 43 139 102l8 867q-39 50 -160 65q70 91 166 90l-5 518q0 100 -34 148.5t-157 48.5zM470 2082q71 -29 120 -20.5t103 -36.5l181 -158l10 -29q-225 10 -308.5 66.5t-105.5 177.5z" />
<glyph unicode="&#xc9;" horiz-adv-x="1419" d="M5 1698l572 -2q599 -3 627.5 3.5t100.5 37.5q-120 -121 -115 -289l-26 -18q-22 73 -79 89t-378 13l-287 -3l1 -558q72 17 176.5 -2.5t201.5 -132.5q-258 58 -378 -81l3 -788q489 1 688 5q37 6 80 75t90 102t116 20q-57 -33 -81.5 -103t-30 -140.5t22.5 -124.5l-604 -1 q-507 9 -649 -5l-3 30q115 43 139 102l8 867q-39 50 -160 65q70 91 166 90l-5 518q0 100 -34 148.5t-157 48.5zM615 1823l10 29l181 158q54 45 103 36.5t120 20.5q-22 -121 -105.5 -177.5t-308.5 -66.5z" />
<glyph unicode="&#xca;" horiz-adv-x="1369" d="M5 1698l572 -2q599 -3 627.5 3.5t100.5 37.5q-120 -121 -115 -289l-26 -18q-22 73 -79 89t-378 13l-287 -3l1 -558q72 17 176.5 -2.5t201.5 -132.5q-258 58 -378 -81l3 -788q489 1 688 5q37 6 80 75t90 102t116 20q-57 -33 -81.5 -103t-30 -140.5t22.5 -124.5l-604 -1 q-507 9 -649 -5l-3 30q115 43 139 102l8 867q-39 50 -160 65q70 91 166 90l-5 518q0 100 -34 148.5t-157 48.5zM521 1836q239 39 407 305q162 -276 356 -288q-66 -23 -131 -23q-114 0 -227 70q-125 -76 -279 -76q-61 0 -126 12z" />
<glyph unicode="&#xcc;" horiz-adv-x="650" d="M87 1637q72 72 176.5 70t163 -14.5t99.5 -6.5t121 25q-23 -50 -66 -61t-73 -27.5t-25 -108.5l2 -1507q0 -93 28 -121.5t70 -38t67.5 -9.5t51.5 19q-11 -29 -22 -41.5t-35 -23.5t-88 -9t-132.5 18.5t-144 12.5t-176.5 -36q27 54 67 73.5t67.5 47t27.5 98.5l-1 1519 q3 78 -37.5 107.5t-140.5 13.5zM91 2077q71 -29 120 -20.5t103 -36.5l181 -158l10 -29q-225 10 -308.5 66.5t-105.5 177.5z" />
<glyph unicode="&#xcd;" horiz-adv-x="664" d="M87 1637q72 72 176.5 70t163 -14.5t99.5 -6.5t121 25q-23 -50 -66 -61t-73 -27.5t-25 -108.5l2 -1507q0 -93 28 -121.5t70 -38t67.5 -9.5t51.5 19q-11 -29 -22 -41.5t-35 -23.5t-88 -9t-132.5 18.5t-144 12.5t-176.5 -36q27 54 67 73.5t67.5 47t27.5 98.5l-1 1519 q3 78 -37.5 107.5t-140.5 13.5zM210 1823l10 29l181 158q54 45 103 36.5t120 20.5q-22 -121 -105.5 -177.5t-308.5 -66.5z" />
<glyph unicode="&#xce;" horiz-adv-x="659" d="M61 1836q239 39 407 305q162 -276 356 -288q-66 -23 -131 -23q-114 0 -227 70q-125 -76 -279 -76q-61 0 -126 12zM87 1637q72 72 176.5 70t163 -14.5t99.5 -6.5t121 25q-23 -50 -66 -61t-73 -27.5t-25 -108.5l2 -1507q0 -93 28 -121.5t70 -38t67.5 -9.5t51.5 19 q-11 -29 -22 -41.5t-35 -23.5t-88 -9t-132.5 18.5t-144 12.5t-176.5 -36q27 54 67 73.5t67.5 47t27.5 98.5l-1 1519q3 78 -37.5 107.5t-140.5 13.5z" />
<glyph unicode="&#xd1;" horiz-adv-x="1797" d="M-101 -288q65 142 156.5 166.5t108.5 54t20 123.5q0 1502 -8.5 1563.5t-137.5 126.5q118 3 199 -47.5t351 -387.5l404 -521q69 8 134 34q-28 -77 -62 -123l497 -614v1494q-20 97 -129 102q-60 6 -61.5 31.5t27.5 31.5q188 -45 428 6q20 6 28.5 -20t-8.5 -34 q-126 -29 -126 -180v-1544q0 -225 143 -388q-74 0 -144 24.5t-327 303.5l-483 613q-45 -3 -134 -32q29 95 60 129l-488 611v-1117q0 -51 3 -104.5t41.5 -96.5t112.5 -53t166 42q-29 -100 -149 -106q-403 3 -457 -8.5t-165 -79.5zM362 1842q34 -6 55 8q200 128 409.5 73 t361 -29.5t164.5 101.5l13 -52q-118 -139 -267 -177t-317.5 30t-402.5 11z" />
<glyph unicode="&#xd2;" horiz-adv-x="1879" d="M-60 710q66 92 149 103q61 459 277 672.5t547 231.5q378 -11 582 -225t271 -628q78 -2 149 -57q-99 -41 -151 -86q-38 -461 -246.5 -694.5t-590.5 -237.5q-394 20 -586.5 229t-242.5 663q-103 54 -158 29zM326 794q77 -21 204 -14q-72 -73 -193 -105q23 -403 157.5 -552 t435.5 -179q319 24 446.5 228t133.5 529q-70 17 -147 79q81 4 138 45q-13 389 -154 561t-444 170q-275 -16 -419.5 -207t-157.5 -555zM585 2082q71 -29 120 -20.5t103 -36.5l181 -158l10 -29q-225 10 -308.5 66.5t-105.5 177.5z" />
<glyph unicode="&#xd3;" horiz-adv-x="1889" d="M-60 710q66 92 149 103q61 459 277 672.5t547 231.5q378 -11 582 -225t271 -628q78 -2 149 -57q-99 -41 -151 -86q-38 -461 -246.5 -694.5t-590.5 -237.5q-394 20 -586.5 229t-242.5 663q-103 54 -158 29zM326 794q77 -21 204 -14q-72 -73 -193 -105q23 -403 157.5 -552 t435.5 -179q319 24 446.5 228t133.5 529q-70 17 -147 79q81 4 138 45q-13 389 -154 561t-444 170q-275 -16 -419.5 -207t-157.5 -555zM925 1828l10 29l181 158q54 45 103 36.5t120 20.5q-22 -121 -105.5 -177.5t-308.5 -66.5z" />
<glyph unicode="&#xd4;" horiz-adv-x="1904" d="M-60 710q66 92 149 103q61 459 277 672.5t547 231.5q378 -11 582 -225t271 -628q78 -2 149 -57q-99 -41 -151 -86q-38 -461 -246.5 -694.5t-590.5 -237.5q-394 20 -586.5 229t-242.5 663q-103 54 -158 29zM326 794q77 -21 204 -14q-72 -73 -193 -105q23 -403 157.5 -552 t435.5 -179q319 24 446.5 228t133.5 529q-70 17 -147 79q81 4 138 45q-13 389 -154 561t-444 170q-275 -16 -419.5 -207t-157.5 -555zM691 1841q239 39 407 305q162 -276 356 -288q-66 -23 -131 -23q-114 0 -227 70q-125 -76 -279 -76q-61 0 -126 12z" />
<glyph unicode="&#xd9;" horiz-adv-x="1784" d="M-60 1682l32 25q111 -13 184.5 -4.5t168.5 7.5t126 -69q-86 24 -121 -5t-35 -159v-486l107 -54l-69 -35l-38 -45v-438q-10 -273 155 -380t346 -112q295 5 424 162t119 340v427l-56 25l-61 51l117 41v506q3 100 -35 146t-92 32l1 14q56 32 130.5 24.5t123.5 -11t110 7.5 t112 -35q-71 -5 -115 -30.5t-44 -155.5v-496l108 -51l-74 -39l-34 -38v-425q-12 -303 -183.5 -473.5t-549.5 -170.5q-336 -2 -514 152.5t-192 478.5v445l-101 84l107 50l1 493q-2 70 -20.5 121t-137.5 80zM710 2072q71 -29 120 -20.5t103 -36.5l181 -158l10 -29 q-225 10 -308.5 66.5t-105.5 177.5z" />
<glyph unicode="&#xda;" horiz-adv-x="1759" d="M-60 1682l32 25q111 -13 184.5 -4.5t168.5 7.5t126 -69q-86 24 -121 -5t-35 -159v-486l107 -54l-69 -35l-38 -45v-438q-10 -273 155 -380t346 -112q295 5 424 162t119 340v427l-56 25l-61 51l117 41v506q3 100 -35 146t-92 32l1 14q56 32 130.5 24.5t123.5 -11t110 7.5 t112 -35q-71 -5 -115 -30.5t-44 -155.5v-496l108 -51l-74 -39l-34 -38v-425q-12 -303 -183.5 -473.5t-549.5 -170.5q-336 -2 -514 152.5t-192 478.5v445l-101 84l107 50l1 493q-2 70 -20.5 121t-137.5 80zM860 1838l10 29l181 158q54 45 103 36.5t120 20.5 q-22 -121 -105.5 -177.5t-308.5 -66.5z" />
<glyph unicode="&#xdb;" horiz-adv-x="1799" d="M-60 1682l32 25q111 -13 184.5 -4.5t168.5 7.5t126 -69q-86 24 -121 -5t-35 -159v-486l107 -54l-69 -35l-38 -45v-438q-10 -273 155 -380t346 -112q295 5 424 162t119 340v427l-56 25l-61 51l117 41v506q3 100 -35 146t-92 32l1 14q56 32 130.5 24.5t123.5 -11t110 7.5 t112 -35q-71 -5 -115 -30.5t-44 -155.5v-496l108 -51l-74 -39l-34 -38v-425q-12 -303 -183.5 -473.5t-549.5 -170.5q-336 -2 -514 152.5t-192 478.5v445l-101 84l107 50l1 493q-2 70 -20.5 121t-137.5 80zM691 1836q239 39 407 305q162 -276 356 -288q-66 -23 -131 -23 q-114 0 -227 70q-125 -76 -279 -76q-61 0 -126 12z" />
<glyph unicode="&#xe0;" horiz-adv-x="1494" d="M-249 1852q71 -29 120 -20.5t103 -36.5l181 -158l10 -29q-225 10 -308.5 66.5t-105.5 177.5zM-51 -152q82 -2 125 66l214 477q-58 31 -113 2q51 84 154 72l404 890l421 -890q98 2 147 -89q-52 41 -103 8l198 -433q36 -56 67 -77.5t85 -29.5q-12 -19 -15 -39 q-156 12 -300 0q-37 -3 -67 -3q-85 0 -108 26q43 4 61.5 15t29.5 42t6 68t-62 147l-99 208q-105 -12 -271 -156q-153 142 -297 196q-105 -241 -121.5 -293.5t-22.5 -90.5t12.5 -57.5t46 -29.5t56.5 -16.5t105 4.5q-37 -40 -66 -49t-55.5 -8t-86.5 12.5t-96 14.5t-87.5 -12.5 t-94.5 -10.5t-67 36zM469 438q140 -30 254 -92q112 62 234 78l-242 585z" />
<glyph unicode="&#xe1;" horiz-adv-x="1504" d="M-51 -152q82 -2 125 66l214 477q-58 31 -113 2q51 84 154 72l404 890l421 -890q98 2 147 -89q-52 41 -103 8l198 -433q36 -56 67 -77.5t85 -29.5q-12 -19 -15 -39q-156 12 -300 0q-37 -3 -67 -3q-85 0 -108 26q43 4 61.5 15t29.5 42t6 68t-62 147l-99 208 q-105 -12 -271 -156q-153 142 -297 196q-105 -241 -121.5 -293.5t-22.5 -90.5t12.5 -57.5t46 -29.5t56.5 -16.5t105 4.5q-37 -40 -66 -49t-55.5 -8t-86.5 12.5t-96 14.5t-87.5 -12.5t-94.5 -10.5t-67 36zM140 1608l10 29l181 158q54 45 103 36.5t120 20.5 q-22 -121 -105.5 -177.5t-308.5 -66.5zM469 438q140 -30 254 -92q112 62 234 78l-242 585z" />
<glyph unicode="&#xe2;" horiz-adv-x="1504" d="M-153 1537q239 39 407 305q162 -276 356 -288q-66 -23 -131 -23q-114 0 -227 70q-125 -76 -279 -76q-61 0 -126 12zM-51 -152q82 -2 125 66l214 477q-58 31 -113 2q51 84 154 72l404 890l421 -890q98 2 147 -89q-52 41 -103 8l198 -433q36 -56 67 -77.5t85 -29.5 q-12 -19 -15 -39q-156 12 -300 0q-37 -3 -67 -3q-85 0 -108 26q43 4 61.5 15t29.5 42t6 68t-62 147l-99 208q-105 -12 -271 -156q-153 142 -297 196q-105 -241 -121.5 -293.5t-22.5 -90.5t12.5 -57.5t46 -29.5t56.5 -16.5t105 4.5q-37 -40 -66 -49t-55.5 -8t-86.5 12.5 t-96 14.5t-87.5 -12.5t-94.5 -10.5t-67 36zM469 438q140 -30 254 -92q112 62 234 78l-242 585z" />
<glyph unicode="&#xe8;" horiz-adv-x="1301" d="M12 1292l572 -2q552 -3 580.5 3.5t100.5 37.5q-120 -121 -115 -269l-26 -18q-22 73 -79 89t-331 13l-297 -3l1 -424q72 17 181.5 -2.5t206.5 -132.5q-268 58 -388 -81l-7 -536q446 1 645 5q37 6 80 75t90 102t116 20q-57 -33 -81.5 -103t-30 -140.5t22.5 -124.5l-448 9 q-600 9 -742 -15l-3 30q115 43 159 102l8 615q-39 50 -160 65q70 91 166 90l-5 364q0 100 -44 148.5t-167 48.5zM370 1852q71 -29 120 -20.5t103 -36.5l181 -158l10 -29q-225 10 -308.5 66.5t-105.5 177.5z" />
<glyph unicode="&#xe9;" horiz-adv-x="1301" d="M12 1292l572 -2q552 -3 580.5 3.5t100.5 37.5q-120 -121 -115 -269l-26 -18q-22 73 -79 89t-331 13l-297 -3l1 -424q72 17 181.5 -2.5t206.5 -132.5q-268 58 -388 -81l-7 -536q446 1 645 5q37 6 80 75t90 102t116 20q-57 -33 -81.5 -103t-30 -140.5t22.5 -124.5l-448 9 q-600 9 -742 -15l-3 30q115 43 159 102l8 615q-39 50 -160 65q70 91 166 90l-5 364q0 100 -44 148.5t-167 48.5zM706 1608l10 29l181 158q54 45 103 36.5t120 20.5q-22 -121 -105.5 -177.5t-308.5 -66.5z" />
<glyph unicode="&#xea;" horiz-adv-x="1324" d="M12 1292l572 -2q552 -3 580.5 3.5t100.5 37.5q-120 -121 -115 -269l-26 -18q-22 73 -79 89t-331 13l-297 -3l1 -424q72 17 181.5 -2.5t206.5 -132.5q-268 58 -388 -81l-7 -536q446 1 645 5q37 6 80 75t90 102t116 20q-57 -33 -81.5 -103t-30 -140.5t22.5 -124.5l-448 9 q-600 9 -742 -15l-3 30q115 43 159 102l8 615q-39 50 -160 65q70 91 166 90l-5 364q0 100 -44 148.5t-167 48.5zM406 1541q239 39 407 305q162 -276 356 -288q-66 -23 -131 -23q-114 0 -227 70q-125 -76 -279 -76q-61 0 -126 12z" />
<glyph unicode="&#xec;" horiz-adv-x="663" d="M26 1852q71 -29 120 -20.5t103 -36.5l181 -158l10 -29q-225 10 -308.5 66.5t-105.5 177.5zM61 1196q58 85 155 85q126 -8 184.5 -20t99.5 -6t121 25l-8 -24q-15 -26 -58 -37t-73 -27.5t-25 -109.5v-1061q0 -95 27.5 -123.5t69.5 -38t68 -9.5t54 19q-14 -29 -25 -41 t-35 -23.5t-118.5 -9t-132.5 13.5t-107 13.5t-132 -31.5q25 63 50.5 82.5t43 42t17.5 94.5v1074q0 97 -43 112.5t-73.5 15t-59.5 -15.5z" />
<glyph unicode="&#xed;" horiz-adv-x="657" d="M61 1196q58 85 155 85q126 -8 184.5 -20t99.5 -6t121 25l-8 -24q-15 -26 -58 -37t-73 -27.5t-25 -109.5v-1061q0 -95 27.5 -123.5t69.5 -38t68 -9.5t54 19q-14 -29 -25 -41t-35 -23.5t-118.5 -9t-132.5 13.5t-107 13.5t-132 -31.5q25 63 50.5 82.5t43 42t17.5 94.5v1074 q0 97 -43 112.5t-73.5 15t-59.5 -15.5zM270 1608l10 29l181 158q54 45 103 36.5t120 20.5q-22 -121 -105.5 -177.5t-308.5 -66.5z" />
<glyph unicode="&#xee;" horiz-adv-x="594" d="M61 1196q58 85 155 85q126 -8 184.5 -20t99.5 -6t121 25l-8 -24q-15 -26 -58 -37t-73 -27.5t-25 -109.5v-1061q0 -95 27.5 -123.5t69.5 -38t68 -9.5t54 19q-14 -29 -25 -41t-35 -23.5t-118.5 -9t-132.5 13.5t-107 13.5t-132 -31.5q25 63 50.5 82.5t43 42t17.5 94.5v1074 q0 97 -43 112.5t-73.5 15t-59.5 -15.5zM61 1541q239 39 407 305q162 -276 356 -288q-66 -23 -131 -23q-114 0 -227 70q-125 -76 -279 -76q-61 0 -126 12z" />
<glyph unicode="&#xf1;" horiz-adv-x="1627" d="M-8 1320h16q210 0 399 -209l464 -505q49 22 65 98q31 -44 9 -180l393 -440v922q-2 160 -107 187q-93 24 -184 -31q47 106 143.5 102t181 -14t153.5 4t84 26q-13 -54 -38.5 -65t-53.5 -41t-28 -119v-1173q0 -78 31 -102t74 -42q-40 -12 -76 -12q-40 0 -74 15 q-66 30 -161 123l-518 502q-60 -13 -125 -55q31 86 69 120l-429 457v-835q10 -146 104 -182t163 -5q-16 -53 -48 -68.5t-116.5 -4.5t-138 17.5t-106.5 4.5t-93 53q69 -1 85.5 22t16.5 125v836q2 282 -45.5 354t-109.5 115zM341 1532q34 -6 55 8q200 128 409 73t360.5 -29.5 t165.5 101.5l12 -52q-118 -139 -267 -177t-317.5 30t-402.5 11z" />
<glyph unicode="&#xf2;" horiz-adv-x="1489" d="M-44 446q65 91 147 102q23 310 214.5 514t484.5 212q293 0 477.5 -207.5t218.5 -391.5q77 -2 147 -57q-98 -40 -149 -85q-15 -316 -210 -530t-482 -214q-291 0 -476 215t-216 413q-102 54 -156 29zM332 539q77 -21 181 -14q-49 -73 -170 -105q23 -186 178 -345t349 -145 q193 26 306.5 219t92.5 373q-70 17 -147 79q81 4 138 45q-25 193 -180 356.5t-348 142.5q-191 -24 -300.5 -213t-99.5 -393zM405 1852q71 -29 120 -20.5t103 -36.5l181 -158l10 -29q-225 10 -308.5 66.5t-105.5 177.5z" />
<glyph unicode="&#xf3;" horiz-adv-x="1489" d="M-44 446q65 91 147 102q23 310 214.5 514t484.5 212q293 0 477.5 -207.5t218.5 -391.5q77 -2 147 -57q-98 -40 -149 -85q-15 -316 -210 -530t-482 -214q-291 0 -476 215t-216 413q-102 54 -156 29zM332 539q77 -21 181 -14q-49 -73 -170 -105q23 -186 178 -345t349 -145 q193 26 306.5 219t92.5 373q-70 17 -147 79q81 4 138 45q-25 193 -180 356.5t-348 142.5q-191 -24 -300.5 -213t-99.5 -393zM880 1608l10 29l181 158q54 45 103 36.5t120 20.5q-22 -121 -105.5 -177.5t-308.5 -66.5z" />
<glyph unicode="&#xf4;" horiz-adv-x="1484" d="M-44 446q65 91 147 102q23 310 214.5 514t484.5 212q293 0 477.5 -207.5t218.5 -391.5q77 -2 147 -57q-98 -40 -149 -85q-15 -316 -210 -530t-482 -214q-291 0 -476 215t-216 413q-102 54 -156 29zM332 539q77 -21 181 -14q-49 -73 -170 -105q23 -186 178 -345t349 -145 q193 26 306.5 219t92.5 373q-70 17 -147 79q81 4 138 45q-25 193 -180 356.5t-348 142.5q-191 -24 -300.5 -213t-99.5 -393zM588 1541q239 39 407 305q162 -276 356 -288q-66 -23 -131 -23q-114 0 -227 70q-125 -76 -279 -76q-61 0 -126 12z" />
<glyph unicode="&#xf9;" d="M-60 1257l32 24q111 -12 184.5 -3.5t168.5 7.5t126 -69q-86 24 -121 -5.5t-35 -158.5v-364l107 -55l-69 -34l-38 -45v-135q-10 -273 155 -380t304 -112q215 5 344 162t119 340v124l-56 24l-61 51l117 42v400q3 100 -35 146t-91 32v14q56 32 131 24.5t123.5 -11t109.5 7.5 t112 -35q-70 -5 -114 -30.5t-44 -155.5v-390l107 -52l-73 -38l-34 -38v-122q-12 -303 -184 -473.5t-470 -170.5q-294 -2 -472 152.5t-192 478.5v141l-101 85l107 50l1 370q-2 70 -20.5 121.5t-137.5 80.5zM525 1852q71 -29 120 -20.5t103 -36.5l181 -158l10 -29 q-225 10 -308.5 66.5t-105.5 177.5z" />
<glyph unicode="&#xfa;" d="M-60 1257l32 24q111 -12 184.5 -3.5t168.5 7.5t126 -69q-86 24 -121 -5.5t-35 -158.5v-364l107 -55l-69 -34l-38 -45v-135q-10 -273 155 -380t304 -112q215 5 344 162t119 340v124l-56 24l-61 51l117 42v400q3 100 -35 146t-91 32v14q56 32 131 24.5t123.5 -11t109.5 7.5 t112 -35q-70 -5 -114 -30.5t-44 -155.5v-390l107 -52l-73 -38l-34 -38v-122q-12 -303 -184 -473.5t-470 -170.5q-294 -2 -472 152.5t-192 478.5v141l-101 85l107 50l1 370q-2 70 -20.5 121.5t-137.5 80.5zM855 1608l10 29l181 158q54 45 103 36.5t120 20.5 q-22 -121 -105.5 -177.5t-308.5 -66.5z" />
<glyph unicode="&#xfb;" d="M-60 1257l32 24q111 -12 184.5 -3.5t168.5 7.5t126 -69q-86 24 -121 -5.5t-35 -158.5v-364l107 -55l-69 -34l-38 -45v-135q-10 -273 155 -380t304 -112q215 5 344 162t119 340v124l-56 24l-61 51l117 42v400q3 100 -35 146t-91 32v14q56 32 131 24.5t123.5 -11t109.5 7.5 t112 -35q-70 -5 -114 -30.5t-44 -155.5v-390l107 -52l-73 -38l-34 -38v-122q-12 -303 -184 -473.5t-470 -170.5q-294 -2 -472 152.5t-192 478.5v141l-101 85l107 50l1 370q-2 70 -20.5 121.5t-137.5 80.5zM616 1541q239 39 407 305q162 -276 356 -288q-66 -23 -131 -23 q-114 0 -227 70q-125 -76 -279 -76q-61 0 -126 12z" />
<glyph unicode="&#x2c6;" horiz-adv-x="723" d="M61 1541q239 39 407 305q162 -276 356 -288q-66 -23 -131 -23q-114 0 -227 70q-125 -76 -279 -76q-61 0 -126 12z" />
<glyph unicode="&#x2000;" horiz-adv-x="1132" />
<glyph unicode="&#x2001;" horiz-adv-x="2264" />
<glyph unicode="&#x2002;" horiz-adv-x="1132" />
<glyph unicode="&#x2003;" horiz-adv-x="2264" />
<glyph unicode="&#x2004;" horiz-adv-x="754" />
<glyph unicode="&#x2005;" horiz-adv-x="566" />
<glyph unicode="&#x2006;" horiz-adv-x="377" />
<glyph unicode="&#x2007;" horiz-adv-x="377" />
<glyph unicode="&#x2008;" horiz-adv-x="283" />
<glyph unicode="&#x2009;" horiz-adv-x="452" />
<glyph unicode="&#x200a;" horiz-adv-x="125" />
<glyph unicode="&#x202f;" horiz-adv-x="452" />
<glyph unicode="&#x205f;" horiz-adv-x="566" />
<glyph unicode="&#xe000;" horiz-adv-x="1310" d="M0 0v1310h1310v-1310h-1310z" />
</font>
</defs>
</svg>
