<?xml version="1.0" standalone="no"?>
<!DOCTYPE svg PUBLIC "-//W3C//DTD SVG 1.1//EN" "http://www.w3.org/Graphics/SVG/1.1/DTD/svg11.dtd" >
<svg xmlns="http://www.w3.org/2000/svg">
<metadata></metadata>
<defs>
<font id="NewsGothicFSBookRegular" horiz-adv-x="1009" >
<font-face units-per-em="2048" ascent="1638" descent="-410" />
<missing-glyph horiz-adv-x="512" />
<glyph unicode="&#xfb01;" horiz-adv-x="935" d="M20 868v105h150v84q0 172 53.5 250.5t194.5 78.5q48 0 92 -8v-114q-56 12 -80 12q-72 0 -99.5 -42t-27.5 -130v-131h504v-973h-133v868h-371v-868h-133v868h-150zM674 1161v150h133v-150h-133z" />
<glyph unicode="&#xfb02;" horiz-adv-x="935" d="M20 860v113h150v84q0 172 53.5 250.5t194.5 78.5q48 0 92 -8v-114q-56 12 -80 12q-72 0 -99.5 -42t-27.5 -130v-131h207v-113h-207v-860h-133v860h-150zM674 0v1366h133v-1366h-133z" />
<glyph unicode="&#xfb03;" horiz-adv-x="1439" d="M20 868v105h150v84q0 172 53.5 250.5t194.5 78.5q48 0 92 -8v-114q-56 12 -80 12q-72 0 -99.5 -42t-27.5 -130v-131h371v84q0 172 53.5 250.5t194.5 78.5q46 0 90 -8v-114q-55 12 -80 12q-35 0 -65 -15t-42 -40q-18 -32 -18 -117v-131h502v-973h-133v868h-369v-868h-133 v868h-371v-868h-133v868h-150zM1176 1161v150h133v-150h-133z" />
<glyph unicode="&#xfb04;" horiz-adv-x="1439" d="M20 868v105h150v84q0 172 53.5 250.5t194.5 78.5q48 0 92 -8v-114q-56 12 -80 12q-72 0 -99.5 -42t-27.5 -130v-131h371v84q0 172 53.5 250.5t194.5 78.5q46 0 90 -8v-114q-55 12 -80 12q-35 0 -65 -15t-42 -40q-18 -32 -18 -117v-131h205v-105h-205v-868h-133v868h-371 v-868h-133v868h-150zM1176 0v1366h133v-1366h-133z" />
<glyph horiz-adv-x="0" />
<glyph horiz-adv-x="2048" />
<glyph unicode=" "  horiz-adv-x="512" />
<glyph unicode="&#x09;" horiz-adv-x="512" />
<glyph unicode="&#xa0;" horiz-adv-x="512" />
<glyph unicode="!" horiz-adv-x="546" d="M190 0v190h164v-190h-164zM190 1366h164l-30 -934h-103z" />
<glyph unicode="&#x22;" horiz-adv-x="763" d="M123 1366h137l-20 -547h-99zM506 1366h135l-18 -547h-99z" />
<glyph unicode="#" d="M2 416l25 123h217l61 315h-219l25 123h219l76 389h124l-75 -389h207l75 389h129l-75 -389h219l-25 -123h-219l-59 -315h217l-23 -123h-219l-82 -416h-129l82 416h-207l-80 -416h-127l82 416h-219zM371 539h204l62 315h-205z" />
<glyph unicode="$" d="M90 344l129 45q35 -132 97 -203t159 -90v553q-118 51 -168.5 80.5t-81.5 65.5q-84 96 -84 237q0 150 88.5 245.5t245.5 115.5v147h86v-147q117 -3 212 -100t124 -244l-127 -37q-22 110 -78 180t-131 82v-510q98 -42 164 -74q94 -50 144.5 -136t50.5 -196 q0 -164 -96.5 -265.5t-262.5 -112.5v-136h-86v136q-135 10 -239.5 109t-145.5 255zM270 1044q0 -91 50 -151.5t155 -97.5v483q-93 -9 -149 -73t-56 -161zM561 90q101 5 164 74t63 178q0 66 -29.5 125t-80.5 94q-38 28 -117 57v-528z" />
<glyph unicode="%" horiz-adv-x="1064" d="M78 1079q0 138 58.5 219.5t158.5 81.5q68 0 122 -41.5t77 -113.5q18 -67 18 -154q0 -137 -60 -219t-161 -82q-100 0 -156.5 81.5t-56.5 227.5zM104 0l756 1366h101l-754 -1366h-103zM178 1079q0 -219 115 -219q59 0 90 52.5t31 152.5q0 231 -115 231q-59 0 -90 -55.5 t-31 -161.5zM559 297q0 136 60.5 218.5t160.5 82.5q101 0 158 -82t57 -229q0 -133 -60 -216t-157 -83q-101 0 -160 83t-59 226zM664 285q0 -209 112 -209q57 0 88 58.5t31 164.5q0 103 -29.5 157t-85.5 54q-60 0 -88 -54.5t-28 -170.5z" />
<glyph unicode="&#x26;" horiz-adv-x="1136" d="M82 367q0 159 115 280q8 8 18 15t22.5 14.5t43.5 31t73 58.5l13 10q-56 106 -78.5 176.5t-22.5 139.5q0 132 72.5 213t191.5 81q117 0 189 -75t72 -197q0 -123 -78 -219q-22 -27 -51 -53.5t-107 -87.5l-18 -15q112 -176 284 -403q39 72 70.5 167.5t38.5 168.5l125 -21 q-19 -206 -152 -407q40 -48 108.5 -89.5t100.5 -35.5v-121q-69 -3 -138.5 31.5t-152.5 113.5q-94 -91 -171.5 -127t-178.5 -36q-166 0 -277.5 111.5t-111.5 275.5zM217 373q0 -118 73 -200.5t177 -82.5q145 0 276 137q-71 72 -138 164t-185 279q-113 -77 -158 -142.5 t-45 -154.5zM403 1120q0 -114 78 -274q30 26 33 28q76 63 108.5 119t32.5 125q0 67 -35 112.5t-88 45.5q-55 0 -92 -45t-37 -111z" />
<glyph unicode="'" horiz-adv-x="382" d="M123 1366h137l-20 -547h-99z" />
<glyph unicode="(" horiz-adv-x="538" d="M150 543q0 199 62.5 452t149.5 406l115 -39q-92 -225 -133 -423t-41 -415q0 -212 41.5 -406t132.5 -405l-102 -41q-102 171 -163.5 409t-61.5 462z" />
<glyph unicode=")" horiz-adv-x="538" d="M61 -287q91 212 133 405t42 406q0 217 -41 413.5t-134 424.5l115 39q88 -153 150.5 -406.5t62.5 -451.5q0 -224 -61.5 -462t-163.5 -409z" />
<glyph unicode="*" horiz-adv-x="770" d="M109 1133l26 81l219 -77l-16 229h92l-8 -229l213 77l27 -81l-220 -66l146 -184l-72 -52l-131 189l-131 -189l-70 52l142 184z" />
<glyph unicode="+" d="M82 541v92h377v377h92v-377h377v-92h-377v-377h-92v377h-377z" />
<glyph unicode="," horiz-adv-x="491" d="M137 -272l94 272h-67v190h164v-190l-97 -272h-94z" />
<glyph unicode="-" horiz-adv-x="409" d="M0 420v129h410v-129h-410z" />
<glyph unicode="." horiz-adv-x="491" d="M164 0v190h164v-190h-164z" />
<glyph unicode="/" horiz-adv-x="921" d="M14 -328l666 1694h104l-667 -1694h-103z" />
<glyph unicode="0" d="M82 682q0 334 111.5 518t312.5 184q108 0 197.5 -58t136.5 -159q88 -183 88 -483q0 -264 -72 -446q-46 -118 -141 -187t-211 -69q-117 0 -211 69.5t-141 190.5q-70 180 -70 440zM213 676q0 -278 75.5 -428t213.5 -150q69 0 127 42t98 120q68 136 68 432q0 338 -99 473 q-77 103 -184 103q-144 0 -221.5 -153.5t-77.5 -438.5z" />
<glyph unicode="1" d="M246 1192v90l264 96h98v-1255h187v-123h-527v123h203v1089z" />
<glyph unicode="2" d="M104 0v106q33 111 136.5 246.5t240.5 251.5q103 87 143 127t66 80q62 95 62 197q0 110 -68 185t-168 75q-66 0 -126.5 -38t-92.5 -100q-34 -62 -64 -176l-129 33q36 134 72 201q49 91 141 143.5t201 52.5q164 0 265.5 -106.5t101.5 -278.5q0 -147 -90 -268 q-57 -73 -226 -209q-120 -97 -217 -212t-119 -187h654v-123h-783z" />
<glyph unicode="3" d="M80 246l106 73q73 -118 148 -169.5t172 -51.5q121 0 195.5 76t74.5 201q0 140 -86.5 212t-253.5 72q-44 0 -104 -8v135q94 -4 108 -4q148 0 224.5 64.5t76.5 187.5q0 104 -64.5 169t-168.5 65q-83 0 -147.5 -40.5t-127.5 -131.5l-100 78q69 102 166.5 156t212.5 54 q160 0 261 -94.5t101 -245.5q0 -232 -223 -319q126 -37 192 -124.5t66 -217.5q0 -180 -112.5 -290.5t-294.5 -110.5q-136 0 -235 62t-187 202z" />
<glyph unicode="4" d="M84 338v108l491 936h199v-921h207v-123h-207v-338h-137v338h-553zM215 461h422v618l-6 97q-1 9 2 61q1 4 1.5 11.5t1 21.5t1.5 24q-18 -75 -41 -116z" />
<glyph unicode="5" d="M123 236l113 65q54 -106 119.5 -154.5t154.5 -48.5q129 0 203.5 100t74.5 275q0 152 -69 240t-189 88q-84 0 -155.5 -52.5t-100.5 -134.5l-114 29l45 723h631v-123h-510l-31 -434q95 109 252 109q169 0 272 -124t103 -327q0 -220 -116 -352.5t-308 -132.5 q-124 0 -221.5 66t-153.5 188z" />
<glyph unicode="6" d="M100 569q0 386 138 600.5t385 214.5q69 0 128 -18.5t146 -67.5l-68 -106q-64 42 -109 59t-97 17q-206 0 -312 -236q-54 -121 -80 -350q61 96 137 140t179 44q167 0 275 -120t108 -306q0 -198 -115.5 -328t-292.5 -130q-195 0 -308.5 158t-113.5 429zM231 504 q8 -139 50 -234q34 -79 99.5 -125.5t143.5 -46.5q120 0 196.5 95t76.5 245q0 141 -69.5 226.5t-186.5 85.5q-193 0 -310 -246z" />
<glyph unicode="7" d="M106 1243v123h768v-82l-499 -1284h-154l510 1243h-625z" />
<glyph unicode="8" d="M72 352q0 250 288 375q-127 66 -184 144t-57 184q0 145 111 237t284 92q166 0 272.5 -92.5t106.5 -238.5q0 -109 -59 -186t-191 -140q155 -71 225 -157.5t70 -209.5q0 -170 -121.5 -274t-320.5 -104q-189 0 -306.5 103t-117.5 267zM203 356q0 -112 86.5 -185t220.5 -73 q131 0 214 72t83 184q0 71 -36 129.5t-103 96.5q-44 26 -189 90q-146 -61 -211 -135.5t-65 -178.5zM252 1051q0 -125 127 -201q61 -33 139 -70q137 59 190.5 116.5t53.5 147.5q0 101 -69 162.5t-183 61.5q-113 0 -185.5 -61t-72.5 -156z" />
<glyph unicode="9" d="M80 930q0 196 115.5 325t291.5 129q195 0 308.5 -158t113.5 -429q0 -386 -137.5 -600.5t-384.5 -214.5q-69 0 -127.5 19.5t-146.5 70.5l67 106q63 -45 109 -62.5t100 -17.5q204 0 309 238q54 121 80 350q-61 -95 -136.5 -138.5t-178.5 -43.5q-168 0 -275.5 119.5 t-107.5 306.5zM213 930q0 -141 69.5 -225t186.5 -84q194 0 309 245q-10 192 -87 297t-206 105q-120 0 -196 -94.5t-76 -243.5z" />
<glyph unicode=":" horiz-adv-x="491" d="M164 0v190h164v-190h-164zM164 782v191h164v-191h-164z" />
<glyph unicode=";" horiz-adv-x="491" d="M137 -272l94 272h-67v190h164v-190l-97 -272h-94zM164 782v191h164v-191h-164z" />
<glyph unicode="&#x3c;" horiz-adv-x="1024" d="M68 631v117l886 409v-133l-743 -336l743 -336v-133z" />
<glyph unicode="=" d="M82 403v93h846v-93h-846zM82 678v92h846v-92h-846z" />
<glyph unicode="&#x3e;" horiz-adv-x="1024" d="M70 219v133l743 336l-743 336v133l886 -412v-116z" />
<glyph unicode="?" horiz-adv-x="702" d="M76 1196q102 184 274 184q109 0 181.5 -79t72.5 -199q0 -101 -45 -180q-26 -49 -48.5 -79t-117.5 -145q-37 -46 -49 -89.5t-12 -129.5v-45h-111q-2 35 -2 74q0 75 14 133q11 39 28.5 66t109.5 147q102 134 102 240q0 80 -38 129t-99 49q-51 0 -83.5 -27.5t-78.5 -109.5z M195 0v190h163v-190h-163z" />
<glyph unicode="@" horiz-adv-x="1460" d="M80 649q0 170 59 314.5t168 244.5q95 86 214 132t245 46q168 0 308.5 -76.5t222 -210t81.5 -292.5q0 -237 -178 -383q-59 -47 -125.5 -74.5t-124.5 -27.5q-55 0 -92 27t-49 77q-59 -56 -109 -80t-110 -24q-95 0 -156 70.5t-61 180.5q0 115 55 225t144 178t182 68 q124 0 178 -120l33 90h122l-161 -484q-19 -55 -19 -81q0 -28 20 -45t52 -17q93 0 184 102q119 132 119 310q0 138 -68 252.5t-186.5 179.5t-261.5 65q-126 0 -242 -53.5t-198 -150.5q-69 -80 -107.5 -196t-38.5 -245q0 -262 155 -420.5t410 -158.5q164 0 302 77.5t215 212.5 l100 -2q-31 -70 -68 -119t-96 -98q-195 -163 -455 -163q-194 0 -345 84t-234.5 236.5t-83.5 348.5zM508 541q0 -66 28 -104t76 -38q71 0 127 62q44 44 80 145l45 131q25 73 25 107q0 51 -30 85t-73 34q-65 0 -130 -62.5t-106.5 -161.5t-41.5 -198z" />
<glyph unicode="A" horiz-adv-x="995" d="M6 0l404 1378h206l379 -1378h-149l-115 432h-452l-127 -432h-146zM313 557h383l-159 594q-19 74 -25 113q-3 -24 -16 -72q-37 -122 -101.5 -349.5t-81.5 -285.5z" />
<glyph unicode="B" horiz-adv-x="1097" d="M158 0v1366h393q134 0 217 -26.5t135 -86.5q88 -101 88 -233q0 -117 -61 -197q-31 -40 -69.5 -62t-112.5 -42q145 -46 206.5 -125t61.5 -219q0 -192 -123 -293q-54 -43 -124.5 -62.5t-174.5 -19.5h-436zM305 125h232q119 0 176 13t94 48q65 62 65 181q0 91 -40 158 t-109 93q-101 37 -295 37h-123v-530zM305 780h170q107 0 167.5 9t102.5 32q46 25 73.5 79t27.5 118q0 170 -158 209q-61 14 -213 14h-170v-461z" />
<glyph unicode="C" horiz-adv-x="1120" d="M82 657q0 350 131 543t367 193q331 0 438 -408l-137 -35q-74 322 -303 322q-169 0 -261 -158.5t-92 -449.5q0 -182 41 -312q37 -118 121.5 -187t190.5 -69q90 0 156 46.5t118 142.5q36 68 47 141l139 -31q-46 -201 -167 -310.5t-296 -109.5q-233 0 -363 179.5t-130 502.5 z" />
<glyph unicode="D" horiz-adv-x="1155" d="M158 0v1366h227q172 0 270.5 -19.5t169.5 -68.5q121 -79 184.5 -230t63.5 -360q0 -214 -64 -370.5t-184 -231.5q-63 -40 -163 -63t-213 -23h-291zM305 125h98q140 0 195.5 9.5t122.5 43.5q103 52 156 180t53 322q0 177 -37 292t-115 181q-104 88 -350 88h-123v-1116z" />
<glyph unicode="E" horiz-adv-x="999" d="M158 0v1366h760v-125h-613v-461h449v-125h-449v-530h641v-125h-788z" />
<glyph unicode="F" horiz-adv-x="931" d="M158 0v1366h733v-125h-586v-461h436v-125h-436v-655h-147z" />
<glyph unicode="G" horiz-adv-x="1132" d="M82 684q0 330 138 520.5t376 190.5q170 0 286 -110.5t142 -297.5l-129 -37q-67 322 -305 322q-172 0 -268.5 -155t-96.5 -429q0 -289 94.5 -440.5t274.5 -151.5q101 0 172.5 56t105.5 159q20 65 23 217h-297v125h426v-653h-113v164q-75 -105 -149 -147t-184 -42 q-229 0 -362.5 190.5t-133.5 518.5z" />
<glyph unicode="H" horiz-adv-x="1230" d="M158 0v1366h147v-586h623v586h147v-1366h-147v655h-623v-655h-147z" />
<glyph unicode="I" horiz-adv-x="460" d="M158 0v1366h147v-1366h-147z" />
<glyph unicode="J" horiz-adv-x="757" d="M-6 176l119 68l10 -21q36 -72 71.5 -99.5t88.5 -27.5q55 0 98 31.5t65 87.5q13 36 17 83.5t4 193.5v874h147v-897q0 -131 -8 -193t-31 -114q-37 -86 -117.5 -136.5t-181.5 -50.5q-100 0 -169 49t-113 152z" />
<glyph unicode="K" horiz-adv-x="1087" d="M158 0v1366h147v-713l539 713h155l-387 -508l455 -858h-164l-383 737l-215 -274v-463h-147z" />
<glyph unicode="L" horiz-adv-x="903" d="M158 0v1366h147v-1241h592v-125h-739z" />
<glyph unicode="M" horiz-adv-x="1411" d="M158 0v1366h254l235 -846q54 -193 64 -284q6 83 59 274l234 856h249v-1366h-147v1282h-10q-30 -127 -41 -168l-297 -1114h-94l-314 1128l-16 50q-4 22 -29 104q-6 -40 -6 -55l2 -47q4 -58 4 -66v-1114h-147z" />
<glyph unicode="N" horiz-adv-x="1196" d="M158 0v1366h204l478 -932q31 -61 80 -188q-27 153 -27 338v782h147v-1366h-120l-558 1102q-25 49 -30 63l-25 60q-1 2 -3.5 8t-7.5 15.5t-9 19.5q18 -140 18 -334v-934h-147z" />
<glyph unicode="O" horiz-adv-x="1177" d="M82 688q0 322 137 513.5t367 191.5q129 0 235.5 -63t171.5 -177q103 -181 103 -463q0 -330 -136.5 -522.5t-371.5 -192.5q-233 0 -369.5 192t-136.5 521zM225 676q0 -275 96 -427.5t271 -152.5q173 0 266.5 156.5t93.5 449.5q0 138 -16.5 226t-56.5 162 q-49 88 -124.5 135t-164.5 47q-82 0 -156 -43t-117 -115q-92 -157 -92 -438z" />
<glyph unicode="P" horiz-adv-x="1030" d="M158 0v1366h344q94 0 149.5 -7.5t110.5 -27.5q100 -38 160.5 -133t60.5 -215q0 -168 -119 -278q-63 -57 -136.5 -78t-211.5 -21h-211v-606h-147zM305 731h201q100 0 153.5 12.5t94.5 44.5t63.5 83.5t22.5 111.5q0 78 -38.5 142t-99.5 87q-73 29 -219 29h-178v-510z" />
<glyph unicode="Q" horiz-adv-x="1177" d="M80 688q0 324 136.5 514.5t369.5 190.5t370.5 -188t137.5 -509q0 -315 -117 -501t-332 -215q11 -91 61.5 -127.5t165.5 -36.5q42 0 109 6v-123q-61 -6 -92 -6q-189 0 -277 67.5t-100 221.5q-207 37 -319.5 220.5t-112.5 485.5zM223 676q0 -275 96 -427.5t271 -152.5 q173 0 266.5 156.5t93.5 449.5q0 138 -16.5 226t-56.5 162q-49 88 -124.5 135t-164.5 47q-82 0 -156 -43t-117 -115q-92 -157 -92 -438z" />
<glyph unicode="R" horiz-adv-x="1046" d="M158 0v1366h342q105 0 165 -7.5t117 -27.5q100 -35 159.5 -125.5t59.5 -206.5q0 -125 -70 -217.5t-190 -126.5l265 -655h-160l-248 623l-20 4h-242l-31 -4v-623h-147zM305 748h187q123 0 182.5 11t97.5 42q86 67 86 196q0 160 -133 217q-71 27 -268 27h-152v-493z" />
<glyph unicode="S" horiz-adv-x="999" d="M41 344l133 45q33 -95 66 -145q43 -70 117 -109t165 -39q120 0 193 68.5t73 181.5q0 115 -96 195q-55 42 -176 84q-162 58 -217 86q-203 101 -203 317q0 160 113.5 262.5t290.5 102.5q311 0 409 -344l-133 -41q-64 264 -287 264q-108 0 -178.5 -64.5t-70.5 -163.5 q0 -46 15 -83.5t37 -63t61.5 -48.5t73.5 -37.5t89 -33.5q179 -64 264 -121q72 -50 112 -127.5t40 -169.5q0 -172 -114.5 -278.5t-299.5 -106.5q-178 0 -299.5 94.5t-177.5 274.5z" />
<glyph unicode="T" horiz-adv-x="929" d="M14 1241v125h904v-125h-381v-1241h-148v1241h-375z" />
<glyph unicode="U" horiz-adv-x="1173" d="M143 489v877h148v-887q0 -187 45 -262q71 -121 252 -121q88 0 154 33.5t100 95.5q41 77 41 236v905h147v-887q0 -130 -14.5 -199.5t-54.5 -129.5q-59 -85 -158.5 -130t-229.5 -45q-232 0 -346 148q-49 66 -66.5 142t-17.5 224z" />
<glyph unicode="V" horiz-adv-x="935" d="M6 1366h150l237 -846q58 -204 80 -340q11 83 33 174q13 46 26.5 100.5t16.5 65.5l244 846h137l-404 -1366h-118z" />
<glyph unicode="W" horiz-adv-x="1409" d="M20 1366h144q16 -81 82 -410t102 -507q22 -101 26.5 -136.5t7.5 -98.5q1 -14 1 -21q6 74 15 124.5t36 163.5l211 885h131l195 -868q28 -126 36.5 -175.5t12.5 -129.5q4 86 41 256q37 177 105.5 504t86.5 413h136l-318 -1374h-115l-206 936q-41 181 -45 254 q-3 -61 -11 -110.5t-32 -143.5l-228 -936h-121z" />
<glyph unicode="X" horiz-adv-x="962" d="M14 0l385 707l-356 659h162q23 -45 114 -221t140 -271q14 -25 20 -38l31 57l248 473h147l-344 -647l389 -719h-157l-283 537q-27 53 -31 59q-8 -12 -8 -16q-10 -23 -12 -25q-58 -107 -163.5 -304.5t-133.5 -250.5h-148z" />
<glyph unicode="Y" horiz-adv-x="903" d="M-20 1366h157l295 -575q6 -17 16.5 -41t14.5 -33q7 36 24 74l279 575h158l-392 -766v-600h-147v578z" />
<glyph unicode="Z" horiz-adv-x="901" d="M27 0v88l657 1153h-600v125h776v-96l-659 -1145h651v-125h-825z" />
<glyph unicode="[" horiz-adv-x="538" d="M170 -328v1694h328v-104h-205q7 -34 8.5 -63t1.5 -128v-1071q0 -138 -10 -223h205v-105h-328z" />
<glyph unicode="\" horiz-adv-x="921" d="M137 1366h107l663 -1694h-100z" />
<glyph unicode="]" horiz-adv-x="538" d="M41 -223h205q-10 85 -10 223v1071q0 99 1.5 128t8.5 63h-205v104h328v-1694h-328v105z" />
<glyph unicode="^" horiz-adv-x="1024" d="M57 756l367 612h176l367 -612h-148l-309 508l-307 -508h-146z" />
<glyph unicode="_" horiz-adv-x="1024" d="M0 -139h1024v-123h-1024v123z" />
<glyph unicode="`" horiz-adv-x="1024" d="M350 1341h154l76 -245h-103z" />
<glyph unicode="a" horiz-adv-x="899" d="M66 258q0 121 70 197t229 127q51 17 270 73q-2 83 -21 127q-20 46 -67.5 72.5t-110.5 26.5q-79 0 -141.5 -40.5t-99.5 -115.5l-105 70q54 96 142 146t202 50q154 0 248 -84q47 -43 66.5 -103.5t19.5 -164.5v-383q0 -145 27 -256h-146q-7 53 -14 156q-83 -102 -146.5 -139 t-154.5 -37q-121 0 -194.5 76t-73.5 202zM195 262q0 -75 43 -123.5t112 -48.5q143 0 285 197v260q-213 -60 -277 -88q-89 -38 -126 -83t-37 -114z" />
<glyph unicode="b" horiz-adv-x="942" d="M129 0v1366h133v-506q51 63 119 97t143 34q160 0 256.5 -134t96.5 -357q0 -232 -102.5 -376t-268.5 -144q-75 0 -131.5 29.5t-124.5 103.5l-25 -113h-96zM262 223q68 -75 117.5 -105t107.5 -30q121 0 191 109.5t70 300.5q0 185 -64 284t-184 99q-66 0 -111 -27t-127 -115 v-516z" />
<glyph unicode="c" horiz-adv-x="837" d="M66 479q0 230 107 371t280 141q228 0 319 -262l-121 -41q-22 90 -76.5 141.5t-128.5 51.5q-118 0 -184.5 -107.5t-66.5 -298.5q0 -178 67.5 -282.5t183.5 -104.5q74 0 132.5 49.5t95.5 143.5l110 -48q-102 -253 -335 -253q-173 0 -278 136.5t-105 362.5z" />
<glyph unicode="d" horiz-adv-x="940" d="M66 483q0 225 103 366.5t267 141.5q72 0 126 -29.5t114 -101.5v506h133v-1055q0 -187 14 -311h-133q-12 84 -12 100l-2 29q-55 -78 -115 -113.5t-135 -35.5q-161 0 -260.5 138.5t-99.5 364.5zM195 479q0 -177 65 -283t174 -106q66 0 129 43.5t113 122.5v496 q-62 71 -110.5 100t-108.5 29q-120 0 -191 -109.5t-71 -292.5z" />
<glyph unicode="e" horiz-adv-x="882" d="M66 494q0 225 104 361t276 136q170 0 261 -134.5t94 -389.5h-598q0 -172 72.5 -274.5t193.5 -102.5q79 0 135 41.5t119 147.5l94 -64q-59 -114 -149.5 -174.5t-202.5 -60.5q-181 0 -290 140.5t-109 373.5zM203 580h454q0 137 -58.5 219t-156.5 82q-62 0 -115.5 -34.5 t-82.5 -94.5q-21 -39 -29.5 -75t-11.5 -97z" />
<glyph unicode="f" horiz-adv-x="475" d="M20 860v113h150v84q0 172 53.5 250.5t194.5 78.5q48 0 92 -8v-114q-56 12 -80 12q-72 0 -99.5 -42t-27.5 -130v-131h207v-113h-207v-860h-133v860h-150z" />
<glyph unicode="g" horiz-adv-x="872" d="M63 -109q0 70 44.5 119.5t138.5 83.5q-64 10 -102 45.5t-38 85.5q0 44 32.5 81.5t107.5 80.5q-71 56 -104 121t-33 149q0 146 95.5 240t244.5 94q126 0 213 -67q99 86 223 86v-117h-21q-79 0 -143 -33q74 -96 74 -215q0 -140 -97.5 -235t-242.5 -95q-81 0 -148 33 l-14 -14l-16.5 -16.5t-13.5 -13t-9.5 -9.5t-7.5 -9t-5 -7t-3.5 -6.5t-1 -6.5t-0.5 -8q0 -21 9 -32.5t42.5 -21t87 -15t155.5 -11.5q141 -9 211.5 -32.5t114.5 -77.5q41 -51 41 -123q0 -129 -117.5 -202t-326.5 -73q-180 0 -285 60t-105 161zM193 -88q0 -131 262 -131 q149 0 231 39t82 110q0 94 -137 117q-36 6 -121.5 12.5t-132.5 6.5l-47 -19q-75 -30 -106 -59.5t-31 -75.5zM238 649q0 -100 58.5 -161.5t152.5 -61.5q97 0 157 62.5t60 162.5q0 101 -60 165.5t-155 64.5t-154 -64.5t-59 -167.5z" />
<glyph unicode="h" horiz-adv-x="952" d="M129 0v1366h133v-543q103 101 163 134.5t142 33.5q67 0 122.5 -27.5t86.5 -74.5q27 -39 37 -91.5t10 -156.5v-641h-133v641q0 115 -18 162q-12 34 -49 56t-80 22q-63 0 -142.5 -48t-138.5 -120v-713h-133z" />
<glyph unicode="i" horiz-adv-x="393" d="M129 0v973h133v-973h-133zM129 1161v150h133v-150h-133z" />
<glyph unicode="j" horiz-adv-x="393" d="M-6 -213q37 -6 49 -6q54 0 71 36.5t17 153.5v1002h133v-1043q0 -134 -33 -180q-56 -80 -174 -80q-19 0 -63 6v111zM131 1161v150h133v-150h-133z" />
<glyph unicode="k" horiz-adv-x="837" d="M129 0v1366h133v-895l379 502h141l-260 -340l299 -633h-141l-242 528l-176 -215v-313h-133z" />
<glyph unicode="l" horiz-adv-x="393" d="M129 0v1366h133v-1366h-133z" />
<glyph unicode="m" horiz-adv-x="1488" d="M129 0v973h133v-150q78 90 147.5 129t151.5 39q83 0 142.5 -45t82.5 -123q152 168 314 168q71 0 130.5 -29.5t88.5 -78.5q39 -65 39 -205v-678h-133v694q0 75 -21 113q-17 34 -51 54t-74 20q-62 0 -126.5 -36.5t-145.5 -117.5v-727h-133v678q0 75 -15 119q-15 38 -49 61 t-75 23q-63 0 -124 -34.5t-149 -119.5v-727h-133z" />
<glyph unicode="n" horiz-adv-x="952" d="M129 0v973h133v-154q147 172 313 172q65 0 121.5 -29.5t85.5 -80.5q23 -38 31 -88t8 -154v-639h-133v639q0 99 -10 143q-10 43 -49 71t-86 28q-62 0 -126.5 -37.5t-154.5 -126.5v-717h-133z" />
<glyph unicode="o" horiz-adv-x="899" d="M66 479q0 238 102.5 375t280.5 137q186 0 286.5 -134t100.5 -382q0 -234 -101.5 -364.5t-283.5 -130.5q-180 0 -282.5 133t-102.5 366zM195 489q0 -195 65.5 -297t190.5 -102q122 0 189 103t67 290q0 189 -67.5 293.5t-190.5 104.5q-59 0 -111.5 -30.5t-83.5 -82.5 q-59 -95 -59 -279z" />
<glyph unicode="p" horiz-adv-x="946" d="M129 -328v1301h133v-113q71 72 128.5 101.5t129.5 29.5q162 0 260.5 -134.5t98.5 -356.5q0 -232 -103.5 -377.5t-269.5 -145.5q-67 0 -119 29.5t-125 106.5v-441h-133zM262 223q65 -74 116 -104.5t111 -30.5q123 0 192 109.5t69 304.5q0 131 -31 213.5t-98 128.5 q-53 37 -117 37t-120 -34t-122 -114v-510z" />
<glyph unicode="q" horiz-adv-x="944" d="M66 481q0 224 102 367t262 143q75 0 134 -31t118 -100l37 113h96v-1301h-133v441q-76 -78 -130.5 -105.5t-131.5 -27.5q-161 0 -257.5 136t-96.5 365zM193 481q0 -193 63.5 -292t189.5 -99q63 0 118.5 35t117.5 113v512q-105 131 -225 131q-122 0 -193 -108t-71 -292z " />
<glyph unicode="r" horiz-adv-x="600" d="M129 0v973h133v-254q22 69 51.5 116t77.5 89q40 35 79 49t99 14h17v-127q-117 -4 -191 -76.5t-133 -238.5v-545h-133z" />
<glyph unicode="s" horiz-adv-x="806" d="M59 180l111 64q53 -80 115.5 -117t144.5 -37q84 0 137.5 44.5t53.5 113.5q0 57 -35.5 96t-112.5 68q-193 72 -231 89.5t-70 49.5q-74 71 -74 174q0 118 84.5 192t218.5 74q103 0 175.5 -38.5t150.5 -133.5l-98 -71q-89 133 -223 133q-76 0 -127.5 -42.5t-51.5 -105.5 q0 -51 33.5 -84t112.5 -61q165 -58 203 -74.5t77 -46.5q45 -32 71 -85.5t26 -113.5q0 -127 -90.5 -207.5t-231.5 -80.5q-116 0 -212.5 52.5t-156.5 147.5z" />
<glyph unicode="t" horiz-adv-x="501" d="M6 860v113h150v327h133v-327h207v-113h-207v-604q0 -41 8.5 -83t19.5 -54q24 -31 84 -31q39 0 95 12v-100q-73 -23 -138 -23q-130 0 -176 78q-12 22 -16 36t-7 58t-3 136v575h-150z" />
<glyph unicode="u" horiz-adv-x="950" d="M129 375v598h133v-598q0 -150 25 -205q41 -80 116 -80q70 0 129.5 36t153.5 136v711h133v-973h-133v154q-76 -92 -147.5 -133t-153.5 -41q-64 0 -118.5 23.5t-86.5 64.5q-51 68 -51 307z" />
<glyph unicode="v" horiz-adv-x="761" d="M-6 973h139l225 -760q2 -8 9.5 -32t12.5 -43.5t5 -33.5l6 -24q20 96 31 133l221 760h127l-283 -973h-196z" />
<glyph unicode="w" horiz-adv-x="1181" d="M20 973h130l153 -615q33 -134 39 -217q16 122 39 217l147 615h129l146 -580q41 -156 47 -252q10 116 43 252l141 580h127l-256 -973h-119l-157 627q-33 122 -39 196q-4 -58 -37 -196l-150 -627h-118z" />
<glyph unicode="x" horiz-adv-x="729" d="M-6 0l293 508l-281 465h146l210 -359l197 359h139l-262 -465l301 -508h-141l-234 401l-225 -401h-143z" />
<glyph unicode="y" horiz-adv-x="774" d="M-6 -315l14 116q63 -18 98 -18q72 0 124 49.5t104 167.5l-326 973h129l217 -635q27 -78 47 -154q17 84 41 154l207 635h133l-299 -910q-58 -167 -112 -253q-90 -142 -246 -142q-37 0 -131 17z" />
<glyph unicode="z" horiz-adv-x="763" d="M37 0v86l508 774h-479v113h647v-80l-516 -780h516v-113h-676z" />
<glyph unicode="{" horiz-adv-x="532" d="M74 494v96q63 19 89.5 60.5t26.5 121.5v363q0 142 67.5 207t215.5 65q23 0 39 -2v-107q-114 -3 -153.5 -39t-39.5 -139v-354q0 -94 -25 -143.5t-89 -83.5q64 -35 89 -86.5t25 -147.5v-340q0 -109 38.5 -146t154.5 -40v-107h-41q-151 0 -216 68.5t-65 228.5v334 q0 88 -25.5 130t-90.5 61z" />
<glyph unicode="|" horiz-adv-x="1024" d="M446 -342v1708h134v-1708h-134z" />
<glyph unicode="}" horiz-adv-x="532" d="M20 -221q116 3 154.5 40t38.5 146v340q0 95 25.5 147t89.5 87q-65 34 -90 83.5t-25 143.5v354q0 103 -39.5 139t-153.5 39v107q16 2 39 2q148 0 215.5 -65t67.5 -207v-363q0 -79 27 -121t90 -61v-96q-65 -19 -91 -61.5t-26 -129.5v-334q0 -160 -65 -228.5t-216 -68.5h-41 v107z" />
<glyph unicode="~" horiz-adv-x="1366" d="M190 1251q65 127 126.5 178.5t150.5 51.5q76 0 231 -74q91 -42 129 -55t74 -13q58 0 99.5 32t91.5 114l82 -49q-59 -116 -128.5 -170t-160.5 -54q-44 0 -96.5 18.5t-190.5 82.5q-83 41 -141 41q-54 0 -98.5 -36.5t-88.5 -117.5z" />
<glyph unicode="&#xa1;" horiz-adv-x="546" d="M190 -328l31 934h103l30 -934h-164zM190 782v191h164v-191h-164z" />
<glyph unicode="&#xa2;" d="M145 692q0 227 106 369.5t273 142.5q45 0 101 -12l55 156l74 -29l-58 -160q104 -64 156 -215l-121 -43q-22 91 -78 141l-260 -690q38 -29 66.5 -40t64.5 -11q75 0 134 50t96 145l110 -47q-102 -256 -338 -256q-95 0 -172 45l-75 -177l-70 37l78 191q-68 68 -105 172.5 t-37 230.5zM274 688q0 -82 12.5 -140t45.5 -126l246 663q-41 9 -58 9q-114 0 -180 -108.5t-66 -297.5z" />
<glyph unicode="&#xa3;" d="M145 172q0 78 59 132t144 54q82 0 146 -55q8 47 8 76q0 127 -84 303h-228v123h185q-43 144 -43 235q0 151 83.5 248.5t213.5 97.5q96 0 163.5 -50t127.5 -165l-113 -51q-44 82 -88 116t-105 34q-71 0 -112 -61t-41 -165q0 -121 55 -239h295v-123h-262q43 -98 59.5 -157.5 t16.5 -121.5q0 -74 -27 -163q4 -4 21 -20t28 -25.5t29 -25.5t32 -26t29.5 -20.5t29 -15.5t24.5 -5q29 0 54 36.5t40 101.5l102 -33q-23 -75 -45 -121q-24 -45 -69 -72.5t-97 -27.5q-54 0 -88.5 21.5t-138.5 121.5q-43 -75 -93 -109t-118 -34q-82 0 -137.5 54t-55.5 132z M260 170q0 -28 25 -48t59 -20q37 0 62.5 21.5t50.5 73.5q-59 45 -105 45q-38 0 -65 -21.5t-27 -50.5z" />
<glyph unicode="&#xa4;" horiz-adv-x="1366" d="M121 1165l72 74l192 -190q75 57 145 82.5t152 25.5q159 0 295 -108l190 188l74 -72l-190 -190q104 -138 104 -293q0 -156 -104 -291l192 -190l-72 -74l-192 190q-137 -104 -295 -104q-151 0 -297 104l-188 -190l-72 74l186 190q-104 137 -104 293q0 153 104 291zM326 682 q0 -147 104.5 -251.5t251.5 -104.5q148 0 252 104.5t104 253.5q0 146 -103.5 252t-248.5 106q-151 0 -255.5 -104.5t-104.5 -255.5z" />
<glyph unicode="&#xa5;" d="M68 1366h129l165 -371q68 -154 70 -161l41 -99q2 -4 6.5 -14.5t12.5 -28.5t16 -35q8 17 16 35t12.5 28.5t6.5 14.5l39 99q26 68 71 167l164 365h125l-205 -459h164v-123h-219l-84 -182h246v-123h-271v-479h-137v479h-256v123h236l-86 182h-221v123h165z" />
<glyph unicode="&#xa6;" horiz-adv-x="1024" d="M446 313h134v-655h-134v655zM446 688v678h134v-678h-134z" />
<glyph unicode="&#xa7;" d="M55 68l127 36q33 -113 80 -176q45 -62 120 -98.5t155 -36.5q105 0 176 59t71 146q0 63 -41 104q-42 42 -104 74t-260 115q-157 66 -222 134.5t-65 166.5q0 76 34 129.5t118 109.5q-109 92 -109 234q0 145 106 237.5t273 92.5q169 0 277.5 -97t142.5 -278l-121 -31 q-68 295 -303 295q-103 0 -170.5 -56.5t-67.5 -144.5q0 -83 64 -141t231 -125q124 -50 186 -82t103 -67q100 -81 100 -207q0 -138 -131 -240q52 -51 74.5 -99.5t22.5 -111.5q0 -150 -106.5 -238.5t-285.5 -88.5q-183 0 -299 94t-176 291zM229 629q0 -38 20 -75t52 -60 q42 -30 81.5 -49t219.5 -95q122 -53 152 -80q67 81 67 154q0 78 -69 134t-263 136q-124 52 -170 86q-50 -39 -70 -73t-20 -78z" />
<glyph unicode="&#xa8;" horiz-adv-x="1024" d="M297 1153v135h133v-135h-133zM596 1153v135h133v-135h-133z" />
<glyph unicode="&#xa9;" horiz-adv-x="1531" d="M82 682q0 205 88.5 370.5t246 259t353.5 93.5q141 0 267.5 -56t216.5 -152t143 -230.5t53 -284.5q0 -151 -53 -284.5t-143.5 -229.5t-217.5 -151.5t-270 -55.5t-270 55.5t-217.5 151.5t-143.5 229.5t-53 284.5zM172 684q0 -172 79.5 -318.5t216.5 -231.5t298 -85 q121 0 231 50.5t189.5 135.5t126.5 203t47 248q0 126 -45.5 246t-124.5 205q-76 83 -189.5 131.5t-226.5 48.5q-171 0 -308.5 -82t-215.5 -227t-78 -324zM467 668q0 209 83 324.5t232 115.5q109 0 177.5 -61.5t105.5 -192.5l-100 -23q-43 193 -183 193q-103 0 -158 -91.5 t-55 -260.5q0 -157 56 -242.5t157 -85.5q72 0 125 53t70 142l100 -23q-31 -125 -107 -191.5t-190 -66.5q-148 0 -230.5 108t-82.5 302z" />
<glyph unicode="&#xaa;" horiz-adv-x="681" d="M133 967q0 68 40 111.5t130 72.5q43 14 143 39q-1 63 -25 90t-77 27q-89 0 -131 -88l-68 43q61 116 197 116q88 0 141 -47q28 -26 38.5 -60t10.5 -93v-211q0 -84 17 -148h-92q-6 44 -8 78q-41 -51 -76.5 -70.5t-85.5 -19.5q-69 0 -111.5 44t-42.5 116zM215 969 q0 -40 22.5 -65t57.5 -25q77 0 154 106v135q-152 -44 -193 -70.5t-41 -80.5z" />
<glyph unicode="&#xab;" horiz-adv-x="851" d="M61 471l252 375h117l-244 -375l265 -348h-123zM350 471l248 375h121l-248 -375l264 -348h-121z" />
<glyph unicode="&#xac;" horiz-adv-x="1024" d="M68 422v125h886v-547h-133v422h-753z" />
<glyph unicode="&#xad;" horiz-adv-x="409" d="M0 420v129h410v-129h-410z" />
<glyph unicode="&#xae;" horiz-adv-x="1531" d="M82 682q0 205 88.5 370.5t246 259t353.5 93.5q141 0 267.5 -56t216.5 -152t143 -230.5t53 -284.5q0 -151 -53 -284.5t-143.5 -229.5t-217.5 -151.5t-270 -55.5t-270 55.5t-217.5 151.5t-143.5 229.5t-53 284.5zM172 684q0 -172 79.5 -318.5t216.5 -231.5t298 -85 q121 0 231 50.5t189.5 135.5t126.5 203t47 248q0 126 -45.5 246t-124.5 205q-76 83 -189.5 131.5t-226.5 48.5q-171 0 -308.5 -82t-215.5 -227t-78 -324zM514 272v820h219q112 0 176 -21q63 -22 102.5 -78t39.5 -125q0 -73 -43 -128t-117 -78l166 -390h-115l-154 369l-8 2 h-149l-13 -2v-369h-104zM618 727h109q74 0 110 7t60 24q51 39 51 108q0 90 -78 121q-49 17 -163 17h-89v-277z" />
<glyph unicode="&#xaf;" horiz-adv-x="1024" d="M250 1167v101h522v-101h-522z" />
<glyph unicode="&#xb0;" d="M199 1077q0 129 89.5 219t217.5 90q129 0 218 -90t89 -221q0 -124 -90.5 -213.5t-216.5 -89.5q-127 0 -217 89.5t-90 215.5zM291 1079q0 -89 63.5 -154t151.5 -65q86 0 150.5 64t64.5 149q0 94 -63 159.5t-154 65.5q-86 0 -149.5 -65.5t-63.5 -153.5z" />
<glyph unicode="&#xb1;" d="M82 -14v92h846v-92h-846zM82 541v92h377v377h92v-377h377v-92h-377v-336h-92v336h-377z" />
<glyph unicode="&#xb2;" horiz-adv-x="681" d="M84 1130q18 70 47 127q32 56 90 87.5t127 31.5t122 -29t82.5 -82t29.5 -122q0 -82 -38 -138t-159 -149q-70 -56 -128 -119t-75 -104h402v-86h-498v71q22 67 85.5 148.5t147.5 148.5q71 57 105 93t47.5 67t13.5 72t-18 74t-50 52t-71 19q-37 0 -66 -14.5t-48 -41.5 t-31.5 -57t-22.5 -71z" />
<glyph unicode="&#xb3;" horiz-adv-x="681" d="M68 700l77 52q48 -72 92.5 -103t104.5 -31q72 0 116 43.5t44 112.5q0 162 -203 162q-25 0 -72 -6v96q33 -4 74 -4q180 0 180 141q0 58 -37.5 93.5t-99.5 35.5q-51 0 -90 -23.5t-80 -78.5l-74 55q96 131 246 131q101 0 166.5 -58t65.5 -149q0 -135 -123 -186 q78 -37 110.5 -83.5t32.5 -121.5q0 -107 -72 -174t-186 -67q-88 0 -150 37t-122 126z" />
<glyph unicode="&#xb4;" horiz-adv-x="1024" d="M457 1094l73 247h148l-123 -247h-98z" />
<glyph unicode="&#xb6;" d="M61 999q0 99 46 182.5t126 129.5q99 55 275 55h524v-100h-117v-1594h-137v1594h-172v-1594h-137v971q-14 -2 -35 -2q-163 0 -268 100.5t-105 257.5z" />
<glyph unicode="&#xb7;" horiz-adv-x="491" d="M164 410v190h164v-190h-164z" />
<glyph unicode="&#xb8;" horiz-adv-x="1024" d="M444 -299l19 72q47 -29 86 -29q25 0 40 12t15 31q0 23 -24 38t-62 15q-25 0 -41 -2l39 162h72l-25 -102q125 -15 125 -111q0 -49 -36.5 -82t-90.5 -33q-60 0 -117 29z" />
<glyph unicode="&#xb9;" horiz-adv-x="681" d="M174 1249v66l168 59h70v-741h116v-86h-340v86h125v629z" />
<glyph unicode="&#xba;" horiz-adv-x="681" d="M123 1090q0 133 58.5 210.5t158.5 77.5q104 0 161.5 -76.5t57.5 -214.5q0 -130 -58 -204t-161 -74q-100 0 -158.5 75.5t-58.5 205.5zM205 1096q0 -104 34.5 -159.5t100.5 -55.5t101.5 55.5t35.5 155.5q0 103 -35.5 159t-101.5 56q-65 0 -100 -55t-35 -156z" />
<glyph unicode="&#xbb;" horiz-adv-x="851" d="M117 123l264 348l-248 375h121l248 -375l-264 -348h-121zM401 123l265 348l-244 375h117l252 -375l-267 -348h-123z" />
<glyph unicode="&#xbc;" horiz-adv-x="1595" d="M174 1249v66l168 59h70v-741h116v-86h-340v86h125v629zM369 0l755 1366h103l-756 -1366h-102zM987 199v71l307 559h136v-544h126v-86h-126v-199h-99v199h-344zM1087 285h242v436z" />
<glyph unicode="&#xbd;" horiz-adv-x="1595" d="M174 1249v66l168 59h70v-741h116v-86h-340v86h125v629zM369 0l755 1366h103l-756 -1366h-102zM997 584q18 70 47 127q32 55 90.5 86.5t127.5 31.5q104 0 168.5 -64.5t64.5 -168.5q0 -82 -38 -138t-159 -149q-70 -56 -127.5 -119t-74.5 -104h401v-86h-498v72 q22 67 86 148.5t148 148.5q103 83 134.5 127t31.5 104q0 62 -39.5 103.5t-99.5 41.5q-38 0 -74 -20.5t-56 -54.5q-21 -42 -38 -109z" />
<glyph unicode="&#xbe;" horiz-adv-x="1595" d="M68 700l77 52q48 -72 92.5 -103t104.5 -31q72 0 116 43.5t44 112.5q0 162 -203 162q-25 0 -72 -6v96q33 -4 74 -4q180 0 180 141q0 58 -37.5 93.5t-99.5 35.5q-51 0 -90 -23.5t-80 -78.5l-74 55q96 131 246 131q101 0 166.5 -58t65.5 -149q0 -135 -123 -186 q78 -37 110.5 -83.5t32.5 -121.5q0 -107 -72 -174t-186 -67q-88 0 -150 37t-122 126zM369 0l755 1366h103l-756 -1366h-102zM985 199v71l307 559h135v-544h129v-86h-129v-199h-98v199h-344zM1085 285h242v436z" />
<glyph unicode="&#xbf;" horiz-adv-x="702" d="M98 -49q0 98 45 180q8 16 14.5 27t12.5 20.5t19 26t25 31.5l40 50t55 68q39 50 50.5 90.5t11.5 126.5v45h110q2 -39 2 -73q0 -83 -12 -133q-11 -38 -28 -64.5t-111 -146.5q-103 -132 -103 -242q0 -78 38.5 -127t99.5 -49q51 0 84 28t77 109l101 -63q-106 -183 -275 -183 q-110 0 -183 79.5t-73 199.5zM344 782v191h164v-191h-164z" />
<glyph unicode="&#xc0;" horiz-adv-x="995" d="M6 0l404 1378h206l379 -1378h-149l-115 432h-452l-127 -432h-146zM313 557h383l-159 594q-19 74 -25 113q-3 -24 -16 -72q-37 -122 -101.5 -349.5t-81.5 -285.5zM336 1722h153l76 -245h-102z" />
<glyph unicode="&#xc1;" horiz-adv-x="995" d="M6 0l404 1378h206l379 -1378h-149l-115 432h-452l-127 -432h-146zM313 557h383l-159 594q-19 74 -25 113q-3 -24 -16 -72q-37 -122 -101.5 -349.5t-81.5 -285.5zM475 1477l74 247h147l-123 -247h-98z" />
<glyph unicode="&#xc2;" horiz-adv-x="995" d="M6 0l404 1378h206l379 -1378h-149l-115 432h-452l-127 -432h-146zM227 1477l222 192h137l221 -192h-133l-156 104l-158 -104h-133zM313 557h383l-159 594q-19 74 -25 113q-3 -24 -16 -72q-37 -122 -101.5 -349.5t-81.5 -285.5z" />
<glyph unicode="&#xc3;" horiz-adv-x="995" d="M6 0l404 1378h206l379 -1378h-149l-115 432h-452l-127 -432h-146zM248 1513q6 76 54 122t120 46q34 0 57.5 -7t120.5 -46q27 -10 53 -10q34 0 57 17t29 46h88q-1 -70 -53 -120t-123 -50q-56 0 -133 39q-57 29 -90 29q-68 0 -86 -66h-94zM313 557h383l-159 594 q-19 74 -25 113q-3 -24 -16 -72q-37 -122 -101.5 -349.5t-81.5 -285.5z" />
<glyph unicode="&#xc4;" horiz-adv-x="995" d="M6 0l404 1378h206l379 -1378h-149l-115 432h-452l-127 -432h-146zM301 1534v135h133v-135h-133zM313 557h383l-159 594q-19 74 -25 113q-3 -24 -16 -72q-37 -122 -101.5 -349.5t-81.5 -285.5zM600 1534v135h133v-135h-133z" />
<glyph unicode="&#xc5;" horiz-adv-x="995" d="M6 0l404 1378h206l379 -1378h-149l-115 432h-452l-127 -432h-146zM313 557h383l-159 594q-19 74 -25 113q-3 -24 -16 -72q-37 -122 -101.5 -349.5t-81.5 -285.5zM360 1638q0 67 49 116.5t115 49.5q69 0 117.5 -49.5t48.5 -118.5q0 -67 -48 -115t-116 -48q-69 0 -117.5 48 t-48.5 117zM434 1638q0 -38 27 -65t67 -27q37 0 63.5 27.5t26.5 66.5q0 40 -25 66.5t-63 26.5q-41 0 -68.5 -27.5t-27.5 -67.5z" />
<glyph unicode="&#xc6;" horiz-adv-x="1597" d="M-14 0l649 1366h874v-125h-612v-461h444v-125h-444v-530h645v-125h-792v432h-418l-203 -432h-143zM393 557h357v698h-19z" />
<glyph unicode="&#xc7;" horiz-adv-x="1114" d="M82 653q0 352 130.5 544t369.5 192q341 0 436 -406l-137 -35q-68 318 -303 318q-164 0 -254.5 -161t-90.5 -456q0 -222 68 -364q43 -88 117.5 -137.5t163.5 -49.5q119 0 199 82.5t118 243.5l133 -31q-31 -183 -150.5 -301t-277.5 -119l-14 -77q55 -3 89 -33.5t34 -75.5 q0 -49 -37.5 -82t-93.5 -33q-57 0 -117 29l18 68q55 -25 95 -25q22 0 35.5 12t13.5 31q0 25 -27.5 41.5t-69.5 13.5l-28 -2l30 133q-218 22 -334 197t-116 483z" />
<glyph unicode="&#xc8;" horiz-adv-x="999" d="M158 0v1366h760v-125h-613v-461h449v-125h-449v-530h641v-125h-788zM379 1722h153l76 -245h-102z" />
<glyph unicode="&#xc9;" horiz-adv-x="999" d="M158 0v1366h760v-125h-613v-461h449v-125h-449v-530h641v-125h-788zM500 1477l73 247h148l-123 -247h-98z" />
<glyph unicode="&#xca;" horiz-adv-x="999" d="M158 0v1366h760v-125h-613v-461h449v-125h-449v-530h641v-125h-788zM246 1477l221 192h137l221 -192h-133l-155 104l-158 -104h-133z" />
<glyph unicode="&#xcb;" horiz-adv-x="999" d="M158 0v1366h760v-125h-613v-461h449v-125h-449v-530h641v-125h-788zM340 1534v135h133v-135h-133zM639 1534v135h133v-135h-133z" />
<glyph unicode="&#xcc;" horiz-adv-x="460" d="M61 1722h154l76 -245h-103zM158 0v1366h147v-1366h-147z" />
<glyph unicode="&#xcd;" horiz-adv-x="460" d="M158 0v1366h147v-1366h-147zM197 1477l73 247h148l-123 -247h-98z" />
<glyph unicode="&#xce;" horiz-adv-x="460" d="M-45 1477l221 192h137l222 -192h-134l-155 104l-158 -104h-133zM158 0v1366h147v-1366h-147z" />
<glyph unicode="&#xcf;" horiz-adv-x="460" d="M49 1534v135h133v-135h-133zM158 0v1366h147v-1366h-147zM293 1534v135h133v-135h-133z" />
<glyph unicode="&#xd0;" horiz-adv-x="1155" d="M35 655v125h123v586h227q172 0 270.5 -19.5t169.5 -68.5q121 -79 184.5 -230t63.5 -358q0 -216 -64 -372.5t-184 -231.5q-63 -40 -163 -63t-213 -23h-291v655h-123zM305 125h98q140 0 195.5 9.5t122.5 43.5q103 52 156 180t53 322q0 177 -37 292t-115 181 q-104 88 -350 88h-123v-461h352v-125h-352v-530z" />
<glyph unicode="&#xd1;" horiz-adv-x="1196" d="M158 0v1366h204l478 -932q31 -61 80 -188q-27 153 -27 338v782h147v-1366h-120l-558 1102q-25 49 -30 63l-25 60q-1 2 -3.5 8t-7.5 15.5t-9 19.5q18 -140 18 -334v-934h-147zM336 1513q6 76 54 122t120 46q34 0 57.5 -7t120.5 -46q27 -10 53 -10q34 0 57 17t29 46h88 q-1 -70 -53 -120t-123 -50q-56 0 -133 39q-57 29 -90 29q-68 0 -86 -66h-94z" />
<glyph unicode="&#xd2;" horiz-adv-x="1177" d="M82 688q0 322 137 513.5t367 191.5q129 0 235.5 -63t171.5 -177q103 -181 103 -463q0 -330 -136.5 -522.5t-371.5 -192.5q-233 0 -369.5 192t-136.5 521zM225 676q0 -275 96 -427.5t271 -152.5q173 0 266.5 156.5t93.5 449.5q0 138 -16.5 226t-56.5 162 q-49 88 -124.5 135t-164.5 47q-82 0 -156 -43t-117 -115q-92 -157 -92 -438zM420 1722h153l76 -245h-102z" />
<glyph unicode="&#xd3;" horiz-adv-x="1177" d="M82 688q0 322 137 513.5t367 191.5q129 0 235.5 -63t171.5 -177q103 -181 103 -463q0 -330 -136.5 -522.5t-371.5 -192.5q-233 0 -369.5 192t-136.5 521zM225 676q0 -275 96 -427.5t271 -152.5q173 0 266.5 156.5t93.5 449.5q0 138 -16.5 226t-56.5 162 q-49 88 -124.5 135t-164.5 47q-82 0 -156 -43t-117 -115q-92 -157 -92 -438zM547 1477l74 247h147l-123 -247h-98z" />
<glyph unicode="&#xd4;" horiz-adv-x="1177" d="M82 688q0 322 137 513.5t367 191.5q129 0 235.5 -63t171.5 -177q103 -181 103 -463q0 -330 -136.5 -522.5t-371.5 -192.5q-233 0 -369.5 192t-136.5 521zM225 676q0 -275 96 -427.5t271 -152.5q173 0 266.5 156.5t93.5 449.5q0 138 -16.5 226t-56.5 162 q-49 88 -124.5 135t-164.5 47q-82 0 -156 -43t-117 -115q-92 -157 -92 -438zM305 1477l221 192h138l221 -192h-133l-156 104l-158 -104h-133z" />
<glyph unicode="&#xd5;" horiz-adv-x="1177" d="M82 688q0 322 137 513.5t367 191.5q129 0 235.5 -63t171.5 -177q103 -181 103 -463q0 -330 -136.5 -522.5t-371.5 -192.5q-233 0 -369.5 192t-136.5 521zM225 676q0 -275 96 -427.5t271 -152.5q173 0 266.5 156.5t93.5 449.5q0 138 -16.5 226t-56.5 162 q-49 88 -124.5 135t-164.5 47q-82 0 -156 -43t-117 -115q-92 -157 -92 -438zM326 1513q6 76 54 122t120 46q34 0 57.5 -7t120.5 -46q27 -10 53 -10q34 0 57 17t29 46h88q-1 -70 -53 -120t-123 -50q-56 0 -133 39q-57 29 -90 29q-68 0 -86 -66h-94z" />
<glyph unicode="&#xd6;" horiz-adv-x="1177" d="M82 688q0 322 137 513.5t367 191.5q129 0 235.5 -63t171.5 -177q103 -181 103 -463q0 -330 -136.5 -522.5t-371.5 -192.5q-233 0 -369.5 192t-136.5 521zM225 676q0 -275 96 -427.5t271 -152.5q173 0 266.5 156.5t93.5 449.5q0 138 -16.5 226t-56.5 162 q-49 88 -124.5 135t-164.5 47q-82 0 -156 -43t-117 -115q-92 -157 -92 -438zM379 1534v135h133v-135h-133zM678 1534v135h133v-135h-133z" />
<glyph unicode="&#xd7;" d="M125 272l315 316l-315 315l65 66l316 -316l313 316l66 -66l-314 -315l314 -316l-66 -65l-313 315l-316 -315z" />
<glyph unicode="&#xd8;" horiz-adv-x="1175" d="M49 10l135 199q-56 106 -80 215t-24 254q0 338 135 524q64 91 161.5 140t211.5 49q189 0 315 -129l111 155l71 -65l-114 -168q125 -180 125 -500q0 -332 -136 -522.5t-372 -190.5q-207 0 -342 156l-125 -178zM219 674q0 -178 53 -340l559 817q-100 115 -237 115 q-116 0 -203.5 -74.5t-130.5 -208.5q-41 -131 -41 -309zM319 240q63 -77 125.5 -110.5t143.5 -33.5q172 0 267 156.5t95 439.5q0 215 -63 373z" />
<glyph unicode="&#xd9;" horiz-adv-x="1173" d="M143 489v877h148v-887q0 -187 45 -262q71 -121 252 -121q88 0 154 33.5t100 95.5q41 77 41 236v905h147v-887q0 -130 -14.5 -199.5t-54.5 -129.5q-59 -85 -158.5 -130t-229.5 -45q-232 0 -346 148q-49 66 -66.5 142t-17.5 224zM438 1722h154l76 -245h-103z" />
<glyph unicode="&#xda;" horiz-adv-x="1173" d="M143 489v877h148v-887q0 -187 45 -262q71 -121 252 -121q88 0 154 33.5t100 95.5q41 77 41 236v905h147v-887q0 -130 -14.5 -199.5t-54.5 -129.5q-59 -85 -158.5 -130t-229.5 -45q-232 0 -346 148q-49 66 -66.5 142t-17.5 224zM557 1477l74 247h147l-123 -247h-98z" />
<glyph unicode="&#xdb;" horiz-adv-x="1173" d="M143 489v877h148v-887q0 -187 45 -262q71 -121 252 -121q88 0 154 33.5t100 95.5q41 77 41 236v905h147v-887q0 -130 -14.5 -199.5t-54.5 -129.5q-59 -85 -158.5 -130t-229.5 -45q-232 0 -346 148q-49 66 -66.5 142t-17.5 224zM317 1477l222 192h137l221 -192h-133 l-156 104l-157 -104h-134z" />
<glyph unicode="&#xdc;" horiz-adv-x="1173" d="M143 489v877h148v-887q0 -187 45 -262q71 -121 252 -121q88 0 154 33.5t100 95.5q41 77 41 236v905h147v-887q0 -130 -14.5 -199.5t-54.5 -129.5q-59 -85 -158.5 -130t-229.5 -45q-232 0 -346 148q-49 66 -66.5 142t-17.5 224zM385 1534v135h133v-135h-133zM684 1534v135 h133v-135h-133z" />
<glyph unicode="&#xdd;" horiz-adv-x="903" d="M-20 1366h157l295 -575q6 -17 16.5 -41t14.5 -33q7 36 24 74l279 575h158l-392 -766v-600h-147v578zM410 1477l73 247h148l-123 -247h-98z" />
<glyph unicode="&#xde;" horiz-adv-x="1030" d="M158 0v1366h147v-205h197q94 0 149.5 -7.5t110.5 -27.5q100 -38 160.5 -133t60.5 -215q0 -168 -119 -278q-63 -57 -136.5 -78t-211.5 -21h-211v-401h-147zM305 526h201q99 0 152.5 12.5t95.5 45.5q86 67 86 194q0 78 -38.5 142.5t-99.5 87.5q-70 28 -219 28h-178v-510z " />
<glyph unicode="&#xdf;" horiz-adv-x="915" d="M129 0v1063q0 70 9 110t34 80q38 63 110 98t160 35q131 0 207 -76.5t76 -209.5q0 -88 -30.5 -140t-104.5 -90q124 -43 191 -159.5t67 -288.5q0 -204 -102 -323t-277 -119q-61 0 -131 20v113q25 -15 44.5 -20t57.5 -5q97 0 158 39q57 38 89 118.5t32 184.5q0 162 -68 252 q-40 52 -100.5 74t-165.5 22q-31 0 -47 -2v94q14 -2 33 -2q109 0 167 55t58 158q0 92 -43.5 143.5t-120.5 51.5q-55 0 -94.5 -25.5t-54.5 -70.5q-21 -59 -21 -195v-985h-133z" />
<glyph unicode="&#xe0;" horiz-adv-x="899" d="M66 258q0 121 70 197t229 127q51 17 270 73q-2 83 -21 127q-20 46 -67.5 72.5t-110.5 26.5q-79 0 -141.5 -40.5t-99.5 -115.5l-105 70q54 96 142 146t202 50q154 0 248 -84q47 -43 66.5 -103.5t19.5 -164.5v-383q0 -145 27 -256h-146q-7 53 -14 156q-83 -102 -146.5 -139 t-154.5 -37q-121 0 -194.5 76t-73.5 202zM195 262q0 -75 43 -123.5t112 -48.5q143 0 285 197v260q-213 -60 -277 -88q-89 -38 -126 -83t-37 -114zM272 1341h154l76 -245h-103z" />
<glyph unicode="&#xe1;" horiz-adv-x="899" d="M66 258q0 121 70 197t229 127q51 17 270 73q-2 83 -21 127q-20 46 -67.5 72.5t-110.5 26.5q-79 0 -141.5 -40.5t-99.5 -115.5l-105 70q54 96 142 146t202 50q154 0 248 -84q47 -43 66.5 -103.5t19.5 -164.5v-383q0 -145 27 -256h-146q-7 53 -14 156q-83 -102 -146.5 -139 t-154.5 -37q-121 0 -194.5 76t-73.5 202zM195 262q0 -75 43 -123.5t112 -48.5q143 0 285 197v260q-213 -60 -277 -88q-89 -38 -126 -83t-37 -114zM403 1094l74 247h148l-123 -247h-99z" />
<glyph unicode="&#xe2;" horiz-adv-x="899" d="M66 258q0 121 70 197t229 127q51 17 270 73q-2 83 -21 127q-20 46 -67.5 72.5t-110.5 26.5q-79 0 -141.5 -40.5t-99.5 -115.5l-105 70q54 96 142 146t202 50q154 0 248 -84q47 -43 66.5 -103.5t19.5 -164.5v-383q0 -145 27 -256h-146q-7 53 -14 156q-83 -102 -146.5 -139 t-154.5 -37q-121 0 -194.5 76t-73.5 202zM195 262q0 -75 43 -123.5t112 -48.5q143 0 285 197v260q-213 -60 -277 -88q-89 -38 -126 -83t-37 -114zM207 1096l168 245h135l168 -245h-133l-103 157l-102 -157h-133z" />
<glyph unicode="&#xe3;" horiz-adv-x="899" d="M66 258q0 121 70 197t229 127q51 17 270 73q-2 83 -21 127q-20 46 -67.5 72.5t-110.5 26.5q-79 0 -141.5 -40.5t-99.5 -115.5l-105 70q54 96 142 146t202 50q154 0 248 -84q47 -43 66.5 -103.5t19.5 -164.5v-383q0 -145 27 -256h-146q-7 53 -14 156q-83 -102 -146.5 -139 t-154.5 -37q-121 0 -194.5 76t-73.5 202zM195 262q0 -75 43 -123.5t112 -48.5q143 0 285 197v260q-213 -60 -277 -88q-89 -38 -126 -83t-37 -114zM195 1130q4 76 43.5 122t99.5 46q30 0 52.5 -7t123.5 -46q27 -10 47 -10q49 0 55 63h89q0 -72 -42 -121t-102 -49 q-45 0 -129 37q-65 29 -84 29q-44 0 -59 -64h-94z" />
<glyph unicode="&#xe4;" horiz-adv-x="899" d="M66 258q0 121 70 197t229 127q51 17 270 73q-2 83 -21 127q-20 46 -67.5 72.5t-110.5 26.5q-79 0 -141.5 -40.5t-99.5 -115.5l-105 70q54 96 142 146t202 50q154 0 248 -84q47 -43 66.5 -103.5t19.5 -164.5v-383q0 -145 27 -256h-146q-7 53 -14 156q-83 -102 -146.5 -139 t-154.5 -37q-121 0 -194.5 76t-73.5 202zM195 262q0 -75 43 -123.5t112 -48.5q143 0 285 197v260q-213 -60 -277 -88q-89 -38 -126 -83t-37 -114zM248 1153v135h133v-135h-133zM547 1153v135h133v-135h-133z" />
<glyph unicode="&#xe5;" horiz-adv-x="899" d="M66 258q0 121 70 197t229 127q51 17 270 73q-2 83 -21 127q-20 46 -67.5 72.5t-110.5 26.5q-79 0 -141.5 -40.5t-99.5 -115.5l-105 70q54 96 142 146t202 50q154 0 248 -84q47 -43 66.5 -103.5t19.5 -164.5v-383q0 -145 27 -256h-146q-7 53 -14 156q-83 -102 -146.5 -139 t-154.5 -37q-121 0 -194.5 76t-73.5 202zM195 262q0 -75 43 -123.5t112 -48.5q143 0 285 197v260q-213 -60 -277 -88q-89 -38 -126 -83t-37 -114zM279 1255q0 69 48.5 118.5t114.5 49.5q69 0 117.5 -49.5t48.5 -118.5t-48 -117t-116 -48q-69 0 -117 48t-48 117zM352 1255 q0 -38 27 -65t67 -27q37 0 64 27.5t27 66.5q0 41 -25 68t-63 27q-41 0 -69 -28t-28 -69z" />
<glyph unicode="&#xe6;" horiz-adv-x="1437" d="M55 244q0 107 52 175.5t173 120t349 103.5q0 86 -19 131q-19 48 -68 77.5t-110 29.5q-58 0 -113 -26t-92 -69q-21 -24 -45 -71l-104 71q68 106 151 155.5t195 49.5q147 0 225 -78q21 -21 34 -45t28 -69q98 192 297 192q117 0 201.5 -71.5t121.5 -200.5q23 -86 29 -252 h-606q10 -184 82 -280.5t198 -96.5q74 0 128 39.5t118 140.5l92 -63q-136 -227 -346 -227q-106 0 -194.5 55t-139.5 153q-176 -208 -375 -208q-117 0 -189.5 73t-72.5 191zM182 246q0 -68 45.5 -114t112.5 -46q70 0 145.5 48.5t169.5 154.5q-26 77 -26 211v39 q-138 -37 -220.5 -66.5t-135.5 -64t-72 -71.5t-19 -91zM754 580h469q-7 146 -64 223.5t-155 77.5q-101 0 -167 -80t-83 -221z" />
<glyph unicode="&#xe7;" horiz-adv-x="837" d="M66 471q0 233 107 376.5t280 143.5q233 0 323 -262l-121 -41q-28 92 -82.5 141.5t-128.5 49.5q-110 0 -175.5 -110t-65.5 -296q0 -154 47 -250q29 -60 85 -96.5t118 -36.5q141 0 231 191l102 -45q-46 -122 -123.5 -183.5t-195.5 -70.5l-18 -82q58 -7 90 -37.5t32 -77.5 q0 -48 -36.5 -81.5t-90.5 -33.5q-65 0 -116 31l16 70q54 -29 88 -29q23 0 39 12t16 29q0 30 -28.5 42.5t-96.5 14.5l33 142q-110 17 -180 84q-71 68 -110 173.5t-39 231.5z" />
<glyph unicode="&#xe8;" horiz-adv-x="882" d="M66 494q0 225 104 361t276 136q170 0 261 -134.5t94 -389.5h-598q0 -172 72.5 -274.5t193.5 -102.5q79 0 135 41.5t119 147.5l94 -64q-59 -114 -149.5 -174.5t-202.5 -60.5q-181 0 -290 140.5t-109 373.5zM203 580h454q0 137 -58.5 219t-156.5 82q-62 0 -115.5 -34.5 t-82.5 -94.5q-21 -39 -29.5 -75t-11.5 -97zM272 1341h154l76 -245h-103z" />
<glyph unicode="&#xe9;" horiz-adv-x="882" d="M66 494q0 225 104 361t276 136q170 0 261 -134.5t94 -389.5h-598q0 -172 72.5 -274.5t193.5 -102.5q79 0 135 41.5t119 147.5l94 -64q-59 -114 -149.5 -174.5t-202.5 -60.5q-181 0 -290 140.5t-109 373.5zM203 580h454q0 137 -58.5 219t-156.5 82q-62 0 -115.5 -34.5 t-82.5 -94.5q-21 -39 -29.5 -75t-11.5 -97zM399 1094l74 247h148l-123 -247h-99z" />
<glyph unicode="&#xea;" horiz-adv-x="882" d="M66 494q0 225 104 361t276 136q170 0 261 -134.5t94 -389.5h-598q0 -172 72.5 -274.5t193.5 -102.5q79 0 135 41.5t119 147.5l94 -64q-59 -114 -149.5 -174.5t-202.5 -60.5q-181 0 -290 140.5t-109 373.5zM203 580h454q0 137 -58.5 219t-156.5 82q-62 0 -115.5 -34.5 t-82.5 -94.5q-21 -39 -29.5 -75t-11.5 -97zM225 1096l168 245h135l168 -245h-133l-102 157l-103 -157h-133z" />
<glyph unicode="&#xeb;" horiz-adv-x="882" d="M66 494q0 225 104 361t276 136q170 0 261 -134.5t94 -389.5h-598q0 -172 72.5 -274.5t193.5 -102.5q79 0 135 41.5t119 147.5l94 -64q-59 -114 -149.5 -174.5t-202.5 -60.5q-181 0 -290 140.5t-109 373.5zM203 580h454q0 137 -58.5 219t-156.5 82q-62 0 -115.5 -34.5 t-82.5 -94.5q-21 -39 -29.5 -75t-11.5 -97zM240 1153v135h133v-135h-133zM539 1153v135h133v-135h-133z" />
<glyph unicode="&#xec;" horiz-adv-x="393" d="M27 1341h153l76 -245h-102zM129 0v973h133v-973h-133z" />
<glyph unicode="&#xed;" horiz-adv-x="393" d="M129 0v973h133v-973h-133zM154 1094l73 247h148l-123 -247h-98z" />
<glyph unicode="&#xee;" horiz-adv-x="393" d="M-31 1096l168 245h135l168 -245h-133l-102 157l-103 -157h-133zM131 0v973h133v-973h-133z" />
<glyph unicode="&#xef;" horiz-adv-x="393" d="M14 1153v135h133v-135h-133zM129 0v973h133v-973h-133zM258 1153v135h133v-135h-133z" />
<glyph unicode="&#xf0;" horiz-adv-x="899" d="M66 477q0 225 100 369q51 75 122.5 110t172.5 35q44 0 86 -12l-105 215l-143 -76l-39 76l148 80l-72 147l74 41l79 -143l156 82l37 -70l-150 -84l146 -266q85 -152 110 -217q46 -116 46 -272q0 -249 -98.5 -382t-284.5 -133q-180 0 -282.5 133.5t-102.5 366.5zM195 489 q0 -195 65.5 -297t190.5 -102q122 0 189 103t67 290q0 189 -67.5 293.5t-190.5 104.5q-59 0 -111.5 -30.5t-83.5 -82.5q-59 -95 -59 -279z" />
<glyph unicode="&#xf1;" horiz-adv-x="952" d="M129 0v973h133v-154q147 172 313 172q65 0 121.5 -29.5t85.5 -80.5q23 -38 31 -88t8 -154v-639h-133v639q0 99 -10 143q-10 43 -49 71t-86 28q-62 0 -126.5 -37.5t-154.5 -126.5v-717h-133zM254 1130q4 76 43.5 122t99.5 46q30 0 52.5 -7t123.5 -46q27 -10 48 -10 q49 0 55 63h88q0 -72 -41.5 -121t-101.5 -49q-45 0 -129 37q-65 29 -84 29q-45 0 -60 -64h-94z" />
<glyph unicode="&#xf2;" horiz-adv-x="899" d="M66 479q0 238 102.5 375t280.5 137q186 0 286.5 -134t100.5 -382q0 -234 -101.5 -364.5t-283.5 -130.5q-180 0 -282.5 133t-102.5 366zM195 489q0 -195 65.5 -297t190.5 -102q122 0 189 103t67 290q0 189 -67.5 293.5t-190.5 104.5q-59 0 -111.5 -30.5t-83.5 -82.5 q-59 -95 -59 -279zM281 1341h153l76 -245h-102z" />
<glyph unicode="&#xf3;" horiz-adv-x="899" d="M66 479q0 238 102.5 375t280.5 137q186 0 286.5 -134t100.5 -382q0 -234 -101.5 -364.5t-283.5 -130.5q-180 0 -282.5 133t-102.5 366zM195 489q0 -195 65.5 -297t190.5 -102q122 0 189 103t67 290q0 189 -67.5 293.5t-190.5 104.5q-59 0 -111.5 -30.5t-83.5 -82.5 q-59 -95 -59 -279zM408 1094l73 247h148l-123 -247h-98z" />
<glyph unicode="&#xf4;" horiz-adv-x="899" d="M66 479q0 238 102.5 375t280.5 137q186 0 286.5 -134t100.5 -382q0 -234 -101.5 -364.5t-283.5 -130.5q-180 0 -282.5 133t-102.5 366zM195 489q0 -195 65.5 -297t190.5 -102q122 0 189 103t67 290q0 189 -67.5 293.5t-190.5 104.5q-59 0 -111.5 -30.5t-83.5 -82.5 q-59 -95 -59 -279zM221 1096l168 245h135l168 -245h-133l-102 157l-103 -157h-133z" />
<glyph unicode="&#xf5;" horiz-adv-x="899" d="M66 479q0 238 102.5 375t280.5 137q186 0 286.5 -134t100.5 -382q0 -234 -101.5 -364.5t-283.5 -130.5q-180 0 -282.5 133t-102.5 366zM195 489q0 -195 65.5 -297t190.5 -102q122 0 189 103t67 290q0 189 -67.5 293.5t-190.5 104.5q-59 0 -111.5 -30.5t-83.5 -82.5 q-59 -95 -59 -279zM215 1130q4 76 43.5 122t99.5 46q30 0 53.5 -7t123.5 -46q27 -10 47 -10q49 0 55 63h88q0 -72 -41.5 -121t-101.5 -49q-45 0 -129 37q-65 29 -84 29q-45 0 -60 -64h-94z" />
<glyph unicode="&#xf6;" horiz-adv-x="899" d="M66 479q0 238 102.5 375t280.5 137q186 0 286.5 -134t100.5 -382q0 -234 -101.5 -364.5t-283.5 -130.5q-180 0 -282.5 133t-102.5 366zM195 489q0 -195 65.5 -297t190.5 -102q122 0 189 103t67 290q0 189 -67.5 293.5t-190.5 104.5q-59 0 -111.5 -30.5t-83.5 -82.5 q-59 -95 -59 -279zM248 1153v135h133v-135h-133zM547 1153v135h133v-135h-133z" />
<glyph unicode="&#xf7;" d="M82 541v92h846v-92h-846zM412 180v219h190v-219h-190zM412 766v219h190v-219h-190z" />
<glyph unicode="&#xf8;" horiz-adv-x="903" d="M66 487q0 232 104 368t281 136q133 0 235 -86l74 111l63 -60l-75 -118q90 -130 90 -363q0 -234 -101.5 -364.5t-283.5 -130.5q-123 0 -217 61l-64 -94l-66 53l66 113q-106 128 -106 374zM193 477q0 -153 47 -264l383 592q-43 40 -82 57t-88 17q-123 0 -191.5 -106.5 t-68.5 -295.5zM295 139q74 -51 154 -51q124 0 193 101.5t69 283.5q0 155 -37 248z" />
<glyph unicode="&#xf9;" horiz-adv-x="950" d="M129 375v598h133v-598q0 -150 25 -205q41 -80 116 -80q70 0 129.5 36t153.5 136v711h133v-973h-133v154q-76 -92 -147.5 -133t-153.5 -41q-64 0 -118.5 23.5t-86.5 64.5q-51 68 -51 307zM319 1341h154l76 -245h-103z" />
<glyph unicode="&#xfa;" horiz-adv-x="950" d="M129 375v598h133v-598q0 -150 25 -205q41 -80 116 -80q70 0 129.5 36t153.5 136v711h133v-973h-133v154q-76 -92 -147.5 -133t-153.5 -41q-64 0 -118.5 23.5t-86.5 64.5q-51 68 -51 307zM446 1094l74 247h148l-123 -247h-99z" />
<glyph unicode="&#xfb;" horiz-adv-x="950" d="M129 375v598h133v-598q0 -150 25 -205q41 -80 116 -80q70 0 129.5 36t153.5 136v711h133v-973h-133v154q-76 -92 -147.5 -133t-153.5 -41q-64 0 -118.5 23.5t-86.5 64.5q-51 68 -51 307zM254 1096l168 245h135l168 -245h-133l-103 157l-102 -157h-133z" />
<glyph unicode="&#xfc;" horiz-adv-x="950" d="M129 375v598h133v-598q0 -150 25 -205q41 -80 116 -80q70 0 129.5 36t153.5 136v711h133v-973h-133v154q-76 -92 -147.5 -133t-153.5 -41q-64 0 -118.5 23.5t-86.5 64.5q-51 68 -51 307zM272 1153v135h134v-135h-134zM571 1153v135h134v-135h-134z" />
<glyph unicode="&#xfd;" horiz-adv-x="774" d="M-6 -315l14 116q63 -18 98 -18q72 0 124 49.5t104 167.5l-326 973h129l217 -635q27 -78 47 -154q17 84 41 154l207 635h133l-299 -910q-58 -167 -112 -253q-90 -142 -246 -142q-37 0 -131 17zM360 1094l74 247h148l-123 -247h-99z" />
<glyph unicode="&#xfe;" horiz-adv-x="946" d="M129 -328v1694h133v-506q71 72 128.5 101.5t129.5 29.5q162 0 260.5 -134.5t98.5 -356.5q0 -232 -103.5 -377.5t-269.5 -145.5q-67 0 -119 29.5t-125 106.5v-441h-133zM262 223q65 -74 116 -104.5t111 -30.5q123 0 192 109.5t69 304.5q0 131 -31 213.5t-98 128.5 q-53 37 -117 37t-120 -34t-122 -114v-510z" />
<glyph unicode="&#xff;" horiz-adv-x="774" d="M-6 -315l14 116q63 -18 98 -18q72 0 124 49.5t104 167.5l-326 973h129l217 -635q27 -78 47 -154q17 84 41 154l207 635h133l-299 -910q-58 -167 -112 -253q-90 -142 -246 -142q-37 0 -131 17zM193 1153v135h133v-135h-133zM492 1153v135h133v-135h-133z" />
<glyph unicode="&#x152;" horiz-adv-x="1775" d="M82 698q0 326 133.5 511.5t368.5 185.5q121 0 213 -51t143 -146v168h750v-125h-611v-461h441v-125h-441v-530h641v-125h-780v156q-129 -181 -348 -181q-235 0 -372.5 195t-137.5 528zM225 702q0 -287 97 -446.5t272 -159.5q173 0 262.5 149t89.5 437q0 262 -80 410 q-44 85 -119 132.5t-163 47.5q-82 0 -155 -42t-114 -112q-90 -148 -90 -416z" />
<glyph unicode="&#x153;" horiz-adv-x="1515" d="M66 479q0 238 104 375t285 137q220 0 323 -196q61 104 136 150t180 46q117 0 198 -64.5t121 -187.5q31 -91 37 -272h-602q-2 -170 73 -273.5t199 -103.5q73 0 128.5 40.5t115.5 137.5l86 -61q-60 -110 -148 -168.5t-194 -58.5q-216 0 -330 196q-60 -101 -137.5 -148.5 t-181.5 -47.5q-185 0 -289 132t-104 367zM195 485q0 -189 67 -292t189 -103q124 0 192 101t68 286q0 192 -68.5 298t-193.5 106q-69 0 -126.5 -40t-86.5 -106q-41 -96 -41 -250zM848 580h459q-6 146 -61.5 223.5t-155.5 77.5t-163.5 -79t-78.5 -222z" />
<glyph unicode="&#x178;" horiz-adv-x="903" d="M-20 1366h157l295 -575q6 -17 16.5 -41t14.5 -33q7 36 24 74l279 575h158l-392 -766v-600h-147v578zM250 1534v135h133v-135h-133zM549 1534v135h133v-135h-133z" />
<glyph unicode="&#x2c6;" horiz-adv-x="1024" d="M276 1096l168 245h136l168 -245h-134l-102 157l-102 -157h-134z" />
<glyph unicode="&#x2dc;" horiz-adv-x="1024" d="M256 1130q4 76 43.5 122t99.5 46q30 0 52.5 -7t123.5 -46q27 -10 48 -10q49 0 55 63h88q0 -72 -41.5 -121t-101.5 -49q-45 0 -129 37q-65 29 -84 29q-45 0 -60 -64h-94z" />
<glyph unicode="&#x2000;" horiz-adv-x="902" />
<glyph unicode="&#x2001;" horiz-adv-x="1804" />
<glyph unicode="&#x2002;" horiz-adv-x="902" />
<glyph unicode="&#x2003;" horiz-adv-x="1804" />
<glyph unicode="&#x2004;" horiz-adv-x="601" />
<glyph unicode="&#x2005;" horiz-adv-x="451" />
<glyph unicode="&#x2006;" horiz-adv-x="300" />
<glyph unicode="&#x2007;" horiz-adv-x="300" />
<glyph unicode="&#x2008;" horiz-adv-x="225" />
<glyph unicode="&#x2009;" horiz-adv-x="360" />
<glyph unicode="&#x200a;" horiz-adv-x="100" />
<glyph unicode="&#x2010;" horiz-adv-x="409" d="M0 420v129h410v-129h-410z" />
<glyph unicode="&#x2011;" horiz-adv-x="409" d="M0 420v129h410v-129h-410z" />
<glyph unicode="&#x2012;" horiz-adv-x="409" d="M0 420v129h410v-129h-410z" />
<glyph unicode="&#x2013;" d="M82 420v129h846v-129h-846z" />
<glyph unicode="&#x2014;" horiz-adv-x="1228" d="M0 420v129h1229v-129h-1229z" />
<glyph unicode="&#x2018;" horiz-adv-x="491" d="M164 901v191l96 274h94l-94 -274h68v-191h-164z" />
<glyph unicode="&#x2019;" horiz-adv-x="491" d="M137 901l94 275h-67v190h164v-190l-97 -275h-94z" />
<glyph unicode="&#x201a;" horiz-adv-x="491" d="M137 -272l94 272h-67v190h164v-190l-97 -272h-94z" />
<glyph unicode="&#x201c;" horiz-adv-x="819" d="M164 901v191l96 274h94l-94 -274h68v-191h-164zM492 901v191l96 274h94l-94 -274h67v-191h-163z" />
<glyph unicode="&#x201d;" horiz-adv-x="819" d="M137 901l94 275h-67v190h164v-190l-97 -275h-94zM465 901l94 275h-67v190h163v-190l-96 -275h-94z" />
<glyph unicode="&#x201e;" horiz-adv-x="819" d="M137 -272l94 272h-67v190h164v-190l-97 -272h-94zM465 -272l94 272h-67v190h163v-190l-96 -272h-94z" />
<glyph unicode="&#x2022;" horiz-adv-x="1366" d="M401 694q0 120 83.5 202.5t205.5 82.5q114 0 196.5 -83.5t82.5 -199.5q0 -118 -83 -201t-200 -83t-201 82.5t-84 199.5z" />
<glyph unicode="&#x2026;" horiz-adv-x="1474" d="M164 0v190h164v-190h-164zM655 0v190h164v-190h-164zM1147 0v190h164v-190h-164z" />
<glyph unicode="&#x202f;" horiz-adv-x="360" />
<glyph unicode="&#x2039;" horiz-adv-x="567" d="M61 471l252 375h117l-244 -375l265 -348h-123z" />
<glyph unicode="&#x203a;" horiz-adv-x="567" d="M117 123l266 348l-244 375h115l252 -375l-266 -348h-123z" />
<glyph unicode="&#x205f;" horiz-adv-x="451" />
<glyph unicode="&#x20ac;" horiz-adv-x="1296" d="M82 500l51 123h125q-2 14 -2 32q0 59 4 90h-178l51 123h139q19 121 47 199q60 160 171.5 243t265.5 83q331 0 438 -408l-139 -35q-71 322 -301 322q-135 0 -221.5 -102.5t-118.5 -301.5h499l-51 -123h-459q-4 -45 -4 -79q0 -23 2 -43h410l-53 -123h-348 q23 -189 114.5 -296.5t229.5 -107.5q173 0 274 189q32 59 47 141l139 -33q-46 -200 -166.5 -309t-295.5 -109q-203 0 -327 133.5t-159 391.5h-184z" />
<glyph unicode="&#x2122;" horiz-adv-x="1380" d="M2 1282v84h547v-84h-225v-694h-101v694h-221zM635 588v778h162l141 -477q21 -75 31 -119q9 44 28 113l140 483h159v-778h-100v694q-16 -56 -16 -65l-179 -629h-65l-186 637l-11 26q0 1 -1 4.5t-2.5 9t-2.5 9.5v-19q2 -18 2 -36v-631h-100z" />
</font>
</defs>
</svg>
